osu file format v14

[General]
AudioFilename: audio.mp3
AudioLeadIn: 0
PreviewTime: 70453
Countdown: 0
SampleSet: Soft
StackLeniency: 0.7
Mode: 0
LetterboxInBreaks: 0
WidescreenStoryboard: 0

[Editor]
DistanceSpacing: 1
BeatDivisor: 4
GridSize: 8
TimelineZoom: 4.099998

[Metadata]
Title:Summoning 101
TitleUnicode:Summoning 101
Artist:Mili
ArtistUnicode:Mili
Creator:Cheri
Version:Expert
Source:
Tags:Hailie ylvy DJ Lucky English
BeatmapID:1922046
BeatmapSetID:920344

[Difficulty]
HPDrainRate:6
CircleSize:4
OverallDifficulty:8.7
ApproachRate:8.7
SliderMultiplier:1.9
SliderTickRate:1

[Events]
//Background and Video events
0,0,"maxresdefault.jpg",0,0
//Break Periods
//Storyboard Layer 0 (Background)
//Storyboard Layer 1 (Fail)
//Storyboard Layer 2 (Pass)
//Storyboard Layer 3 (Foreground)
//Storyboard Layer 4 (Overlay)
//Storyboard Sound Samples

[TimingPoints]
3357,322.58064516129,4,2,0,50,1,0
7550,300,4,2,0,50,1,0
7700,304.568527918782,4,2,0,50,1,0
7852,331.491712707182,4,2,0,50,1,0
8017,342.857142857143,4,2,0,50,1,0
8188,304.568527918782,4,2,0,50,1,0
8492,363.636363636364,4,2,0,50,1,0
8673,283.018867924528,4,2,0,50,1,0
8956,359.281437125748,4,2,0,50,1,0
9135,342.857142857143,4,2,0,50,1,0
9306,335.195530726257,4,2,0,50,1,0
9473,335.195530726257,4,2,0,50,1,0
9808,335.195530726257,4,2,0,50,1,0
11113,312.5,4,2,0,50,1,0
11582,315.789473684211,4,2,0,50,1,0
11741,305.343511450382,4,2,0,50,1,0
11893,319.148936170213,4,2,0,50,1,0
12052,317.460317460317,4,2,0,50,1,0
12210,335.195530726257,4,2,0,50,1,0
12377,310.880829015544,4,2,0,50,1,0
12687,319.148936170213,4,2,0,50,1,0
13003,320.855614973262,4,2,0,50,1,0
13679,322.58064516129,4,2,0,50,1,0
13679,-100,4,2,0,50,0,0
18840,-125,4,2,0,40,0,0
24002,-166.666666666667,4,2,0,40,0,0
28518,-83.3333333333334,4,2,0,50,0,0
29163,-100,4,2,0,50,0,0
32550,-76.9230769230769,4,2,0,50,0,0
36905,-71.4285714285714,4,2,0,60,0,0
39486,-125,4,2,0,50,0,0
44647,-71.4285714285714,4,2,0,70,0,0
49486,-166.666666666667,4,2,0,50,0,0
49808,-71.4285714285714,4,2,0,70,0,0
54969,-66.6666666666667,4,2,0,70,0,0
65292,-125,4,2,0,50,0,0
70453,-166.666666666667,4,2,0,40,0,0
80776,-100,4,2,0,50,0,0
84163,-76.923076923077,4,2,0,50,0,0
84647,-71.4285714285714,4,2,0,50,0,0
85937,-142.857142857143,4,2,0,45,0,0
91098,-166.666666666667,4,2,0,40,0,0
106582,-125,4,2,0,50,0,0
114324,-83.3333333333333,4,2,0,60,0,0
120775,-71.4285714285714,4,2,0,80,0,1
125615,-166.666666666667,4,2,0,80,0,1
125937,-71.4285714285714,4,2,0,80,0,1
131098,-66.6666666666667,4,2,0,80,0,1
146260,-166.666666666667,4,2,0,80,0,1
146582,-71.4285714285714,4,2,0,80,0,1
151744,-62.5,4,2,0,80,0,1
160775,-62.5,4,2,0,80,0,0
161690,-76.9230769230769,4,2,0,50,0,0

[Colours]
Combo1 : 107,58,252
Combo2 : 0,0,255
Combo3 : 222,250,245
Combo4 : 214,214,214

[HitObjects]
116,0,3357,6,0,P|180:81|130:163,1,190,6|0,0:0|0:0,0:0:0:0:
133,311,3840,2,0,P|98:225|161:145,1,190,6|0,3:0|0:0,0:0:0:0:
270,5,4324,2,0,P|195:191|139:133,1,380,4|0,3:0|0:0,0:0:0:0:
482,343,5937,6,0,P|385:276|429:213,1,190,6|0,3:0|0:0,0:0:0:0:
481,103,6421,2,0,P|494:169|372:219,1,190,6|0,3:0|0:0,0:0:0:0:
236,376,6905,2,0,P|294:244|332:192,1,190,6|0,3:0|0:0,0:0:0:0:
191,38,7389,1,4,3:0:0:0:
191,38,7550,1,4,3:0:0:0:
191,38,7700,1,4,3:0:0:0:
297,62,7852,1,4,3:0:0:0:
180,124,8017,1,4,3:0:0:0:
360,204,8188,1,0,1:0:0:0:
129,332,8492,5,0,1:0:0:0:
22,252,8673,1,0,1:0:0:0:
22,252,8814,1,0,1:0:0:0:
199,259,8956,5,4,3:0:0:0:
64,155,9135,1,0,1:0:0:0:
64,155,9306,1,0,1:0:0:0:
297,206,9473,2,0,P|299:303|231:405,1,190,4|0,0:0|0:0,0:0:0:0:
255,382,10478,2,0,P|275:309|381:95,1,285,2|0,0:0|0:0,0:0:0:0:
414,21,11113,6,0,P|494:95|374:175,1,285,6|0,0:0|0:0,0:0:0:0:
277,97,11741,1,0,1:0:0:0:
435,272,11893,1,0,1:0:0:0:
374,55,12052,1,0,1:0:0:0:
296,271,12210,1,0,1:0:0:0:
100,56,12377,1,0,1:0:0:0:
100,56,12687,1,0,1:0:0:0:
106,88,12766,1,0,1:0:0:0:
92,117,12846,1,0,1:0:0:0:
102,140,12926,1,0,1:0:0:0:
89,167,13003,1,0,1:0:0:0:
102,189,13083,1,0,1:0:0:0:
90,215,13163,1,0,1:0:0:0:
106,237,13243,1,0,1:0:0:0:
92,265,13323,1,0,1:0:0:0:
103,289,13404,1,0,1:0:0:0:
94,312,13484,1,0,1:0:0:0:
102,338,13564,1,0,1:0:0:0:
92,376,13679,6,0,P|120:327|70:203,1,190,6|0,0:0|1:0,0:0:0:0:
292,64,14163,1,0,0:0:0:0:
348,173,14324,2,0,P|278:185|177:88,1,190,4|0,3:0|1:0,0:0:0:0:
292,64,14808,1,0,0:0:0:0:
446,123,14969,2,0,B|448:203|448:203|419:242|419:242|420:337,1,190,4|0,3:0|1:0,0:0:0:0:
487,208,15453,1,0,0:0:0:0:
333,357,15615,1,4,3:0:0:0:
487,208,15776,1,0,1:0:0:0:
300,66,15937,5,0,1:0:0:0:
300,66,16098,1,0,0:0:0:0:
139,123,16260,2,0,P|141:74|171:4,1,95,4|0,3:0|0:0,0:0:0:0:
224,208,16582,2,0,P|164:253|46:205,1,190,0|4,1:0|3:0,0:0:0:0:
139,123,17066,1,0,1:0:0:0:
305,211,17227,2,0,L|305:348,1,95,0|0,1:0|0:0,0:0:0:0:
451,204,17550,2,0,B|451:108|451:108|429:57|429:57|429:-19,1,190,4|0,3:0|1:0,0:0:0:0:
258,44,18034,2,0,L|370:44,1,95,0|0,0:0|3:0,0:0:0:0:
234,184,18356,1,4,3:0:0:0:
157,19,18518,1,0,1:0:0:0:
353,44,18679,1,0,0:0:0:0:
353,44,18760,1,0,0:0:0:0:
353,44,18840,6,0,P|377:107|338:198,1,152,4|0,3:0|0:0,0:0:0:0:
351,184,19486,1,0,1:0:0:0:
512,239,19808,1,0,0:0:0:0:
475,140,19969,1,0,1:0:0:0:
475,140,20050,1,0,1:0:0:0:
475,140,20131,2,0,P|423:219|437:298,1,152,4|4,3:0|3:0,0:0:0:0:
426,273,20776,1,0,1:0:0:0:
348,281,20937,1,0,0:0:0:0:
348,281,21098,2,0,P|289:325|272:343,1,76,2|0,0:0|0:0,0:0:0:0:
110,341,21421,6,0,P|140:287|71:250,3,152,4|0|0|0,3:0|0:0|1:0|0:0,0:0:0:0:
67,52,22550,1,0,1:0:0:0:
78,54,22631,1,0,1:0:0:0:
114,60,22711,2,0,P|118:110|121:155,1,76,4|0,3:0|0:0,0:0:0:0:
87,311,23034,1,4,3:0:0:0:
87,311,23356,1,0,1:0:0:0:
193,218,23518,1,8,3:0:0:0:
233,346,23679,1,4,3:0:0:0:
313,273,23840,1,4,3:0:0:0:
411,353,24002,6,0,B|513:275|487:125|407:114|359:164|355:216|409:252,1,341.999989562989,4|0,0:0|0:0,0:0:0:0:
391,236,25292,1,2,0:0:0:0:
84,78,25937,1,0,0:0:0:0:
269,195,26582,2,0,P|301:142|301:74,1,113.999996520996,2|0,0:0|0:0,0:0:0:0:
293,205,27227,2,0,P|327:155|341:93,1,113.999996520996,2|0,0:0|0:0,0:0:0:0:
321,235,27873,1,2,0:0:0:0:
321,235,28195,1,0,3:0:0:0:
321,235,28275,1,0,3:0:0:0:
321,235,28356,1,0,3:0:0:0:
321,235,28437,1,0,3:0:0:0:
359,267,28518,2,0,P|408:175|474:65,1,227.999993041992,2|0,0:0|0:0,0:0:0:0:
275,258,29163,6,0,P|267:327|267:379,1,95,4|0,0:0|0:0,0:0:0:0:
211,159,29486,1,4,3:0:0:0:
211,159,29566,1,4,3:0:0:0:
211,159,29647,1,0,1:0:0:0:
211,159,29727,1,0,1:0:0:0:
211,159,29808,1,0,1:0:0:0:
115,227,29969,1,6,3:0:0:0:
119,107,30131,1,0,0:0:0:0:
211,159,30292,1,0,1:0:0:0:
35,48,30453,6,0,P|92:29|138:18,1,95,6|0,0:0|0:0,0:0:0:0:
358,23,30776,1,4,3:0:0:0:
358,23,30856,1,4,3:0:0:0:
358,23,30937,1,4,3:0:0:0:
211,159,31098,1,0,1:0:0:0:
446,43,31260,1,4,3:0:0:0:
407,259,31421,5,2,0:0:0:0:
259,73,31582,1,0,1:0:0:0:
256,247,31744,1,4,3:0:0:0:
345,97,31905,1,0,0:0:0:0:
114,110,32066,1,8,3:0:0:0:
73,128,32227,2,0,P|68:195|58:252,1,95,8|0,3:0|0:0,0:0:0:0:
177,362,32550,2,0,P|158:288|151:241,1,123.499994346619,0|0,1:0|0:0,0:0:0:0:
188,29,32873,1,0,1:0:0:0:
221,35,33034,5,4,0:0:0:0:
266,45,33518,1,4,3:0:0:0:
266,45,33840,1,0,1:0:0:0:
291,61,33921,1,0,1:0:0:0:
323,52,34002,1,0,1:0:0:0:
351,68,34082,1,0,1:0:0:0:
388,60,34163,1,0,1:0:0:0:
411,76,34244,1,0,1:0:0:0:
464,54,34324,5,6,0:0:0:0:
450,282,34486,1,0,0:0:0:0:
512,127,34647,1,0,1:0:0:0:
349,196,34808,2,0,L|486:198,1,123.499994346619,4|0,3:0|0:0,0:0:0:0:
324,310,35131,1,4,3:0:0:0:
242,229,35292,1,0,1:0:0:0:
349,196,35453,1,0,0:0:0:0:
152,336,35615,5,4,0:0:0:0:
98,308,35776,2,0,P|97:234|103:171,1,123.499994346619,0|0,0:0|1:0,0:0:0:0:
143,39,36098,2,0,P|89:53|19:94,1,123.499994346619,4|0,3:0|0:0,0:0:0:0:
101,184,36421,1,4,3:0:0:0:
315,119,36582,2,0,L|280:-6,1,123.499994346619,0|0,1:0|0:0,0:0:0:0:
347,132,36905,6,0,L|312:-15,1,132.999995941162,4|0,1:0|0:0,0:0:0:0:
413,186,37227,1,0,1:0:0:0:
183,131,37389,2,0,P|275:104|360:94,1,132.999995941162,0|0,0:0|1:0,0:0:0:0:
228,279,37711,1,4,3:0:0:0:
228,279,37873,2,0,P|150:266|88:243,1,132.999995941162,0|0,1:0|0:0,0:0:0:0:
344,229,38195,6,0,P|356:253|409:391,1,132.999995941162,4|0,0:0|0:0,0:0:0:0:
309,93,38518,1,4,3:0:0:0:
309,93,38625,1,4,3:0:0:0:
309,93,38732,1,4,3:0:0:0:
266,80,38840,1,4,3:0:0:0:
227,80,38947,1,4,3:0:0:0:
193,91,39055,1,4,3:0:0:0:
158,113,39162,1,4,3:0:0:0:
136,142,39270,1,4,3:0:0:0:
121,181,39377,1,4,3:0:0:0:
117,284,39486,6,0,P|210:236|192:45,1,304,6|0,0:0|0:0,0:0:0:0:
204,56,40453,1,0,0:0:0:0:
117,284,40776,2,0,P|193:253|239:55,1,304,4|0,0:0|0:0,0:0:0:0:
282,55,41744,5,0,0:0:0:0:
402,144,42066,2,0,P|311:288|175:359,1,304,4|0,0:0|0:0,0:0:0:0:
157,278,42873,1,2,0:0:0:0:
157,278,43034,1,2,0:0:0:0:
157,278,43195,1,2,0:0:0:0:
161,181,43356,1,0,3:0:0:0:
244,236,43518,1,0,3:0:0:0:
211,100,43679,1,0,3:0:0:0:
342,243,43840,1,0,3:0:0:0:
371,2,44002,5,0,1:0:0:0:
50,35,44324,1,0,1:0:0:0:
35,80,44405,1,0,1:0:0:0:
56,119,44486,1,0,1:0:0:0:
46,157,44566,1,0,1:0:0:0:
69,206,44647,2,0,B|144:194|144:194|233:256|233:256|336:235,1,265.999991882324,6|0,0:0|1:0,0:0:0:0:
492,13,45131,2,0,L|408:133,1,132.999995941162,4|0,3:0|0:0,0:0:0:0:
177,33,45453,1,4,3:0:0:0:
265,176,45615,1,0,1:0:0:0:
359,14,45776,1,0,0:0:0:0:
164,176,45937,2,0,P|245:308|348:349,1,265.999991882324,6|0,0:0|1:0,0:0:0:0:
164,176,46421,6,0,L|71:66,1,132.999995941162,6|0,3:0|0:0,0:0:0:0:
303,73,46744,1,4,3:0:0:0:
105,245,46905,2,0,L|53:379,1,132.999995941162,0|0,1:0|0:0,0:0:0:0:
290,190,47227,6,0,B|328:133|328:133|299:63,1,132.999995941162,4|0,0:0|0:0,0:0:0:0:
202,146,47550,2,0,P|205:210|268:282,1,132.999995941162,0|0,1:0|0:0,0:0:0:0:
391,128,47872,1,4,3:0:0:0:
224,25,48034,1,4,3:0:0:0:
242,265,48195,2,0,L|306:393,1,132.999995941162,0|0,1:0|0:0,0:0:0:0:
61,158,48518,2,0,B|88:117|150:114|195:157|195:157|349:150,1,265.999991882324,4|0,0:0|1:0,0:0:0:0:
346,173,49163,1,4,1:3:0:0:
126,33,49324,1,0,1:0:0:0:
194,234,49486,6,0,L|287:208,1,85.4999973907472,6|0,1:3|0:0,0:0:0:0:
112,283,49808,6,0,B|88:178|88:178|55:120,1,132.999995941162,6|0,0:0|0:0,0:0:0:0:
265,2,50131,2,0,P|256:76|268:138,1,132.999995941162,0|0,1:0|0:0,0:0:0:0:
462,233,50453,1,4,3:0:0:0:
266,132,50615,1,4,3:0:0:0:
457,362,50776,2,0,B|446:282|446:282|470:207,1,132.999995941162,0|0,1:0|0:0,0:0:0:0:
489,45,51098,5,4,3:0:0:0:
461,232,51260,1,4,3:0:0:0:
306,62,51421,2,0,P|355:110|441:140,1,132.999995941162,0|0,1:0|0:0,0:0:0:0:
159,231,51744,2,0,P|87:278|28:290,1,132.999995941162,4|4,3:0|3:0,0:0:0:0:
306,195,52066,2,0,L|306:53,1,132.999995941162,0|0,1:0|0:0,0:0:0:0:
199,296,52389,2,0,P|282:350|426:275,1,265.999991882324,6|0,0:0|1:0,0:0:0:0:
306,62,52873,1,0,0:0:0:0:
145,223,53034,2,0,B|211:211|211:211|284:251,1,132.999995941162,4|4,3:0|3:0,0:0:0:0:
135,67,53356,2,0,P|69:81|-9:65,1,132.999995941162,0|0,1:0|0:0,0:0:0:0:
35,296,53679,6,0,L|37:143,1,132.999995941162,4|0,0:0|0:0,0:0:0:0:
214,59,54002,1,0,1:0:0:0:
36,163,54163,1,0,0:0:0:0:
145,378,54324,2,0,P|176:299|243:242,1,132.999995941162,4|4,3:0|3:0,0:0:0:0:
403,203,54647,2,0,L|266:202,1,132.999995941162,0|0,1:0|0:0,0:0:0:0:
439,318,54969,6,0,P|506:227|369:108,1,285.000010871888,4|0,0:0|1:0,0:0:0:0:
114,97,55453,2,0,B|108:183|108:183|155:264|155:264|143:386,1,285.000010871888,4|0,0:0|0:0,0:0:0:0:
114,97,55937,2,0,L|-6:5,1,142.500005435944,0|0,1:0|0:0,0:0:0:0:
194,239,56260,2,0,P|283:177|239:23,1,285.000010871888,4|0,0:0|0:0,0:0:0:0:
139,336,56744,2,0,B|257:325|257:325|331:258|331:258|431:254,1,285.000010871888,4|0,0:0|0:0,0:0:0:0:
485,0,57227,6,0,L|446:145,1,142.500005435944,0|0,1:0|0:0,0:0:0:0:
458,384,57550,2,0,P|424:297|388:243,1,142.500005435944,4|0,3:0|0:0,0:0:0:0:
282,4,57873,2,0,P|272:64|267:164,1,142.500005435944,0|0,1:0|0:0,0:0:0:0:
176,332,58195,1,4,3:0:0:0:
266,145,58356,1,4,3:0:0:0:
84,228,58518,2,0,L|229:228,1,142.500005435944,0|0,1:0|0:0,0:0:0:0:
485,21,58840,2,0,B|334:41|363:118|294:150|214:106,1,285.000010871888,6|0,0:0|1:0,0:0:0:0:
44,32,59324,1,0,0:0:0:0:
26,300,59486,1,4,3:0:0:0:
231,114,59647,1,0,1:0:0:0:
225,138,59727,1,0,1:0:0:0:
216,168,59808,1,0,1:0:0:0:
354,40,59969,1,0,1:0:0:0:
512,294,60131,6,0,B|400:296|400:296|291:231,1,213.750008153916,6|0,0:0|0:0,0:0:0:0:
262,132,60453,2,0,P|215:221|237:303,1,142.500005435944,0|0,1:0|0:0,0:0:0:0:
386,151,60776,1,4,3:0:0:0:
187,58,60937,1,4,3:0:0:0:
80,287,61098,2,0,L|252:251,1,142.500005435944,0|0,1:0|0:0,0:0:0:0:
67,51,61421,6,0,P|96:107|104:197,1,142.500005435944,4|0,3:0|0:0,0:0:0:0:
283,384,61744,2,0,P|232:302|218:245,1,142.500005435944,0|0,1:0|0:0,0:0:0:0:
275,68,62066,1,4,3:0:0:0:
220,258,62227,1,4,3:0:0:0:
428,145,62389,2,0,L|266:147,1,142.500005435944,0|0,1:0|0:0,0:0:0:0:
481,221,62711,6,0,P|509:165|507:64,1,142.500005435944,4|0,3:0|0:0,0:0:0:0:
218,46,63034,2,0,B|184:107|184:107|197:203,1,142.500005435944,0|0,1:0|0:0,0:0:0:0:
287,379,63356,1,4,3:0:0:0:
193,179,63517,1,4,3:0:0:0:
116,286,63679,1,0,1:0:0:0:
286,276,63840,1,0,0:0:0:0:
218,46,64002,5,4,3:0:0:0:
31,275,64244,1,0,1:0:0:0:
31,275,64324,1,0,1:0:0:0:
339,184,64486,2,0,L|161:183,1,142.500005435944,0|0,0:0|0:0,0:0:0:0:
372,278,64808,1,4,3:0:0:0:
482,47,64969,1,0,1:0:0:0:
482,47,65292,6,0,P|467:127|456:212,1,152,4|0,0:0|0:0,0:0:0:0:
508,305,65937,2,0,P|435:307|361:254,1,152,0|0,1:0|0:0,0:0:0:0:
270,305,66421,1,0,1:0:0:0:
270,305,66502,1,0,1:0:0:0:
270,305,66582,1,4,3:0:0:0:
191,236,66744,1,0,1:0:0:0:
110,297,66905,1,4,3:0:0:0:
138,49,67227,1,0,1:0:0:0:
174,50,67550,5,2,0:0:0:0:
206,50,67711,1,0,0:0:0:0:
236,60,67873,2,0,L|236:168,1,76,4|0,3:0|0:0,0:0:0:0:
335,101,68195,2,0,P|327:29|327:-3,1,76,0|0,0:0|0:0,0:0:0:0:
424,77,68518,2,0,P|428:120|428:177,1,76,0|0,1:0|0:0,0:0:0:0:
369,280,68840,1,0,0:0:0:0:
443,349,69002,1,0,1:0:0:0:
443,349,69082,1,0,1:0:0:0:
443,349,69163,5,4,3:0:0:0:
485,348,69486,1,4,3:0:0:0:
470,35,69808,1,0,1:0:0:0:
472,157,69969,1,8,3:0:0:0:
447,26,70130,1,4,3:0:0:0:
452,167,70292,1,4,3:0:0:0:
320,102,70453,6,0,B|254:155|246:254|336:292|383:216|339:196|323:204,1,227.999993041992,4|2,0:0|0:0,0:0:0:0:
174,297,71421,1,0,3:0:0:0:
174,297,71582,1,0,3:0:0:0:
174,297,71744,2,0,P|100:320|6:376,1,170.999994781494,4|0,3:0|0:0,0:0:0:0:
1,197,72389,2,0,L|0:270,1,56.9999982604981,0|0,3:0|0:0,0:0:0:0:
77,157,72711,2,0,P|57:123|31:89,1,56.9999982604981,2|0,0:0|0:0,0:0:0:0:
203,34,73034,6,0,P|257:48|316:24,3,113.999996520996,4|0|2|0,3:0|0:0|3:0|0:0,0:0:0:0:
458,174,74324,2,0,L|516:68,1,113.999996520996,4|0,3:0|0:0,0:0:0:0:
403,249,74969,2,0,L|416:315,1,56.9999982604981,0|0,1:0|0:0,0:0:0:0:
184,355,75292,1,0,3:0:0:0:
165,353,75453,1,0,3:0:0:0:
118,349,75615,2,0,P|109:245|113:174,1,170.999994781494,4|0,3:0|0:0,0:0:0:0:
159,45,76260,1,0,3:0:0:0:
159,45,76582,1,0,0:0:0:0:
257,123,76744,1,2,0:0:0:0:
257,123,76824,1,0,0:0:0:0:
257,123,76905,6,0,P|281:134|371:131,1,113.999996520996,2|0,0:0|0:0,0:0:0:0:
465,104,77550,2,0,P|409:133|366:184,1,113.999996520996,0|0,3:0|0:0,0:0:0:0:
393,273,78195,2,0,P|305:231|295:218,1,113.999996520996,4|0,0:0|0:0,0:0:0:0:
111,322,78840,2,0,P|161:308|232:304,1,113.999996520996,4|0,0:0|0:0,0:0:0:0:
433,356,79486,1,4,3:0:0:0:
452,357,80131,1,2,3:0:0:0:
277,178,80776,6,0,P|207:187|140:195,1,95,6|0,0:0|0:0,0:0:0:0:
235,71,81098,1,0,1:0:0:0:
408,189,81260,1,0,1:0:0:0:
408,189,81340,1,0,1:0:0:0:
408,189,81421,1,0,1:0:0:0:
451,82,81582,1,4,3:0:0:0:
344,91,81744,1,0,0:0:0:0:
408,189,81905,1,0,1:0:0:0:
214,377,82066,6,0,P|145:329|94:235,1,190,6|4,0:0|3:0,0:0:0:0:
236,30,82550,1,4,3:0:0:0:
133,19,82711,1,0,1:0:0:0:
166,204,82873,1,4,3:0:0:0:
414,103,83034,1,2,0:0:0:0:
236,30,83195,1,0,1:0:0:0:
248,261,83356,5,4,3:0:0:0:
323,98,83518,1,0,0:0:0:0:
212,344,83679,1,8,3:0:0:0:
202,182,83840,2,0,P|271:173|326:203,1,95,8|0,3:0|0:0,0:0:0:0:
50,210,84163,2,0,B|31:153|31:153|82:81,1,123.499994346619,0|0,1:0|0:0,0:0:0:0:
169,267,84486,1,0,1:0:0:0:
278,18,84647,2,0,P|373:17|516:172,1,265.999991882324,6|0,0:0|0:0,0:0:0:0:
389,378,85131,2,0,L|397:60,1,265.999991882324,6|0,3:0|0:0,0:0:0:0:
209,43,85615,2,0,P|281:41|334:67,1,132.999995941162,0|0,3:0|0:0,0:0:0:0:
267,294,85937,6,0,L|232:367,1,66.4999979705811,4|0,0:0|0:0,0:0:0:0:
116,303,86260,1,2,0:0:0:0:
116,303,86421,1,0,0:0:0:0:
90,216,86582,1,0,1:0:0:0:
170,232,86744,1,0,0:0:0:0:
116,303,86905,1,2,0:0:0:0:
90,216,87066,1,4,3:0:0:0:
54,101,87227,5,4,3:0:0:0:
161,166,87389,2,0,L|171:245,1,66.4999979705811,0|0,1:0|0:0,0:0:0:0:
253,171,87711,1,0,0:0:0:0:
341,317,87873,2,0,B|434:282|416:362|542:331,1,199.499993911743,0|0,1:0|0:0,0:0:0:0:
512,181,88518,6,0,P|464:188|418:206,1,66.4999979705811,4|0,0:3|0:0,0:0:0:0:
293,241,88840,1,2,0:0:0:0:
328,156,89002,1,0,0:0:0:0:
383,231,89163,1,0,1:0:0:0:
293,241,89324,1,0,0:0:0:0:
328,156,89486,1,2,0:0:0:0:
383,231,89647,1,4,3:0:0:0:
203,289,89808,6,0,L|151:364,1,66.4999979705811,4|0,3:0|0:0,0:0:0:0:
165,140,90131,2,0,L|157:55,1,66.4999979705811,4|0,3:0|0:0,0:0:0:0:
106,202,90453,1,0,1:0:0:0:
158,73,90615,1,4,3:0:0:0:
221,242,90776,1,4,3:0:0:0:
254,11,90937,1,4,3:0:0:0:
376,183,91098,6,0,B|286:208|217:190|206:118|251:84,1,227.999993041992,4|0,0:0|0:0,0:0:0:0:
244,89,92389,2,0,P|321:66|386:177,1,227.999993041992,4|0,0:0|0:0,0:0:0:0:
63,43,93356,1,2,0:0:0:0:
221,169,93679,2,0,B|136:170|136:170|101:134|101:134|-8:135,1,227.999993041992,4|0,0:0|0:0,0:0:0:0:
51,220,94486,5,2,0:0:0:0:
51,220,94647,1,2,0:0:0:0:
51,220,94808,1,2,0:0:0:0:
79,251,94969,1,0,0:0:0:0:
106,222,95130,1,0,0:0:0:0:
147,259,95292,1,2,0:0:0:0:
144,189,95453,1,0,0:0:0:0:
221,184,95615,2,0,L|181:114,1,56.9999982604981,2|0,0:0|0:0,0:0:0:0:
294,67,95937,2,0,L|221:51,1,56.9999982604981,0|0,0:0|0:0,0:0:0:0:
390,32,96260,5,2,0:0:0:0:
390,32,96582,1,0,0:0:0:0:
390,32,96744,1,0,0:0:0:0:
480,286,97066,1,0,0:0:0:0:
455,211,97227,1,2,0:0:0:0:
401,268,97389,1,0,0:0:0:0:
287,161,97550,2,0,L|116:154,1,170.999994781494,2|0,0:0|0:0,0:0:0:0:
19,130,98518,1,2,0:0:0:0:
19,130,98840,6,0,P|55:75|53:12,2,113.999996520996,2|0|2,0:0|0:0|0:0,0:0:0:0:
36,282,99808,1,0,0:0:0:0:
36,282,100131,1,2,0:0:0:0:
125,311,100292,1,0,0:0:0:0:
97,219,100454,1,2,0:0:0:0:
36,282,100615,1,0,0:0:0:0:
125,311,100776,1,2,0:0:0:0:
336,117,101098,1,2,0:0:0:0:
312,44,101259,1,0,0:0:0:0:
256,111,101421,6,0,L|295:219,1,113.999996520996,2|0,0:0|0:0,0:0:0:0:
460,258,101905,1,0,0:0:0:0:
460,258,102389,2,0,P|462:221|467:165,1,85.4999973907472,2|2,0:0|0:0,0:0:0:0:
472,136,102711,2,0,P|420:146|348:124,1,113.999996520996,2|0,0:0|0:0,0:0:0:0:
410,51,103195,1,0,0:0:0:0:
472,136,103356,2,0,L|468:273,1,113.999996520996,2|0,0:0|0:0,0:0:0:0:
313,346,104002,6,0,P|337:285|311:219,2,113.999996520996,2|0|2,0:0|0:0|0:0,0:0:0:0:
72,350,104969,1,0,0:0:0:0:
67,192,105292,2,0,L|164:263,1,113.999996520996,2|0,0:0|0:0,0:0:0:0:
235,301,105776,1,0,0:0:0:0:
242,154,105937,1,2,3:0:0:0:
247,121,106582,6,0,P|297:117|393:158,1,152,4|0,3:0|0:0,0:0:0:0:
476,118,107066,1,0,0:0:0:0:
476,118,107227,2,0,L|473:32,1,76,0|0,3:0|0:0,0:0:0:0:
389,154,107550,2,0,P|388:200|419:228,1,76,0|0,0:0|0:0,0:0:0:0:
486,368,107873,1,2,3:0:0:0:
467,289,108034,1,0,0:0:0:0:
404,343,108195,1,2,0:0:0:0:
404,343,108356,1,0,0:0:0:0:
270,328,108518,2,0,P|214:345|168:357,1,76,0|0,3:0|0:0,0:0:0:0:
212,262,108840,2,0,P|254:249|301:239,1,76,0|0,0:0|0:0,0:0:0:0:
271,137,109163,5,4,3:0:0:0:
193,213,109324,1,0,0:0:0:0:
170,77,109486,2,0,P|164:23|183:-27,1,76,2|0,0:0|0:0,0:0:0:0:
279,48,109808,2,0,L|358:49,1,76,0|0,3:0|0:0,0:0:0:0:
304,204,110131,2,0,P|275:155|269:132,1,76,2|0,0:0|0:0,0:0:0:0:
182,40,110453,1,0,3:0:0:0:
179,142,110615,1,0,0:0:0:0:
96,80,110776,1,2,0:0:0:0:
102,180,110937,1,0,0:0:0:0:
19,268,111098,2,0,L|96:308,1,76,0|0,3:0|0:0,0:0:0:0:
227,365,111421,1,2,0:0:0:0:
227,365,111582,1,2,0:0:0:0:
347,284,111744,6,0,P|405:300|488:353,1,152,4|0,3:0|0:0,0:0:0:0:
492,172,112389,2,0,L|497:87,1,76,0|0,3:0|0:0,0:0:0:0:
377,36,112711,1,2,0:0:0:0:
280,95,112873,1,0,3:0:0:0:
280,95,112953,1,0,3:0:0:0:
280,95,113034,2,0,P|227:99|177:80,1,76,2|0,3:0|0:0,0:0:0:0:
121,13,113356,2,0,P|160:11|213:11,1,76,0|0,0:0|0:0,0:0:0:0:
126,217,113679,2,0,L|142:139,1,76,2|0,3:0|0:0,0:0:0:0:
57,244,114002,2,0,L|85:325,1,76,2|0,0:0|0:0,0:0:0:0:
397,335,114324,2,0,P|312:327|160:337,1,227.999993041992,6|0,0:0|0:0,0:0:0:0:
89,79,114969,2,0,P|144:79|225:83,1,113.999996520996,4|0,3:0|0:0,0:0:0:0:
412,42,115292,2,0,P|354:41|274:47,1,113.999996520996,2|0,0:0|0:0,0:0:0:0:
258,190,115615,1,0,1:0:0:0:
203,85,115776,1,0,1:0:0:0:
203,85,115856,1,0,1:0:0:0:
203,85,115937,1,0,1:0:0:0:
312,27,116098,1,4,3:0:0:0:
374,125,116260,1,4,3:0:0:0:
317,316,116421,1,0,1:0:0:0:
453,368,116582,1,4,3:0:0:0:
512,186,116744,1,0,0:0:0:0:
512,186,116824,1,0,0:0:0:0:
512,186,116905,2,0,P|487:127|472:71,1,113.999996520996,2|0,1:2|0:0,0:0:0:0:
473,78,117147,1,0,3:0:0:0:
473,78,117227,1,0,1:0:0:0:
276,170,117389,1,0,1:0:0:0:
224,39,117550,1,4,3:0:0:0:
87,120,117711,1,0,1:0:0:0:
203,254,117873,1,4,3:0:0:0:
201,120,118034,1,0,1:0:0:0:
61,280,118195,5,2,1:2:0:0:
238,326,118356,1,0,1:0:0:0:
238,326,118437,1,0,1:0:0:0:
238,326,118518,1,0,1:0:0:0:
146,172,118679,1,0,1:0:0:0:
303,114,118840,1,4,0:3:0:0:
353,260,119002,1,0,1:0:0:0:
237,308,119163,1,4,3:0:0:0:
206,90,119324,1,0,1:0:0:0:
477,360,119486,1,2,1:2:0:0:
489,359,119808,1,0,1:0:0:0:
495,37,120131,5,0,1:0:0:0:
81,83,120292,1,0,1:0:0:0:
118,97,120373,1,0,1:0:0:0:
156,86,120453,1,0,1:0:0:0:
192,111,120534,1,0,1:0:0:0:
234,90,120615,1,0,1:0:0:0:
275,108,120695,1,0,1:0:0:0:
354,88,120776,2,0,B|289:106|289:106|212:206|212:206|94:228,1,265.999991882324,6|0,0:0|1:0,0:0:0:0:
425,114,121260,2,0,L|500:-6,1,132.999995941162,4|0,3:0|0:0,0:0:0:0:
492,195,121582,1,4,3:0:0:0:
216,74,121744,1,0,1:0:0:0:
222,231,121905,1,0,0:0:0:0:
512,88,122066,2,0,P|412:131|432:271,1,265.999991882324,6|0,0:0|1:0,0:0:0:0:
124,125,122550,6,0,B|174:199|174:199|170:284|170:284|225:416,1,265.999991882324,6|4,3:0|3:0,0:0:0:0:
62,260,123034,2,0,L|115:104,1,132.999995941162,0|0,1:0|0:0,0:0:0:0:
349,19,123356,2,0,B|324:87|324:87|370:167,1,132.999995941162,4|0,0:0|0:0,0:0:0:0:
382,360,123679,2,0,P|371:288|331:226,1,132.999995941162,0|0,1:0|0:0,0:0:0:0:
206,110,124002,1,4,3:0:0:0:
420,201,124163,1,4,3:0:0:0:
190,349,124324,2,0,L|52:320,1,132.999995941162,0|0,1:0|0:0,0:0:0:0:
171,91,124647,5,4,0:0:0:0:
204,352,124808,1,0,0:0:0:0:
186,79,124969,1,0,1:0:0:0:
431,252,125292,5,4,1:3:0:0:
109,192,125453,1,0,1:0:0:0:
339,303,125615,6,0,L|438:296,1,85.4999973907472,6|0,1:3|0:0,0:0:0:0:
231,350,125937,6,0,B|226:270|226:270|203:213,1,132.999995941162,6|0,0:0|0:0,0:0:0:0:
433,42,126260,2,0,L|421:174,1,132.999995941162,0|0,1:0|0:0,0:0:0:0:
217,108,126582,1,4,3:0:0:0:
419,268,126744,1,4,3:0:0:0:
480,21,126905,2,0,L|348:62,1,132.999995941162,0|0,1:0|0:0,0:0:0:0:
77,128,127227,2,0,B|144:65|144:65|145:-1,1,132.999995941162,4|4,3:0|3:0,0:0:0:0:
186,289,127550,2,0,P|122:269|45:278,1,132.999995941162,0|0,1:0|0:0,0:0:0:0:
271,354,127873,2,0,P|331:338|273:322,1,132.999995941162,4|4,3:0|3:0,0:0:0:0:
421,112,128195,6,0,L|503:0,1,132.999995941162,0|0,1:0|0:0,0:0:0:0:
287,101,128518,2,0,B|341:196|341:196|340:271|340:271|423:390,1,265.999991882324,6|0,0:0|1:0,0:0:0:0:
127,347,129002,1,0,0:0:0:0:
194,94,129163,2,0,P|169:47|96:-6,1,132.999995941162,4|4,3:0|3:0,0:0:0:0:
115,182,129486,2,0,L|248:238,1,132.999995941162,0|0,1:0|0:0,0:0:0:0:
474,355,129808,2,0,P|507:339|516:246,1,132.999995941162,4|0,3:0|0:0,0:0:0:0:
317,274,130131,1,0,1:0:0:0:
474,355,130292,1,0,0:0:0:0:
421,105,130453,2,0,L|420:260,1,132.999995941162,4|4,3:0|3:0,0:0:0:0:
186,146,130776,2,0,B|187:70|187:70|149:-8,1,132.999995941162,0|0,1:0|0:0,0:0:0:0:
115,255,131098,6,0,P|215:266|299:124,1,285.000010871888,4|0,0:0|1:0,0:0:0:0:
141,368,131582,2,0,B|325:323|325:323|342:370|440:374,1,285.000010871888,4|0,0:0|0:0,0:0:0:0:
484,85,132066,2,0,L|429:247,1,142.500005435944,0|0,1:0|0:0,0:0:0:0:
173,61,132389,2,0,P|247:17|391:132,1,285.000010871888,4|0,0:0|0:0,0:0:0:0:
216,377,132873,2,0,B|146:326|146:326|135:227|135:227|41:150,1,285.000010871888,4|0,0:0|0:0,0:0:0:0:
389,120,133356,6,0,L|243:157,1,142.500005435944,0|0,1:0|0:0,0:0:0:0:
507,207,133679,2,0,P|483:150|494:68,1,142.500005435944,4|0,3:0|0:0,0:0:0:0:
256,61,134002,2,0,L|418:17,1,142.500005435944,0|0,1:0|0:0,0:0:0:0:
327,290,134324,2,0,B|263:280|263:280|196:323,1,142.500005435944,4|4,3:0|3:0,0:0:0:0:
85,67,134647,2,0,L|152:220,1,142.500005435944,0|0,1:0|0:0,0:0:0:0:
394,307,134969,2,0,P|315:219|444:141,1,285.000010871888,6|0,0:0|1:0,0:0:0:0:
408,222,135453,1,0,0:0:0:0:
205,65,135615,1,4,3:0:0:0:
291,298,135776,1,0,1:0:0:0:
291,298,135856,1,0,1:0:0:0:
291,298,135937,1,0,1:0:0:0:
463,49,136098,1,0,1:0:0:0:
463,49,136179,1,0,1:0:0:0:
463,49,136260,6,0,P|495:117|331:233,1,285.000010871888,6|0,0:0|1:0,0:0:0:0:
168,65,136744,1,0,0:0:0:0:
211,159,136905,1,4,3:0:0:0:
228,16,137066,2,0,L|86:66,1,142.500005435944,4|0,3:0|1:0,0:0:0:0:
211,159,137389,1,0,0:0:0:0:
86,357,137550,2,0,P|94:270|83:199,1,142.500005435944,4|0,3:0|0:0,0:0:0:0:
326,127,137873,2,0,B|310:204|310:204|336:285,1,142.500005435944,0|0,1:0|0:0,0:0:0:0:
411,37,138195,2,0,P|346:9|260:12,1,142.500005435944,4|4,3:0|3:0,0:0:0:0:
191,295,138518,6,0,P|261:287|343:257,1,142.500005435944,0|0,1:0|0:0,0:0:0:0:
124,71,138840,2,0,P|106:142|110:234,1,142.500005435944,4|0,3:0|0:0,0:0:0:0:
328,263,139163,2,0,L|223:165,1,142.500005435944,0|0,1:0|0:0,0:0:0:0:
404,122,139486,1,4,3:0:0:0:
328,384,139647,2,0,B|276:299|187:318|127:250|132:172,1,285.000010871888,4|0,3:0|0:0,0:0:0:0:
496,55,140131,2,0,P|490:115|462:212,1,142.500005435944,4|4,3:0|3:0,0:0:0:0:
209,35,140453,1,0,1:0:0:0:
76,333,140776,5,0,1:0:0:0:
437,181,140937,1,0,1:0:0:0:
430,141,141018,1,0,1:0:0:0:
446,113,141098,1,0,1:0:0:0:
433,68,141179,1,0,1:0:0:0:
452,30,141260,1,0,1:0:0:0:
484,333,141421,2,0,P|381:303|363:134,1,285.000010871888,6|0,0:0|1:0,0:0:0:0:
43,29,141905,2,0,L|175:130,1,142.500005435944,4|0,3:0|0:0,0:0:0:0:
365,39,142227,1,4,3:0:0:0:
198,340,142389,2,0,P|207:263|176:184,1,142.500005435944,0|0,1:0|0:0,0:0:0:0:
490,95,142711,2,0,B|403:102|403:102|336:44|336:44|225:57,1,285.000010871888,6|0,0:0|1:0,0:0:0:0:
246,353,143195,6,0,L|541:301,1,285.000010871888,6|4,3:0|3:0,0:0:0:0:
320,183,143679,2,0,L|171:207,1,142.500005435944,0|0,1:0|0:0,0:0:0:0:
411,187,144002,2,0,L|406:45,1,142.500005435944,4|0,0:0|0:0,0:0:0:0:
93,155,144324,2,0,B|106:255|106:255|82:331,1,142.500005435944,0|0,1:0|0:0,0:0:0:0:
357,37,144647,2,0,L|473:127,1,142.500005435944,4|4,3:0|3:0,0:0:0:0:
201,346,144969,2,0,P|207:279|244:172,1,142.500005435944,0|0,1:0|0:0,0:0:0:0:
471,16,145292,2,0,L|467:312,1,285.000010871888,4|0,0:0|1:0,0:0:0:0:
486,341,145937,5,4,1:3:0:0:
364,102,146098,1,0,1:0:0:0:
385,371,146260,6,0,L|394:274,1,85.4999973907472,6|0,1:3|0:0,0:0:0:0:
342,125,146582,6,0,L|494:135,1,132.999995941162,6|0,0:0|0:0,0:0:0:0:
279,345,146905,2,0,B|259:273|259:273|199:242,1,132.999995941162,0|0,1:0|0:0,0:0:0:0:
279,17,147227,1,4,3:0:0:0:
208,247,147388,1,4,3:0:0:0:
40,30,147550,2,0,L|184:1,1,132.999995941162,0|0,1:0|0:0,0:0:0:0:
68,251,147873,2,0,L|56:107,1,132.999995941162,4|4,3:0|3:0,0:0:0:0:
279,17,148195,2,0,B|289:92|289:92|337:150,1,132.999995941162,0|0,1:0|0:0,0:0:0:0:
232,354,148518,1,4,3:0:0:0:
325,136,148679,1,4,3:0:0:0:
62,30,148840,6,0,L|213:93,1,132.999995941162,0|0,1:0|0:0,0:0:0:0:
457,42,149163,2,0,P|418:96|460:300,1,265.999991882324,6|0,0:0|1:0,0:0:0:0:
189,382,149647,1,0,0:0:0:0:
208,197,149808,2,0,P|271:225|326:286,1,132.999995941162,4|4,3:0|3:0,0:0:0:0:
512,230,150131,1,0,1:0:0:0:
371,149,150292,1,0,0:0:0:0:
324,384,150453,2,0,P|394:335|409:287,1,132.999995941162,4|0,0:0|0:0,0:0:0:0:
333,41,150776,1,0,1:0:0:0:
371,149,150937,1,0,0:0:0:0:
114,107,151098,2,0,L|268:67,1,132.999995941162,4|4,3:0|3:0,0:0:0:0:
87,218,151421,1,0,1:0:0:0:
96,24,151582,1,0,0:0:0:0:
253,184,151744,6,0,P|197:304|6:332,1,304,4|0,0:0|0:0,0:0:0:0:
392,368,152227,2,0,B|366:242|366:242|412:156|412:156|381:24,1,304,4|0,0:0|0:0,0:0:0:0:
136,2,152711,2,0,L|275:111,1,152,0|0,1:0|0:0,0:0:0:0:
485,286,153034,2,0,P|396:242|265:386,1,304,4|0,0:0|0:0,0:0:0:0:
230,78,153518,2,0,B|315:116|315:116|369:82|369:82|438:115|438:115|522:87,1,304,4|0,0:0|0:0,0:0:0:0:
182,205,154002,6,0,L|90:64,1,152,0|0,1:0|0:0,0:0:0:0:
245,295,154324,2,0,P|131:301|69:287,1,152,4|0,3:0|0:0,0:0:0:0:
225,0,154647,2,0,P|306:35|376:89,1,152,0|0,1:0|0:0,0:0:0:0:
434,284,154969,1,4,3:0:0:0:
357,71,155131,1,4,3:0:0:0:
73,67,155292,2,0,B|122:137|122:137|101:225,1,152,0|0,1:0|0:0,0:0:0:0:
394,37,155615,2,0,B|292:44|292:44|236:126|236:126|133:127,1,304,6|0,0:0|1:0,0:0:0:0:
242,231,156098,1,0,0:0:0:0:
439,44,156260,1,4,3:0:0:0:
486,217,156421,1,0,1:0:0:0:
486,217,156502,1,0,1:0:0:0:
486,217,156582,1,0,1:0:0:0:
170,45,156744,1,0,1:0:0:0:
170,45,156824,1,0,1:0:0:0:
170,45,156905,6,0,P|180:122|187:223,1,152,6|0,0:0|0:0,0:0:0:0:
375,363,157227,1,0,1:0:0:0:
186,195,157389,1,0,0:0:0:0:
122,325,157550,1,4,3:0:0:0:
44,124,157711,2,0,L|178:34,1,152,4|0,3:0|1:0,0:0:0:0:
191,199,158034,1,0,0:0:0:0:
452,28,158195,2,0,B|424:99|424:99|468:171,1,152,4|0,3:0|0:0,0:0:0:0:
214,249,158518,2,0,P|274:194|280:119,1,152,0|0,1:0|0:0,0:0:0:0:
86,25,158840,2,0,B|17:75|17:75|13:166,1,152,4|4,3:0|3:0,0:0:0:0:
214,249,159163,2,0,L|293:393,1,152,0|0,1:0|0:0,0:0:0:0:
404,149,159486,6,0,P|401:111|421:161,1,152,4|0,3:0|0:0,0:0:0:0:
258,341,159808,2,0,P|181:343|98:327,1,152,0|0,1:0|0:0,0:0:0:0:
202,139,160131,1,4,3:0:0:0:
285,308,160292,1,4,3:0:0:0:
49,210,160453,1,0,1:0:0:0:
196,60,160615,1,0,0:0:0:0:
285,308,160776,1,4,3:0:0:0:
338,315,161260,1,4,1:3:0:0:
392,320,161743,2,0,P|400:242|447:104,1,185.249991519928,10|0,1:3|0:0,0:0:0:0:
472,112,162066,5,2,0:0:0:0:
245,167,162550,1,0,0:0:0:0:
245,167,162711,1,2,0:0:0:0:
217,57,162873,1,0,0:0:0:0:
94,243,163195,1,0,0:0:0:0:
94,243,163356,1,2,0:0:0:0:
217,57,163679,1,0,0:0:0:0:
324,261,164002,1,2,0:0:0:0:
94,243,164324,1,0,0:0:0:0:
310,367,164647,5,2,0:0:0:0:
410,248,164969,1,0,0:0:0:0:
397,7,165292,1,2,0:0:0:0:
465,76,165453,1,0,0:0:0:0:
139,24,165776,1,0,0:0:0:0:
79,117,165937,1,0,0:0:0:0:
93,144,166098,1,0,0:0:0:0:
97,172,166260,1,2,0:0:0:0:
94,197,166421,1,0,0:0:0:0:
88,218,166582,1,2,0:0:0:0:
79,231,166744,1,0,0:0:0:0:
71,240,166905,1,2,0:0:0:0:
65,247,167066,1,0,0:0:0:0:
58,250,167227,1,2,0:0:0:0:
58,250,168498,2,0,L|57:289,2,30.8749985866547,2|2|2,0:0|0:0|0:0,0:0:0:0:
