osu file format v14

[General]
AudioFilename: audio.mp3
AudioLeadIn: 0
PreviewTime: 120146
Countdown: 0
SampleSet: Soft
StackLeniency: 0.2
Mode: 0
LetterboxInBreaks: 0
WidescreenStoryboard: 0

[Editor]
Bookmarks: 12726,13049,13371,13694,18049,18371,18533,18855,19501,25952,28371,28533,29178,33855,34339,36920,38210,38694,39501,40791,41759,42081,42565,43371,44339,52404,54984,59662,83855,84178,84501,84662,85146,85630,85952,91113,92404,93371,93694,94339,95630,95952,96275,107242,113694,114984,115630,140791,145952,146275,146597,165952,167242,168533
DistanceSpacing: 1.5
BeatDivisor: 4
GridSize: 4
TimelineZoom: 0.8

[Metadata]
Title:Summoning 101
TitleUnicode:Summoning 101
Artist:Mili
ArtistUnicode:Mili
Creator:-NeBu-
Version:Scientific Evocation
Source:
Tags:Millennium Mother Mili Yamato Kasai Momocashew Yukihito Mitomo Shoto Yoshida Ame Yamaguchi Ao Fujimori
BeatmapID:1703154
BeatmapSetID:811990

[Difficulty]
HPDrainRate:6
CircleSize:4
OverallDifficulty:8
ApproachRate:9.4
SliderMultiplier:2.2
SliderTickRate:1

[Events]
//Background and Video events
0,0,"Awesome Anime Rain Wallpaper 42576.jpg",0,0
//Break Periods
//Storyboard Layer 0 (Background)
//Storyboard Layer 1 (Fail)
//Storyboard Layer 2 (Pass)
//Storyboard Layer 3 (Foreground)
//Storyboard Sound Samples

[TimingPoints]
3372,322.58064516129,4,2,1,50,1,0
3775,-100,4,2,1,5,0,0
3855,-100,4,2,1,50,0,0
4259,-100,4,2,1,5,0,0
4339,-100,4,2,1,50,0,0
6355,-100,4,2,1,5,0,0
6436,-100,4,2,1,50,0,0
6839,-100,4,2,1,5,0,0
6920,-100,4,2,1,50,0,0
8210,-250,4,2,1,50,0,0
8694,-100,4,2,1,50,0,0
13694,-100,4,2,1,50,0,0
18855,-100,4,2,1,35,0,0
29178,-100,4,2,1,50,0,0
33452,-100,4,2,1,5,0,0
33533,-100,4,2,1,50,0,0
39501,-166.666666666667,4,2,1,35,0,0
40791,-125,4,2,1,35,0,0
44658,-100,4,2,1,65,0,1
49742,-100,4,2,1,5,0,1
49823,-100,4,2,1,65,0,1
61678,-100,4,2,1,5,0,1
61759,-100,4,2,1,65,0,1
62001,-100,4,2,1,5,0,1
62081,-100,4,2,1,65,0,1
65307,-100,4,2,1,55,0,0
70468,-100,4,2,1,35,0,0
75630,-166.666666666667,4,2,1,35,0,0
77484,-166.666666666667,4,2,1,5,0,0
77565,-166.666666666667,4,2,1,35,0,0
80791,-100,4,2,1,55,0,0
85065,-100,4,2,1,5,0,0
85146,-100,4,2,1,55,0,0
85871,-100,4,2,1,5,0,0
85952,-100,4,2,1,40,0,0
91113,-166.666666666667,4,2,1,35,0,0
95952,-333.333333333334,4,2,1,35,0,0
106597,-166.666666666667,4,2,1,35,0,0
113694,-125,4,2,1,35,0,0
114339,-100,4,2,1,45,0,0
114904,-100,4,2,1,5,0,0
114984,-100,4,2,1,45,0,0
120791,-86.9565217391304,4,2,1,70,0,1
141436,-76.9230769230769,4,2,1,75,0,1
146275,-111.111111111111,4,2,1,75,0,1
146517,-111.111111111111,4,2,1,5,0,1
146597,-76.9230769230769,4,2,1,75,0,1
147242,-66.6666666666667,4,2,1,75,0,1
147888,-58.8235294117647,4,2,1,75,0,1
148533,-52.6315789473684,4,2,1,75,0,1
149178,-76.9230769230769,4,2,1,75,0,1
151678,-76.9230769230769,4,2,1,5,0,1
151759,-76.9230769230769,4,2,1,75,0,1
152968,-76.9230769230769,4,2,1,5,0,1
153049,-76.9230769230769,4,2,1,75,0,1
159501,-62.5,4,2,1,75,0,1
160791,-100,4,2,1,40,0,0
162001,-100,4,2,1,5,0,0
162081,-166.666666666667,4,2,1,40,0,0

[Colours]
Combo1 : 255,192,0
Combo2 : 0,202,0
Combo3 : 18,124,255
Combo4 : 242,24,57
SliderTrackOverride : 25,15,45

[HitObjects]
88,130,3372,6,0,B|156:119|156:119|176:149|176:149|344:120,1,275,8|0,0:0|0:0,0:0:0:0:
364,36,3855,2,0,B|260:54|260:54|244:225,1,275,8|0,0:0|0:0,0:0:0:0:
298,276,4339,6,0,B|328:245|374:256|374:256|248:176|252:322|144:325|113:235|163:157|247:225,1,440,8|8,0:0|0:0,0:0:0:0:
86,296,5146,1,8,0:0:0:0:
78,265,5226,1,0,0:0:0:0:
77,229,5307,2,0,B|107:93|171:173|200:34,1,240,8|0,0:0|0:0,0:0:0:0:
200,33,5791,1,8,0:0:0:0:
400,112,5952,6,0,B|425:80|469:78|469:78|425:64|372:70|383:142|290:133,1,275,8|0,0:0|0:0,0:0:0:0:
213,89,6436,6,0,B|188:151|230:200|230:200|189:188|189:188|222:246|195:295,1,275,8|0,0:0|0:0,0:0:0:0:
339,363,6920,6,0,B|303:347|269:369|269:369|262:357|262:357|235:386|198:396|170:389|141:368,1,220,8|8,0:0|0:0,0:0:0:0:
64,276,7404,1,8,0:0:0:0:
56,240,7484,1,8,0:0:0:0:
64,204,7565,1,8,0:0:0:0:
132,76,7726,1,8,0:0:0:0:
268,32,7888,1,8,0:0:0:0:
408,68,8049,1,8,0:0:0:0:
484,188,8210,2,0,L|476:140,1,44,8|0,0:0|0:0,0:0:0:0:
380,292,8533,5,8,0:0:0:0:
328,160,8694,1,8,0:0:0:0:
300,162,8774,1,8,0:0:0:0:
273,165,8855,1,8,0:0:0:0:
245,168,8935,1,0,0:0:0:0:
220,168,9017,2,0,B|228:108|228:108|392:56,1,220,8|8,0:0|0:0,0:0:0:0:
143,61,9501,6,0,B|87:80|59:151|112:216|171:206|196:196|220:168|220:168|195:207|151:224|151:224|106:244|95:291,1,440,8|8,0:0|0:0,0:0:0:0:
442,183,10388,1,0,0:0:0:0:
462,171,10468,2,0,B|463:30|368:-15|310:25|291:106|371:124,1,330,8|0,0:0|0:0,0:0:0:0:
402,265,11113,6,0,B|434:330|512:354|512:354|513:316|489:286,1,220,8|0,0:0|0:0,0:0:0:0:
412,180,11597,1,8,0:0:0:0:
367,142,11759,1,8,0:0:0:0:
274,81,11920,1,8,0:0:0:0:
156,36,12081,1,8,0:0:0:0:
0,31,12242,1,8,0:0:0:0:
118,373,12404,6,0,B|128:340|107:310|107:310|122:285|122:285|112:213,1,165,8|0,0:0|0:0,0:0:0:0:
98,178,12726,1,8,0:0:0:0:
109,140,12806,1,8,0:0:0:0:
138,115,12887,1,8,0:0:0:0:
176,109,12967,1,8,0:0:0:0:
217,125,13049,5,8,0:0:0:0:
255,119,13129,1,8,0:0:0:0:
284,94,13210,1,8,0:0:0:0:
295,56,13290,1,8,0:0:0:0:
308,92,13371,5,8,0:0:0:0:
320,128,13452,1,8,0:0:0:0:
332,164,13533,1,8,0:0:0:0:
344,200,13613,1,8,0:0:0:0:
359,235,13694,6,0,B|455:255|455:255|479:115,1,220,8|8,0:0|0:0,0:0:0:0:
320,72,14178,1,8,0:0:0:0:
240,245,14339,2,0,L|353:265,1,110,8|0,0:0|0:0,0:0:0:0:
428,52,14662,2,0,L|315:72,1,110,8|0,0:0|0:0,0:0:0:0:
204,148,14984,5,8,0:0:0:0:
328,296,15146,1,0,0:0:0:0:
209,57,15307,2,0,B|91:67|149:156|0:158,1,220,8|8,0:0|0:0,0:0:0:0:
22,157,15791,1,0,0:0:0:0:
168,312,15952,1,8,0:0:0:0:
204,148,16113,1,0,0:0:0:0:
244,132,16194,1,0,0:0:0:0:
284,143,16275,6,0,B|356:129|356:129|413:153|413:153|501:136,1,220,8|8,0:0|0:0,0:0:0:0:
244,132,16759,1,8,0:0:0:0:
244,172,16839,1,0,0:0:0:0:
244,212,16920,2,0,L|242:332,1,110,8|0,0:0|0:0,0:0:0:0:
285,33,17242,2,0,L|283:153,1,110,8|0,0:0|0:0,0:0:0:0:
151,271,17565,6,0,B|137:236|105:243|105:243|137:183|88:89,1,220,8|8,0:0|0:0,0:0:0:0:
315,122,18049,2,0,B|299:202|299:202|311:223|311:223|294:238|294:238|275:330,1,220,8|8,0:0|0:0,0:0:0:0:
123,315,18533,1,8,0:0:0:0:
98,269,18613,1,0,0:0:0:0:
128,226,18694,1,0,0:0:0:0:
180,235,18774,1,0,0:0:0:0:
202,279,18855,6,0,B|246:276|276:308|276:308|300:270|334:267|334:267|342:327|399:346|442:329|464:291|468:257|453:213|410:204|378:206,1,440,8|8,0:0|0:0,0:0:0:0:
378,206,19823,1,0,0:0:0:0:
295,36,19984,1,8,0:0:0:0:
295,36,20065,1,8,0:0:0:0:
295,36,20146,6,0,P|319:84|223:196,1,220,8|8,0:0|0:0,0:0:0:0:
134,252,20791,2,0,P|202:236|262:360,1,220,8|8,0:0|0:0,0:0:0:0:
266,349,21275,1,0,0:0:0:0:
134,252,21436,6,0,P|106:220|106:148,1,110,8|0,0:0|0:0,0:0:0:0:
178,186,21759,2,0,P|201:150|271:132,1,110,8|0,0:0|0:0,0:0:0:0:
255,210,22081,2,0,P|295:223|331:286,1,110,8|0,0:0|0:0,0:0:0:0:
251,291,22404,2,0,P|248:333|197:384,1,110,8|8,0:0|0:0,0:0:0:0:
136,276,22646,1,8,0:0:0:0:
112,264,22726,6,0,L|-4:276,1,110,8|0,0:0|0:0,0:0:0:0:
245,264,23049,2,0,L|129:276,1,110,8|0,0:0|0:0,0:0:0:0:
177,170,23371,1,8,0:0:0:0:
270,102,23533,1,8,0:0:0:0:
338,196,23694,1,8,0:0:0:0:
245,264,23855,1,8,0:0:0:0:
177,170,24017,6,0,B|184:121|139:89|139:89|187:40|270:48|324:131|338:219|278:271|216:318|146:309|103:262|67:240|68:160,1,660,8|8,0:0|0:0,0:0:0:0:
447,111,25307,6,0,B|479:14|389:-5|314:54|354:155|491:101|458:247|458:247|453:200|413:182,1,440,8|8,0:0|0:0,0:0:0:0:
401,360,26597,6,0,P|377:316|381:252,1,110,8|0,0:0|0:0,0:0:0:0:
277,221,26920,2,0,P|280:275|255:323,1,110,0|0,0:0|0:0,0:0:0:0:
0,0,27242,2,0,B|177:-18|92:152|300:116,1,330,8|0,0:0|0:0,0:0:0:0:
426,1,27888,2,0,B|394:93|394:93|428:146|428:146|388:272,1,275,8|8,0:0|0:0,0:0:0:0:
360,240,28371,1,8,0:0:0:0:
328,264,28452,1,8,0:0:0:0:
303,236,28533,2,0,B|213:266|150:214|150:214|113:244|113:244|58:203|0:229,1,330,8|0,0:0|0:0,0:0:0:0:
291,154,29178,6,0,P|347:166|379:266,1,165,8|0,0:0|0:0,0:0:0:0:
412,284,29501,1,8,0:0:0:0:
448,284,29581,1,8,0:0:0:0:
480,260,29662,1,8,0:0:0:0:
484,224,29742,1,8,0:0:0:0:
464,192,29823,2,0,L|480:80,1,110,8|8,0:0|0:0,0:0:0:0:
433,369,30146,1,0,0:0:0:0:
462,207,30307,1,8,0:0:0:0:
381,259,30468,6,0,B|317:269|317:269|291:251|291:251|222:261,1,165,8|0,0:0|0:0,0:0:0:0:
188,244,30791,1,8,0:0:0:0:
148,248,30871,1,8,0:0:0:0:
124,276,30952,1,8,0:0:0:0:
128,316,31033,1,0,0:0:0:0:
151,345,31113,2,0,P|111:305|51:293,1,110,8|8,0:0|0:0,0:0:0:0:
220,384,31436,1,0,0:0:0:0:
110,153,31597,1,8,0:0:0:0:
286,293,31759,6,0,P|300:239|338:193,2,110,8|0|8,0:0|0:0|0:0,0:0:0:0:
204,100,32242,1,8,0:0:0:0:
364,328,32404,1,0,0:0:0:0:
511,85,32565,2,0,B|446:196|405:96|321:211,1,220,8|8,0:0|0:0,0:0:0:0:
0,192,33049,6,0,B|32:231|32:231|96:224|96:224|143:247|143:247|187:229|187:229|243:249,1,275,8|0,0:0|0:0,0:0:0:0:
332,196,33533,2,0,L|224:216,1,110,8|0,0:0|0:0,0:0:0:0:
368,336,33855,1,8,0:0:0:0:
385,291,33935,1,8,0:0:0:0:
377,244,34016,1,8,0:0:0:0:
395,201,34096,1,8,0:0:0:0:
386,153,34177,1,8,0:0:0:0:
402,109,34258,1,8,0:0:0:0:
395,62,34339,6,0,L|276:76,2,110,8|0|8,0:0|0:0|0:0,0:0:0:0:
224,16,34823,1,8,0:0:0:0:
364,197,34984,1,0,0:0:0:0:
185,103,35146,1,8,0:0:0:0:
272,273,35307,2,0,L|256:157,1,110,8|0,0:0|0:0,0:0:0:0:
212,345,35630,5,8,0:0:0:0:
85,144,35791,1,0,0:0:0:0:
136,296,35952,1,8,0:0:0:0:
197,96,36113,2,0,B|325:48|273:141|441:88,1,220,8|8,0:0|0:0,0:0:0:0:
493,148,36597,2,0,P|449:188|441:244,1,110,8|0,0:0|0:0,0:0:0:0:
476,344,36920,5,8,0:0:0:0:
512,172,37081,1,0,0:0:0:0:
324,244,37242,1,8,0:0:0:0:
496,324,37404,1,0,0:0:0:0:
416,120,37565,1,8,0:0:0:0:
324,332,37726,1,0,0:0:0:0:
502,200,37888,1,8,0:0:0:0:
292,76,38049,1,0,0:0:0:0:
352,348,38210,2,0,B|345:274|345:274|334:258|334:258|341:239|341:239|336:176|336:176|284:152,1,220,8|8,0:0|0:0,0:0:0:0:
261,219,38640,5,8,0:0:0:0:
192,238,38748,5,8,0:0:0:0:
132,217,38855,5,8,0:0:0:0:
91,176,38963,5,8,0:0:0:0:
80,136,39070,5,8,0:0:0:0:
84,112,39178,5,8,0:0:0:0:
95,99,39285,5,8,0:0:0:0:
104,92,39393,5,8,0:0:0:0:
116,92,39501,6,0,B|54:62|-16:91|-16:91|42:37|130:8|165:128|295:48,1,461.999985900879,8|0,0:0|0:0,0:0:0:0:
364,133,40791,6,0,B|422:65|508:126|516:210|440:282|361:272|268:313|268:313|319:271|297:216,1,528,8|8,0:0|0:0,0:0:0:0:
0,44,42081,6,0,B|113:32|59:141|192:118,1,220,8|0,0:0|0:0,0:0:0:0:
270,55,42619,6,0,L|338:47,2,58.6666666666667,0|0|0,0:0|0:0|0:0,0:0:0:0:
169,133,42941,2,0,L|101:125,2,58.6666666666667,0|0|0,0:0|0:0|0:0,0:0:0:0:
224,260,43264,1,0,0:0:0:0:
236,236,43371,5,8,0:0:0:0:
292,376,43694,1,8,0:0:0:0:
364,58,44017,6,0,L|264:68,1,88,8|0,0:0|0:0,0:0:0:0:
135,119,44339,1,8,0:0:0:0:
177,128,44419,1,8,0:0:0:0:
212,154,44500,1,8,0:0:0:0:
233,192,44580,1,8,0:0:0:0:
230,236,44662,6,0,B|344:224|289:334|423:310,1,220,8|8,0:0|0:0,0:0:0:0:
512,0,45146,2,0,L|292:20,1,220,8|8,0:0|0:0,0:0:0:0:
432,152,45630,1,8,0:0:0:0:
192,96,45791,1,0,0:0:0:0:
319,20,45952,6,0,B|308:110|308:110|331:150|331:150|299:196|315:248,1,240,8|0,0:0|0:0,0:0:0:0:
253,371,46436,2,0,P|245:307|117:239,1,220,8|8,0:0|0:0,0:0:0:0:
15,187,46920,2,0,P|62:164|91:107,1,110,8|0,0:0|0:0,0:0:0:0:
32,4,47242,5,8,0:0:0:0:
112,248,47404,1,0,0:0:0:0:
176,32,47565,1,8,0:0:0:0:
104,276,47726,1,0,0:0:0:0:
256,120,47888,5,8,0:0:0:0:
24,208,48049,1,0,0:0:0:0:
300,261,48210,1,8,0:0:0:0:
67,128,48371,1,0,0:0:0:0:
201,285,48533,6,0,P|232:332|241:389,1,110,8|0,0:0|0:0,0:0:0:0:
241,384,48855,1,8,0:0:0:0:
336,174,49017,1,0,0:0:0:0:
122,262,49178,1,8,0:0:0:0:
408,320,49339,1,8,0:0:0:0:
408,320,49501,2,0,B|358:312|358:312|353:306|353:306|300:300|300:300|294:303|294:303|244:296,1,165,8|0,0:0|0:0,0:0:0:0:
176,351,49823,6,0,P|159:302|179:238,1,110,8|0,0:0|0:0,0:0:0:0:
87,234,50146,2,0,P|109:188|169:157,1,110,8|0,0:0|0:0,0:0:0:0:
106,88,50468,2,0,P|154:71|218:91,1,110,8|0,0:0|0:0,0:0:0:0:
372,45,50791,2,0,P|326:67|295:127,1,110,8|0,0:0|0:0,0:0:0:0:
208,265,51113,6,0,B|197:189|173:223|158:156,1,120,8|0,0:0|0:0,0:0:0:0:
0,286,51436,2,0,B|70:255|31:241|90:210,1,120,8|0,0:0|0:0,0:0:0:0:
217,384,51759,2,0,B|172:335|168:377|121:317,1,120,8|0,0:0|0:0,0:0:0:0:
158,158,52081,2,0,B|173:223|197:189|208:265,1,120,8|0,0:0|0:0,0:0:0:0:
437,153,52404,6,0,B|401:168|367:146|367:146|360:158|360:158|339:129|295:116|268:126|238:147,1,220,8|8,0:0|0:0,0:0:0:0:
323,319,52888,1,8,0:0:0:0:
360,115,53049,2,0,P|352:75|316:11,1,110,8|0,0:0|0:0,0:0:0:0:
158,158,53371,2,0,P|129:205|117:258,1,110,8|0,0:0|0:0,0:0:0:0:
343,329,53694,6,0,L|311:217,2,110,8|0|8,0:0|0:0|0:0,0:0:0:0:
343,329,54178,1,0,0:0:0:0:
331,88,54339,2,0,B|314:51|314:51|450:59|450:59|429:96,1,220,8|8,0:0|0:0,0:0:0:0:
170,239,54823,1,8,0:0:0:0:
136,224,54904,1,8,0:0:0:0:
117,195,54984,6,0,P|105:131|217:51,1,220,8|8,0:0|0:0,0:0:0:0:
456,299,55468,2,0,B|474:270|474:270|457:207|457:207|438:188|438:188|444:155|444:155|429:96,1,220,8|8,0:0|0:0,0:0:0:0:
255,372,55952,1,8,0:0:0:0:
299,160,56113,1,0,0:0:0:0:
145,225,56275,6,0,B|89:117|89:117|13:209,1,240,8|0,0:0|0:0,0:0:0:0:
267,143,56759,2,0,B|316:148|349:108|349:108|381:127|381:127|417:92|471:88,1,220,8|8,0:0|0:0,0:0:0:0:
228,36,57242,2,0,L|208:204,1,165,8|0,0:0|0:0,0:0:0:0:
267,143,57565,5,8,0:0:0:0:
60,100,57726,1,0,0:0:0:0:
184,288,57888,1,8,0:0:0:0:
240,56,58049,1,0,0:0:0:0:
20,176,58210,1,8,0:0:0:0:
268,292,58371,1,0,0:0:0:0:
160,24,58533,1,8,0:0:0:0:
111,327,58694,1,0,0:0:0:0:
329,101,58855,6,0,B|161:108|161:108|125:157,1,220,8|8,0:0|0:0,0:0:0:0:
130,149,59339,1,0,0:0:0:0:
273,289,59501,1,8,0:0:0:0:
329,101,59662,1,8,0:0:0:0:
305,73,59742,1,8,0:0:0:0:
269,65,59823,1,8,0:0:0:0:
130,149,59984,1,8,0:0:0:0:
120,191,60065,1,8,0:0:0:0:
141,228,60146,6,0,B|176:222|197:189|197:189|189:229|160:267|110:227|78:298,1,240,8|0,0:0|0:0,0:0:0:0:
78,297,60630,1,8,0:0:0:0:
264,336,60791,1,8,0:0:0:0:
120,112,60952,1,8,0:0:0:0:
148,340,61113,1,0,0:0:0:0:
336,212,61275,1,8,0:0:0:0:
120,112,61436,6,0,B|120:146|153:164|153:164|147:189|147:189|187:208|193:261,1,165,8|0,0:0|0:0,0:0:0:0:
267,171,61759,2,0,P|311:135|411:183,1,165,8|0,0:0|0:0,0:0:0:0:
359,319,62081,2,0,L|335:211,2,110,8|0|8,0:0|0:0|0:0,0:0:0:0:
359,319,62565,1,0,0:0:0:0:
428,104,62726,5,8,0:0:0:0:
404,304,62888,1,0,0:0:0:0:
314,28,63049,1,8,0:0:0:0:
307,229,63211,1,0,0:0:0:0:
84,104,63371,5,8,0:0:0:0:
108,304,63533,1,0,0:0:0:0:
198,28,63694,1,0,0:0:0:0:
205,229,63856,1,8,0:0:0:0:
84,104,64017,5,8,0:0:0:0:
205,229,64178,1,8,0:0:0:0:
224,264,64259,1,8,0:0:0:0:
224,304,64339,1,8,0:0:0:0:
329,242,64501,2,0,B|455:241|397:152|515:142,1,220,0|0,0:0|0:0,0:0:0:0:
348,145,64984,2,0,L|180:121,1,165,8|0,0:0|0:0,0:0:0:0:
160,140,65307,5,8,0:0:0:0:
236,308,65630,1,0,0:0:0:0:
394,69,65952,2,0,B|366:21|366:21|305:31|305:31|293:41|293:41|275:35|275:35|194:49,1,220,8|8,0:0|0:0,0:0:0:0:
105,114,66436,1,0,0:0:0:0:
105,114,66517,1,0,0:0:0:0:
105,114,66597,6,0,B|111:80|88:50|88:50|121:71|147:109|93:142|152:198,1,220,8|8,0:0|0:0,0:0:0:0:
211,261,67081,1,0,0:0:0:0:
301,239,67242,2,0,B|422:183|386:287|537:227,1,220,8|8,0:0|0:0,0:0:0:0:
512,235,67726,1,8,0:0:0:0:
420,36,67888,6,0,L|404:148,1,110,8|0,0:0|0:0,0:0:0:0:
316,347,68210,2,0,L|301:239,1,110,0|0,0:0|0:0,0:0:0:0:
206,36,68533,2,0,L|191:145,1,110,8|0,0:0|0:0,0:0:0:0:
103,348,68855,2,0,L|88:240,1,110,0|0,0:0|0:0,0:0:0:0:
91,114,69097,1,0,0:0:0:0:
91,114,69178,6,0,P|143:146|207:138,1,110,8|0,0:0|0:0,0:0:0:0:
410,133,69501,2,0,P|355:133|310:163,1,110,8|0,0:0|0:0,0:0:0:0:
316,321,69823,1,8,0:0:0:0:
348,217,69984,1,8,0:0:0:0:
316,133,70146,1,8,0:0:0:0:
260,97,70307,1,8,0:0:0:0:
228,107,70468,6,0,B|184:87|184:87|170:45|170:45|143:81|143:81|96:83|96:83|125:116|125:116|109:162|109:162|154:143|154:143|189:176|189:176|189:127|189:127|205:119,1,440,8|8,0:0|0:0,0:0:0:0:
228,107,71436,2,0,L|243:54,2,55,0|0|8,0:0|0:0|0:0,0:0:0:0:
26,128,71759,6,0,B|17:140|17:140|17:153|17:153|5:164|5:164|8:184|8:184|0:200|0:200|9:219|9:219|6:243|6:243|20:260|20:260|22:283|22:283|43:295|43:295|53:318|53:318|76:322|76:322|88:339|88:339|113:337|113:337|130:352|130:352|155:345|155:345|177:349|177:349|200:335|200:335|228:332|228:332|250:315,1,440,8|8,0:0|0:0,0:0:0:0:
239,225,72726,1,0,0:0:0:0:
328,368,72888,1,8,0:0:0:0:
344,136,73049,6,0,B|331:71|376:30|376:30|437:67|442:137|440:205|402:277,1,385,8|0,0:0|0:0,0:0:0:0:
403,275,73694,2,0,P|439:239|496:227,1,110,8|0,0:0|0:0,0:0:0:0:
284,360,74017,2,0,P|283:308|314:259,1,110,0|8,0:0|0:0,0:0:0:0:
512,0,74339,6,0,B|472:47|472:47|396:38|396:38|339:66|339:66|287:45|287:45|219:68,1,330,8|0,0:0|0:0,0:0:0:0:
109,91,74984,2,0,P|151:128|166:183,1,110,8|0,0:0|0:0,0:0:0:0:
113,281,75307,1,0,0:0:0:0:
0,307,75468,1,8,0:0:0:0:
312,332,75630,6,0,L|516:388,1,197.99999395752,8|0,0:0|0:0,0:0:0:0:
312,332,76275,2,0,L|228:348,1,65.9999979858399,8|0,0:0|0:0,0:0:0:0:
336,248,76597,1,0,0:0:0:0:
296,172,76759,1,8,0:0:0:0:
308,136,76839,1,8,0:0:0:0:
296,100,76920,6,0,P|316:68|384:168,1,230.99999295044,8|0,0:0|0:0,0:0:0:0:
392,162,77565,2,0,P|428:153|406:272,1,230.99999295044,8|0,0:0|0:0,0:0:0:0:
384,260,78210,5,8,0:0:0:0:
384,260,78855,1,8,0:0:0:0:
384,260,79501,1,8,0:0:0:0:
384,260,80146,1,8,0:0:0:0:
134,70,80791,6,0,P|124:125|88:170,1,110,8|8,0:0|0:0,0:0:0:0:
60,24,81113,1,8,0:0:0:0:
152,239,81276,1,8,0:0:0:0:
170,218,81356,1,8,0:0:0:0:
193,204,81437,1,8,0:0:0:0:
220,197,81517,1,8,0:0:0:0:
248,196,81597,2,0,P|301:204|349:241,2,110,8|0|0,0:0|0:0|0:0,0:0:0:0:
122,193,82081,6,0,P|176:140|138:-7,1,220,8|8,0:0|0:0,0:0:0:0:
248,196,82565,1,8,0:0:0:0:
84,44,82726,1,0,0:0:0:0:
168,280,82888,1,8,0:0:0:0:
193,97,83049,2,0,P|228:58|293:37,1,110,8|0,0:0|0:0,0:0:0:0:
462,175,83371,5,8,0:0:0:0:
289,271,83533,1,0,0:0:0:0:
193,97,83694,1,8,0:0:0:0:
366,1,83855,2,0,B|352:112|352:112|296:128,1,165,8|0,0:0|0:0,0:0:0:0:
193,97,84178,2,0,B|148:73|100:94|100:94|116:63|116:63|64:81|31:54,1,220,8|8,0:0|0:0,0:0:0:0:
300,126,84662,6,0,B|366:184|399:118|447:144|476:182|476:182|438:157|399:169,1,275,8|0,0:0|0:0,0:0:0:0:
358,291,85146,2,0,P|390:339|402:243,1,220,8|0,0:0|0:0,0:0:0:0:
288,206,85630,2,0,P|231:166|242:70,1,165,8|0,0:0|0:0,0:0:0:0:
301,125,85952,6,0,B|243:152|177:125|177:125|232:176|314:203|346:91|472:166,1,440,8|8,0:0|0:0,0:0:0:0:
444,237,86920,2,0,P|403:200|404:133,1,110,8|0,0:0|0:0,0:0:0:0:
340,200,87242,1,8,0:0:0:0:
268,232,87404,1,8,0:0:0:0:
192,232,87565,1,8,0:0:0:0:
324,315,87726,1,0,0:0:0:0:
192,232,87888,2,0,B|133:103|28:103|-7:163|9:245|89:227,1,330,8|0,0:0|0:0,0:0:0:0:
89,227,88533,6,0,P|88:284|72:336,1,110,8|0,0:0|0:0,0:0:0:0:
162,127,88855,2,0,P|183:178|191:232,1,110,0|0,0:0|0:0,0:0:0:0:
258,358,89178,2,0,P|282:290|414:234,1,220,8|8,0:0|0:0,0:0:0:0:
392,104,89662,1,8,0:0:0:0:
356,88,89742,1,8,0:0:0:0:
334,58,89823,6,0,B|205:84|279:144|153:171,1,220,8|8,0:0|0:0,0:0:0:0:
154,171,90307,1,0,0:0:0:0:
252,172,90468,1,8,0:0:0:0:
328,216,90630,1,8,0:0:0:0:
368,280,90791,1,8,0:0:0:0:
356,344,90952,1,8,0:0:0:0:
384,88,91113,6,0,B|433:64|480:73|480:73|401:41|321:33|218:44|218:44|267:52|313:91,1,461.999985900879,8|0,0:0|0:0,0:0:0:0:
385,221,92404,2,0,B|423:217|446:178|446:178|420:275|317:261|262:207|262:207|290:245|281:296|281:296,1,395.999987915039,8|8,0:0|0:0,0:0:0:0:
140,200,93694,2,0,B|136:154|99:135|99:135|65:170|74:218|88:264|126:305,1,263.99999194336,0|8,0:0|0:0,0:0:0:0:
256,192,94420,12,8,95630,0:0:0:0:
256,192,95952,5,8,0:0:0:0:
256,192,96275,6,0,L|186:184,1,65.9999979858399,8|0,0:0|0:0,0:0:0:0:
132,236,96759,1,0,0:0:0:0:
208,72,97242,6,0,L|244:74,1,32.99999899292,0|0,0:0|0:0,0:0:0:0:
313,40,97565,1,8,0:0:0:0:
380,92,97726,1,0,0:0:0:0:
392,168,97888,1,0,0:0:0:0:
348,228,98049,2,0,L|240:236,1,98.9999969787599,0|0,0:0|0:0,0:0:0:0:
108,218,98694,1,0,0:0:0:0:
96,205,98855,6,0,L|88:169,1,32.99999899292,8|0,0:0|0:0,0:0:0:0:
169,143,99178,2,0,L|176:106,1,32.99999899292,0|0,0:0|0:0,0:0:0:0:
255,129,99501,2,0,L|277:99,1,32.99999899292,8|0,0:0|0:0,0:0:0:0:
340,151,99823,2,0,L|372:133,1,32.99999899292,0|0,0:0|0:0,0:0:0:0:
453,74,100146,6,0,L|449:34,2,32.99999899292,8|0|0,0:0|0:0|0:0,0:0:0:0:
455,95,100630,1,0,0:0:0:0:
508,167,100791,2,0,L|500:207,1,32.99999899292,8|0,0:0|0:0,0:0:0:0:
478,272,101113,1,0,0:0:0:0:
478,272,101275,1,0,0:0:0:0:
319,109,101436,5,8,0:0:0:0:
333,184,101597,1,0,0:0:0:0:
344,259,101759,1,0,0:0:0:0:
356,336,101920,2,0,L|256:345,1,98.9999969787599,0|0,0:0|0:0,0:0:0:0:
133,313,102565,1,0,0:0:0:0:
133,313,102646,1,0,0:0:0:0:
133,313,102726,6,0,L|168:303,1,32.99999899292,8|0,0:0|0:0,0:0:0:0:
192,232,103049,1,0,0:0:0:0:
152,168,103210,1,0,0:0:0:0:
80,152,103371,2,0,L|88:48,1,98.9999969787599,0|0,0:0|0:0,0:0:0:0:
200,44,104017,6,0,L|256:48,1,49.4999984893799,8|0,0:0|0:0,0:0:0:0:
272,40,104339,2,0,L|312:28,1,32.99999899292,0|0,0:0|0:0,0:0:0:0:
429,104,104662,2,0,P|401:116|377:108,1,49.4999984893799,8|0,0:0|0:0,0:0:0:0:
369,128,104984,2,0,L|337:136,1,32.99999899292,0|0,0:0|0:0,0:0:0:0:
268,96,105307,5,8,0:0:0:0:
225,160,105630,1,0,0:0:0:0:
225,160,105791,1,0,0:0:0:0:
360,356,105952,2,0,L|368:358,1,5.49999983215333,8|0,0:0|0:0,0:0:0:0:
448,188,106597,6,0,B|449:73|371:35|323:69|308:135|374:150,1,263.99999194336,8|8,0:0|0:0,0:0:0:0:
309,250,107565,2,0,P|301:218|249:174,1,98.9999969787599,0|0,0:0|0:0,0:0:0:0:
253,175,107888,6,0,L|184:168,1,65.9999979858399,8|0,0:0|0:0,0:0:0:0:
208,88,108210,2,0,L|138:80,1,65.9999979858399,0|0,0:0|0:0,0:0:0:0:
188,168,108533,1,8,0:0:0:0:
256,20,108855,1,0,0:0:0:0:
188,168,109178,6,0,L|200:236,1,65.9999979858399,8|0,0:0|0:0,0:0:0:0:
278,199,109501,2,0,L|290:267,1,65.9999979858399,0|0,0:0|0:0,0:0:0:0:
367,224,109823,2,0,P|367:184|427:112,1,131.99999597168,8|0,0:0|0:0,0:0:0:0:
421,114,110307,1,0,0:0:0:0:
384,128,110468,5,8,0:0:0:0:
300,148,110630,1,0,0:0:0:0:
196,136,110791,1,0,0:0:0:0:
88,36,110952,1,0,0:0:0:0:
0,218,111113,6,0,L|20:74,1,131.99999597168,8|0,0:0|0:0,0:0:0:0:
18,87,111597,1,0,0:0:0:0:
229,35,111759,6,0,B|261:48|255:77|255:77|310:57|345:61|399:93,1,197.99999395752,8|0,0:0|0:0,0:0:0:0:
181,104,112404,2,0,P|163:133|157:168,2,65.9999979858399,8|0|0,0:0|0:0|0:0,0:0:0:0:
225,209,112888,1,0,0:0:0:0:
217,221,112968,1,0,0:0:0:0:
206,230,113049,2,0,P|170:246|130:242,1,65.9999979858399,8|0,0:0|0:0,0:0:0:0:
260,320,113371,2,0,L|332:332,1,65.9999979858399,0|0,0:0|0:0,0:0:0:0:
432,95,113694,6,0,B|380:79|334:110|334:110|294:88|294:88|180:102,1,264,8|0,0:0|0:0,0:0:0:0:
100,218,114339,6,0,B|64:174|3:170|3:170|64:151|138:159|122:260|251:247,1,385,8|0,0:0|0:0,0:0:0:0:
337,247,114984,2,0,B|326:313|274:328|274:328|361:336|423:232|384:116,1,385,8|0,0:0|0:0,0:0:0:0:
368,108,115630,5,8,0:0:0:0:
264,0,115791,1,8,0:0:0:0:
269,42,115871,1,8,0:0:0:0:
252,81,115952,1,8,0:0:0:0:
260,123,116032,1,8,0:0:0:0:
240,163,116113,2,0,L|128:140,1,110,8|0,0:0|0:0,0:0:0:0:
236,263,116436,1,8,0:0:0:0:
335,91,116597,1,8,0:0:0:0:
208,264,116759,1,8,0:0:0:0:
224,288,116839,1,8,0:0:0:0:
252,292,116920,6,0,L|376:304,1,110,8|0,0:0|0:0,0:0:0:0:
119,276,117242,1,8,0:0:0:0:
438,313,117404,1,8,0:0:0:0:
119,276,117565,2,0,L|2:266,1,110,0|8,0:0|0:0,0:0:0:0:
361,302,117888,1,8,0:0:0:0:
119,276,118049,1,8,0:0:0:0:
264,88,118210,5,8,0:0:0:0:
361,302,118371,1,8,0:0:0:0:
347,278,118451,1,8,0:0:0:0:
343,250,118532,1,8,0:0:0:0:
349,224,118612,1,8,0:0:0:0:
364,200,118694,2,0,P|405:165|464:160,1,110,8|0,0:0|0:0,0:0:0:0:
304,264,119017,1,8,0:0:0:0:
251,38,119178,1,8,0:0:0:0:
304,264,119339,1,8,0:0:0:0:
182,85,119501,6,0,P|138:138|44:158,1,165,8|0,0:0|0:0,0:0:0:0:
83,147,119823,1,8,0:0:0:0:
119,155,119904,1,8,0:0:0:0:
147,179,119984,1,8,0:0:0:0:
159,215,120065,1,8,0:0:0:0:
191,191,120146,5,8,0:0:0:0:
227,187,120226,1,8,0:0:0:0:
263,195,120307,1,8,0:0:0:0:
289,219,120388,1,8,0:0:0:0:
320,168,120468,1,8,0:0:0:0:
308,108,120549,1,8,0:0:0:0:
256,72,120630,1,8,0:0:0:0:
196,80,120710,1,8,0:0:0:0:
163,129,120791,6,0,B|159:177|203:207|203:207|191:241|191:241|245:272|246:347,1,253.000004825592,8|8,0:0|0:0,0:0:0:0:
426,262,121275,2,0,B|438:189|438:189|431:162|431:162|448:141|448:141|459:81|459:81|395:40,1,253.000004825592,8|8,0:0|0:0,0:0:0:0:
220,277,121759,1,8,0:0:0:0:
431,163,121920,1,0,0:0:0:0:
243,136,122081,6,0,B|85:136|171:20|37:11,1,253.000004825592,8|8,0:0|0:0,0:0:0:0:
240,292,122565,2,0,B|340:272|340:272|377:293|377:293|483:271,1,253.000004825592,8|8,0:0|0:0,0:0:0:0:
347,65,123049,2,0,L|323:197,1,126.500002412796,8|0,0:0|0:0,0:0:0:0:
436,36,123371,5,8,0:0:0:0:
232,112,123533,1,0,0:0:0:0:
408,224,123694,1,8,0:0:0:0:
348,8,123855,1,0,0:0:0:0:
272,280,124017,5,8,0:0:0:0:
376,29,124178,1,0,0:0:0:0:
154,156,124339,1,8,0:0:0:0:
376,280,124501,1,0,0:0:0:0:
231,121,124662,6,0,P|185:76|105:84,1,126.500002412796,8|0,0:0|0:0,0:0:0:0:
240,287,124984,1,8,0:0:0:0:
284,38,125146,1,0,0:0:0:0:
0,220,125307,1,8,0:0:0:0:
48,228,125387,1,8,0:0:0:0:
94,214,125468,1,8,0:0:0:0:
141,225,125548,1,8,0:0:0:0:
189,208,125630,2,0,P|149:269|156:322,1,126.500002412796,8|0,0:0|0:0,0:0:0:0:
348,248,125952,5,8,0:0:0:0:
207,163,126113,1,0,0:0:0:0:
294,313,126275,1,8,0:0:0:0:
366,108,126436,1,0,0:0:0:0:
139,213,126597,5,8,0:0:0:0:
318,308,126759,1,0,0:0:0:0:
205,87,126920,1,8,0:0:0:0:
150,324,127081,1,0,0:0:0:0:
371,251,127242,5,8,0:0:0:0:
115,122,127404,1,0,0:0:0:0:
314,332,127565,5,8,0:0:0:0:
384,40,127726,1,0,0:0:0:0:
70,193,127888,5,8,0:0:0:0:
396,280,128049,1,0,0:0:0:0:
157,48,128210,5,8,0:0:0:0:
233,370,128371,1,0,0:0:0:0:
408,103,128533,6,0,B|376:55|376:55|172:83,1,253.000004825592,8|8,0:0|0:0,0:0:0:0:
182,81,129017,1,8,0:0:0:0:
138,192,129178,2,0,L|269:172,1,126.500002412796,8|0,0:0|0:0,0:0:0:0:
182,81,129501,2,0,L|56:100,1,126.500002412796,8|0,0:0|0:0,0:0:0:0:
275,301,129823,6,0,B|296:204|296:204|317:188|317:188|305:163|305:163|327:58,1,253.000004825592,8|8,0:0|0:0,0:0:0:0:
188,168,130307,1,0,0:0:0:0:
380,284,130468,1,8,0:0:0:0:
308,84,130630,1,8,0:0:0:0:
80,216,130791,2,0,L|212:196,1,126.500002412796,8|8,0:0|0:0,0:0:0:0:
132,109,131113,6,0,B|60:13|60:13|0:118,1,240,8|0,0:0|0:0,0:0:0:0:
254,31,131597,2,0,B|295:46|307:84|307:84|386:32|467:100,1,253.000004825592,8|8,0:0|0:0,0:0:0:0:
350,315,132081,1,8,0:0:0:0:
229,107,132242,1,0,0:0:0:0:
439,26,132404,6,0,B|417:149|329:79|313:236,1,253.000004825592,8|8,0:0|0:0,0:0:0:0:
228,372,132888,2,0,P|216:292|76:208,1,253.000004825592,8|8,0:0|0:0,0:0:0:0:
136,364,133371,1,8,0:0:0:0:
240,100,133533,1,0,0:0:0:0:
56,224,133694,5,8,0:0:0:0:
320,300,133855,1,0,0:0:0:0:
204,84,134017,1,8,0:0:0:0:
292,328,134178,1,0,0:0:0:0:
360,40,134339,5,8,0:0:0:0:
232,256,134501,1,0,0:0:0:0:
444,136,134662,1,8,0:0:0:0:
232,0,134823,1,0,0:0:0:0:
324,276,134984,5,8,0:0:0:0:
360,40,135146,1,0,0:0:0:0:
136,229,135307,5,8,0:0:0:0:
376,197,135469,1,0,0:0:0:0:
196,16,135630,5,8,0:0:0:0:
228,280,135791,1,8,0:0:0:0:
232,268,135871,1,8,0:0:0:0:
237,258,135952,1,8,0:0:0:0:
114,119,136113,1,8,0:0:0:0:
122,155,136194,1,8,0:0:0:0:
133,193,136275,6,0,B|168:167|168:122|168:122|183:122|183:122|168:85|182:35|207:15|245:0,1,253.000004825592,8|8,0:0|0:0,0:0:0:0:
304,232,136759,1,8,0:0:0:0:
376,56,136920,1,8,0:0:0:0:
200,140,137081,1,0,0:0:0:0:
304,356,137242,1,8,0:0:0:0:
348,84,137404,1,0,0:0:0:0:
224,161,137565,6,0,L|348:181,1,126.500002412796,8|0,0:0|0:0,0:0:0:0:
117,87,137888,2,0,L|241:67,1,126.500002412796,8|0,0:0|0:0,0:0:0:0:
57,287,138210,2,0,L|181:307,1,126.500002412796,8|0,0:0|0:0,0:0:0:0:
0,20,138533,2,0,L|124:0,1,126.500002412796,8|0,0:0|0:0,0:0:0:0:
16,208,138855,5,8,0:0:0:0:
240,116,139017,1,0,0:0:0:0:
77,152,139178,5,8,0:0:0:0:
301,244,139340,1,0,0:0:0:0:
134,36,139501,6,0,L|170:172,1,126.500002412796,8|0,0:0|0:0,0:0:0:0:
150,192,139742,1,8,0:0:0:0:
134,228,139823,1,8,0:0:0:0:
256,336,139984,1,8,0:0:0:0:
480,112,140146,6,0,B|448:84|448:84|224:108,1,253.000004825592,8|8,0:0|0:0,0:0:0:0:
78,128,140630,1,0,0:0:0:0:
238,106,140791,1,8,0:0:0:0:
292,112,140871,1,8,0:0:0:0:
334,134,140952,1,8,0:0:0:0:
353,168,141032,1,8,0:0:0:0:
358,197,141113,1,8,0:0:0:0:
353,221,141194,1,8,0:0:0:0:
344,231,141274,1,8,0:0:0:0:
334,231,141355,1,8,0:0:0:0:
333,222,141436,6,0,B|463:292|463:292|359:382,1,285.99998690796,8|8,0:0|0:0,0:0:0:0:
148,276,141920,6,0,B|110:297|100:343|100:343|93:294|110:239|183:264|190:170,1,285.99998690796,8|8,0:0|0:0,0:0:0:0:
72,44,142404,1,8,0:0:0:0:
152,292,142565,1,0,0:0:0:0:
277,89,142726,6,0,B|281:39|320:19|320:19|357:56|347:108|332:157|292:201,1,285.99998690796,8|8,0:0|0:0,0:0:0:0:
139,306,143210,2,0,B|146:244|99:196|99:196|118:144|118:144|86:39,1,285.99998690796,8|8,0:0|0:0,0:0:0:0:
37,338,143694,2,0,B|119:325|119:325|142:342|142:342|161:320|161:320|235:308,1,214.49999018097,8|0,0:0|0:0,0:0:0:0:
252,288,144017,5,8,0:0:0:0:
116,56,144178,1,0,0:0:0:0:
64,312,144339,1,8,0:0:0:0:
312,224,144501,1,0,0:0:0:0:
46,94,144662,5,8,0:0:0:0:
144,360,144823,1,0,0:0:0:0:
248,48,144984,1,8,0:0:0:0:
0,159,145146,1,0,0:0:0:0:
324,287,145307,5,8,0:0:0:0:
232,60,145468,1,0,0:0:0:0:
104,384,145629,1,8,0:0:0:0:
324,287,145791,1,0,0:0:0:0:
0,159,145952,5,8,0:0:0:0:
104,384,146113,1,0,0:0:0:0:
232,60,146275,6,0,P|173:62|119:130,1,148.49999546814,8|0,0:0|0:0,0:0:0:0:
140,134,146597,6,0,L|120:286,1,142.99999345398,8|0,0:0|0:0,0:0:0:0:
232,60,146920,2,0,L|212:212,1,142.99999345398,8|0,0:0|0:0,0:0:0:0:
352,216,147242,6,0,P|416:196|452:108,1,165.000006294251,8|0,0:0|0:0,0:0:0:0:
313,96,147565,2,0,P|249:116|213:204,1,165.000006294251,8|0,0:0|0:0,0:0:0:0:
471,296,147888,6,0,L|451:104,1,187.000003566742,8|0,0:0|0:0,0:0:0:0:
332,281,148210,2,0,L|312:89,1,187.000003566742,8|0,0:0|0:0,0:0:0:0:
221,0,148533,6,0,P|142:16|86:136,1,208.999994419098,8|0,0:0|0:0,0:0:0:0:
177,218,148855,2,0,P|255:201|311:81,1,208.999994419098,8|0,0:0|0:0,0:0:0:0:
8,46,149178,6,0,B|7:168|89:207|139:172|156:102|86:86,1,285.99998690796,8|8,0:0|0:0,0:0:0:0:
87,86,149662,1,8,0:0:0:0:
0,213,149823,2,0,P|-8:269|36:345,1,142.99999345398,8|0,0:0|0:0,0:0:0:0:
266,266,150146,2,0,P|274:210|230:134,1,142.99999345398,8|0,0:0|0:0,0:0:0:0:
84,268,150468,1,8,0:0:0:0:
320,340,150630,1,0,0:0:0:0:
208,128,150791,1,8,0:0:0:0:
121,350,150952,1,0,0:0:0:0:
317,182,151113,2,0,L|297:34,1,142.99999345398,8|8,0:0|0:0,0:0:0:0:
30,93,151436,6,0,B|50:145|50:145|234:125,1,214.49999018097,8|0,0:0|0:0,0:0:0:0:
240,140,151759,6,0,B|75:176|172:253|4:288,1,285.99998690796,8|8,0:0|0:0,0:0:0:0:
229,10,152242,2,0,L|525:50,1,285.99998690796,8|8,0:0|0:0,0:0:0:0:
425,171,152726,2,0,P|357:187|309:319,1,214.49999018097,8|0,0:0|0:0,0:0:0:0:
306,311,153049,6,0,B|272:224|272:224|80:176,1,285.99998690796,8|8,0:0|0:0,0:0:0:0:
0,128,153533,2,0,B|71:67|71:67|263:115,1,285.99998690796,8|8,0:0|0:0,0:0:0:0:
188,332,154017,2,0,L|160:100,1,214.49999018097,8|0,0:0|0:0,0:0:0:0:
212,140,154339,5,8,0:0:0:0:
36,264,154501,1,0,0:0:0:0:
128,40,154662,1,8,0:0:0:0:
244,336,154823,1,0,0:0:0:0:
28,228,154984,5,8,0:0:0:0:
288,80,155146,1,0,0:0:0:0:
164,372,155307,1,8,0:0:0:0:
48,16,155468,1,0,0:0:0:0:
368,100,155630,5,8,0:0:0:0:
0,209,155791,1,0,0:0:0:0:
320,293,155952,1,8,0:0:0:0:
48,16,156113,1,0,0:0:0:0:
88,284,156275,5,8,0:0:0:0:
148,59,156436,1,8,0:0:0:0:
145,66,156517,1,8,0:0:0:0:
143,74,156597,1,8,0:0:0:0:
202,168,156759,1,8,0:0:0:0:
226,156,156839,1,8,0:0:0:0:
252,160,156920,6,0,B|228:312|228:312|304:336|304:336|312:283,1,285.99998690796,8|0,0:0|0:0,0:0:0:0:
311,284,157404,1,8,0:0:0:0:
186,72,157565,2,0,L|160:219,2,142.99999345398,8|8|0,0:0|0:0|0:0,0:0:0:0:
287,302,158049,1,8,0:0:0:0:
186,72,158210,5,8,0:0:0:0:
108,296,158371,1,0,0:0:0:0:
340,136,158533,5,8,0:0:0:0:
104,80,158694,1,0,0:0:0:0:
180,348,158855,5,8,0:0:0:0:
260,24,159017,1,0,0:0:0:0:
21,293,159178,5,8,0:0:0:0:
418,151,159339,1,0,0:0:0:0:
122,24,159501,6,0,P|49:75|23:159,1,176,8|0,0:0|0:0,0:0:0:0:
390,360,159823,2,0,P|462:308|489:225,1,176,0|0,0:0|0:0,0:0:0:0:
256,27,160146,1,8,0:0:0:0:
91,191,160307,1,8,0:0:0:0:
256,356,160468,1,8,0:0:0:0:
420,192,160630,1,8,0:0:0:0:
256,27,160791,6,0,L|282:137,2,110,8|0|0,0:0|0:0|0:0,0:0:0:0:
200,240,161275,2,0,L|256:24,1,220,8|0,0:0|0:0,0:0:0:0:
200,240,161759,2,0,P|172:188|76:160,1,165,8|0,0:0|0:0,0:0:0:0:
75,160,162081,6,0,P|116:144|60:128,1,131.99999597168,8|0,0:0|0:0,0:0:0:0:
65,116,162565,1,0,0:0:0:0:
25,231,162726,2,0,P|44:234|65:250,1,32.99999899292,8|0,0:0|0:0,0:0:0:0:
115,299,162888,2,0,L|248:283,1,131.99999597168,0|0,0:0|0:0,0:0:0:0:
308,208,163371,5,8,0:0:0:0:
408,192,163694,1,0,0:0:0:0:
484,256,164017,2,0,P|456:216|484:64,1,197.99999395752,8|0,0:0|0:0,0:0:0:0:
375,48,164662,6,0,P|347:68|315:72,1,65.9999979858399,8|0,0:0|0:0,0:0:0:0:
177,98,164984,2,0,P|205:118|237:122,1,65.9999979858399,0|0,0:0|0:0,0:0:0:0:
158,138,165307,2,0,L|122:146,1,32.99999899292,8|0,0:0|0:0,0:0:0:0:
56,180,165468,2,0,L|68:316,1,131.99999597168,0|0,0:0|0:0,0:0:0:0:
160,352,165952,5,8,0:0:0:0:
260,360,166113,1,8,0:0:0:0:
416,288,166275,5,8,0:0:0:0:
424,188,166436,1,8,0:0:0:0:
352,32,166597,5,8,0:0:0:0:
252,24,166758,1,8,0:0:0:0:
96,96,166920,5,8,0:0:0:0:
88,196,167081,1,8,0:0:0:0:
160,352,167242,6,0,B|192:336|221:360|221:360|246:350|246:350|270:367|336:385|409:357|465:296|412:193|329:207|269:249|291:319|310:357|434:367|434:367,1,527.999983886719,8|8,0:0|0:0,0:0:0:0:
