osu file format v14

[General]
AudioFilename: audio.mp3
AudioLeadIn: 0
PreviewTime: 38597
Countdown: 0
SampleSet: Soft
StackLeniency: 0.7
Mode: 0
LetterboxInBreaks: 0
WidescreenStoryboard: 1

[Editor]
Bookmarks: 15839,32390,38597,55149,71701,88308,95508,104819,121370,137922,144129
DistanceSpacing: 1.1
BeatDivisor: 3
GridSize: 4
TimelineZoom: 2.899999

[Metadata]
Title:String Theocracy
TitleUnicode:String Theocracy
Artist:Mili
ArtistUnicode:Mili
Creator:[Arc]
Version:Normal
Source:Library Of Ruina
Tags:english jazz swing video game Cassie Wei Yamato Kasai Mizuki Kamada Luis Valle Kei Suzuki Yu Jidaisho Takashi Saito Tomonori Ohgushi Satoshi Yoneda Benjamin Savignoni 吉田 翔人 藤森 蒼 AO FUJIMORI GrwvY groovy
BeatmapID:2536362
BeatmapSetID:1192164

[Difficulty]
HPDrainRate:3
CircleSize:3
OverallDifficulty:3
ApproachRate:4
SliderMultiplier:0.7
SliderTickRate:1

[Events]
//Background and Video events
0,0,"2.jpg",0,0
//Break Periods
2,55407,62363
2,88556,95164
2,121614,128338
//Storyboard Layer 0 (Background)
//Storyboard Layer 1 (Fail)
//Storyboard Layer 2 (Pass)
//Storyboard Layer 3 (Foreground)
//Storyboard Layer 4 (Overlay)
//Storyboard Sound Samples

[TimingPoints]
580,258.620689655172,4,2,1,30,1,0
580,-100,4,2,1,30,0,0
1614,-99.9999999999999,4,2,1,40,0,0
9890,-100,4,2,1,45,0,0
15839,258.620689655172,4,2,1,60,1,0
15839,-100,4,2,1,60,0,0
38856,-100,4,2,1,70,0,1
55149,-100,4,2,1,70,0,0
55235,-100,4,2,1,45,0,0
69632,-100,4,2,1,50,0,0
70666,-100,4,2,1,55,0,0
71959,-100,4,2,1,65,0,0
84114,262.008733624454,4,2,1,65,1,0
85162,-100,4,2,1,65,0,0
88308,248.96265560166,4,2,1,65,1,0
88308,-100,4,2,1,65,0,0
89302,258.620689655172,4,2,1,30,1,0
89302,-100,4,2,1,30,0,0
100681,-100,4,2,1,35,0,0
101715,-100,4,2,1,40,0,0
102750,-100,4,2,1,45,0,0
103698,-100,4,2,1,50,0,0
105077,-100,4,2,1,70,0,1
121370,-100,4,2,1,50,0,0
143612,-100,4,2,1,40,0,0
143870,-100,4,2,1,45,0,0
144129,-99.9999999999999,4,2,1,40,0,0
152405,-99.9999999999999,4,2,1,30,0,0
158612,265.486725663717,4,2,1,30,1,0
159673,283.018867924529,4,2,1,30,1,0
160239,526.315789473686,4,2,1,30,1,0
160765,618.55670103093,4,2,1,30,1,0
162002,582.524271844662,4,2,1,30,1,0
162293,652.173913043478,4,2,1,30,1,0
162620,521.739130434784,4,2,1,30,1,0
163141,800.000000000004,4,2,1,30,1,0
163541,722.891566265063,4,2,1,30,1,0
163902,789.47368421053,4,2,1,30,1,0
164296,1071.42857142858,4,2,1,30,1,0
164831,1090.9090909091,4,2,1,30,1,0
165194,1052.63157894738,4,2,1,30,1,0
165544,1052.63157894738,4,2,1,20,1,0

[Colours]
Combo1 : 135,220,248
Combo2 : 88,166,55
Combo3 : 230,222,77
Combo4 : 255,168,72
Combo5 : 184,137,248

[HitObjects]
43,326,1614,6,0,P|100:269|200:292,1,186.666666666667,10|10,0:1|0:1,0:0:0:0:
196,288,3683,6,0,L|232:98,1,186.666666666667,10|10,0:1|0:1,0:0:0:0:
230,104,5752,6,0,P|288:150|411:139,1,186.666666666667,10|10,0:1|0:1,0:0:0:0:
396,147,7304,1,4,0:0:0:0:
496,98,7821,6,0,P|512:156|509:289,1,186.666666666667,10|10,0:1|0:1,0:0:0:0:
510,281,9890,6,0,P|425:259|314:313,1,210,10|2,0:1|3:2,0:0:0:0:
234,382,11183,1,2,3:2:0:0:
84,306,11959,6,0,L|70:93,1,210,10|2,0:1|3:2,0:0:0:0:
137,6,13252,1,2,3:2:0:0:
247,132,14028,6,0,P|288:84|425:101,1,210,10|8,0:1|3:0,0:0:0:0:
483,192,15321,2,0,P|466:241|465:269,1,70,14|4,0:0|0:3,0:0:0:0:
473,335,15839,6,0,P|432:304|284:341,1,210,6|10,3:1|0:0,0:0:0:0:
212,348,16873,2,0,P|160:341|104:295,1,116.666666666667,2|2,3:2|0:0,0:0:0:0:
131,202,17649,1,10,0:0:0:0:
16,282,18166,2,0,P|11:216|-7:142,1,140,8|10,0:0|0:0,0:0:0:0:
111,68,19201,2,0,L|120:-6,2,70,8|2|10,0:0|3:2|0:0,0:0:0:0:
187,185,20235,6,0,P|235:226|313:207,1,140,10|8,0:0|0:0,0:0:0:0:
323,137,21011,2,0,L|312:57,2,70,2|10|0,3:2|0:0|3:0,0:0:0:0:
461,185,22045,2,0,P|463:150|471:116,1,70,2|10,3:2|0:0,0:0:0:0:
493,39,22563,2,0,P|448:31|410:26,1,70,2|10,3:2|0:0,0:0:0:0:
350,51,23080,2,0,P|304:75|169:13,1,210,2|12,3:2|0:0,0:0:0:0:
99,152,24373,6,0,P|101:221|88:290,1,140,10|8,0:0|0:0,0:0:0:0:
41,351,25149,2,0,P|110:345|172:374,1,140,2|0,3:2|3:0,0:0:0:0:
247,349,25925,2,0,B|335:306|350:419|450:344,1,210,10|2,0:0|3:2,0:0:0:0:
462,196,27218,2,0,P|417:105|317:85,1,210,0|0,3:0|0:0,0:0:0:0:
180,112,28511,6,0,L|163:35,2,70,10|0|8,0:0|3:0|0:0,0:0:0:0:
240,147,29287,2,0,P|215:217|151:240,1,140,2|0,3:2|3:0,0:0:0:0:
18,229,30321,2,0,L|33:297,1,70,2|10,3:2|0:0,0:0:0:0:
101,309,30838,2,0,L|92:378,1,70,2|10,3:2|0:0,0:0:0:0:
162,376,31356,2,0,P|246:360|266:266,1,186.666666666667,2|6,3:2|3:1,0:0:0:0:
221,189,32390,5,2,3:2:0:0:
221,189,33166,1,2,3:2:0:0:
63,143,33942,1,2,0:2:0:0:
63,143,34718,1,10,0:1:0:0:
156,282,35494,6,0,P|225:287|331:123,1,280,2|2,3:2|3:2,0:0:0:0:
228,17,37045,2,0,L|82:-2,1,140,2|2,3:2|3:2,0:0:0:0:
68,66,37821,2,0,L|-7:79,2,70,10|10|12,0:0|0:0|0:0,0:0:0:0:
169,182,38856,6,0,P|137:251|212:337,1,186.666666666667,6|6,3:1|3:2,0:0:0:0:
298,339,39890,2,0,L|442:312,1,140,10|10,0:0|0:0,0:0:0:0:
500,355,40666,5,6,3:1:0:0:
409,232,41183,2,0,P|401:192|429:102,1,116.666666666667,0|6,3:0|3:1,0:0:0:0:
446,20,41959,2,0,L|515:41,2,70,10|2|10,0:0|3:2|0:0,0:0:0:0:
334,128,42994,6,0,P|271:155|198:147,1,140,10|10,0:0|0:0,0:0:0:0:
173,105,43683,2,0,P|134:90|20:133,1,163.333333333333,6|2,3:1|3:2,0:0:0:0:
2,201,44545,1,10,0:2:0:0:
28,272,44804,1,2,3:2:0:0:
99,301,45063,6,0,L|88:371,2,70,10|2|8,0:0|3:2|0:0,0:0:0:0:
145,278,45752,2,0,B|242:281|167:344|292:356,1,163.333333333333,6|6,3:1|3:1,0:0:0:0:
419,291,46873,5,6,3:1:0:0:
467,231,47132,2,0,P|480:172|470:91,1,140,10|10,0:0|0:0,0:0:0:0:
454,45,47821,2,0,L|352:49,1,93.3333333333333,6|10,3:2|0:0,0:0:0:0:
330,119,48425,1,2,3:2:0:0:
254,104,48683,1,14,0:0:0:0:
195,154,48942,6,0,P|152:163|87:97,1,140,6|2,3:1|3:2,0:0:0:0:
190,27,49890,2,0,L|220:263,1,233.333333333333,6|10,3:1|0:0,0:0:0:0:
73,306,51270,6,0,L|60:382,2,70,10|2|10,0:0|3:2|0:0,0:0:0:0:
56,257,51959,2,0,P|32:212|48:158,1,93.3333333333333,6|10,3:1|0:0,0:0:0:0:
102,32,52821,5,14,0:0:0:0:
149,92,53080,2,0,P|207:100|287:60,1,140,6|6,3:1|3:1,0:0:0:0:
406,46,54028,2,0,L|394:154,1,93.3333333333333,6|10,3:1|0:0,0:0:0:0:
382,214,54632,1,10,0:3:0:0:
422,348,55149,5,4,3:1:0:0:
296,105,63683,6,0,P|270:146|231:241,1,140,2|2,0:0|0:0,0:0:0:0:
217,305,64459,2,0,P|146:277|74:285,1,140,2|2,0:0|0:0,0:0:0:0:
15,245,65235,2,0,B|52:169|-35:134|22:30,1,210,2|2,0:0|3:2,0:0:0:0:
16,41,67821,6,0,L|101:24,1,70,2|2,0:0|3:2,0:0:0:0:
144,76,68338,2,0,L|224:89,1,70,2|6,0:0|0:0,0:0:0:0:
335,19,69114,1,2,3:2:0:0:
256,192,69632,12,10,71183,0:0:0:0:
38,88,71959,6,0,P|24:128|22:168,1,70,10|2,0:0|3:2,0:0:0:0:
76,208,72476,2,0,P|83:236|86:281,1,70,10|0,0:0|3:0,0:0:0:0:
71,353,72994,2,0,L|146:347,1,70,8|0,0:0|3:0,0:0:0:0:
208,311,73511,6,0,P|302:338|394:188,1,280,14|10,0:0|0:0,0:0:0:0:
340,157,74804,2,0,P|331:102|455:22,1,210,0|8,3:0|0:0,0:0:0:0:
441,18,76097,6,0,L|366:1,1,70,14|2,0:0|3:2,0:0:0:0:
324,62,76614,2,0,L|253:73,1,70,10|0,0:0|3:0,0:0:0:0:
195,23,77132,2,0,P|161:24|77:96,1,140,10|10,0:0|0:0,0:0:0:0:
117,154,77907,5,6,3:1:0:0:
11,246,78425,1,2,3:2:0:0:
87,356,78942,2,0,P|158:342|206:349,1,116.666666666667,2|2,3:2|0:0,0:0:0:0:
290,373,79718,1,10,0:0:0:0:
409,324,80235,6,0,P|426:279|417:185,1,140,14|10,0:0|0:0,0:0:0:0:
361,137,81011,2,0,P|350:100|357:21,1,116.666666666667,2|2,3:2|3:2,0:0:0:0:
457,6,81787,1,14,0:0:0:0:
292,214,83080,6,0,P|238:234|169:209,1,116.666666666667,2|2,3:2|0:0,0:0:0:0:
93,169,83856,1,10,0:0:0:0:
93,169,84376,6,0,L|115:29,1,140,14|10,0:1|0:0,0:0:0:0:
188,13,85162,2,0,P|234:24|263:98,1,116.666666666667,2|2,3:2|3:2,0:0:0:0:
353,133,85948,1,10,0:0:0:0:
308,196,86210,6,0,P|304:231|314:340,1,140,2|2,3:2|3:2,0:0:0:0:
460,379,87258,2,0,P|491:338|495:264,1,116.666666666667,2|6,3:2|0:3,0:0:0:0:
467,203,87956,1,14,0:0:0:0:
489,97,88308,5,4,3:1:0:0:
178,264,96543,5,4,3:1:0:0:
256,192,96801,12,4,100681,3:1:0:0:
362,307,101457,5,10,0:0:0:0:
304,256,101715,2,0,P|306:208|319:174,1,70,8|8,3:2|0:0,0:0:0:0:
328,111,102233,2,0,L|258:99,1,70,8|8,0:0|0:0,0:0:0:0:
182,91,102750,2,0,L|175:4,2,70,8|4|10,3:0|0:3|0:0,0:0:0:0:
80,169,103698,5,6,3:2:0:0:
368,336,104819,5,2,3:2:0:0:
399,265,105077,2,0,B|455:163|364:169|411:86,1,186.666666666667,14|6,0:2|3:1,0:0:0:0:
476,9,106112,2,0,P|392:44|338:22,1,140,10|14,0:0|0:0,0:0:0:0:
276,5,106888,5,6,3:1:0:0:
139,63,107405,2,0,P|179:145|180:178,1,116.666666666667,2|6,3:2|3:1,0:0:0:0:
119,251,108181,2,0,L|42:236,2,70,10|2|10,0:0|3:2|0:0,0:0:0:0:
236,350,109215,6,0,P|279:323|376:298,1,140,10|10,0:0|0:0,0:0:0:0:
409,323,109905,2,0,L|422:144,1,163.333333333333,6|2,3:1|3:2,0:0:0:0:
421,82,110767,1,10,0:0:0:0:
354,43,111026,1,2,3:2:0:0:
281,68,111284,6,0,P|289:95|292:143,2,70,14|2|8,0:0|3:2|0:0,0:0:0:0:
265,18,111974,2,0,B|179:13|229:105|118:95,1,163.333333333333,6|10,3:1|0:0,0:0:0:0:
0,0,113095,5,4,3:2:0:0:
13,76,113353,2,0,P|17:117|21:228,1,140,14|10,0:2|0:0,0:0:0:0:
11,267,114043,2,0,P|54:305|164:295,1,163.333333333333,6|2,3:1|3:2,0:0:0:0:
198,238,114905,1,10,0:0:0:0:
260,283,115164,6,0,L|339:289,1,70,6|8,3:2|0:0,0:0:0:0:
388,234,115681,2,0,P|419:223|460:219,1,70,6|8,3:2|0:0,0:0:0:0:
489,258,116112,2,0,P|461:199|491:35,1,233.333333333333,6|10,3:1|0:2,0:0:0:0:
488,38,117491,6,0,P|414:61|345:63,1,140,10|10,0:0|0:0,0:0:0:0:
322,26,118181,2,0,P|265:21|222:164,1,233.333333333333,6|10,3:1|0:0,0:0:0:0:
267,220,119301,5,2,3:2:0:0:
276,294,119560,2,0,P|319:298|351:310,2,70,14|2|8,0:0|3:2|0:0,0:0:0:0:
237,328,120250,2,0,B|153:358|161:269|73:307,1,163.333333333333,6|10,3:1|0:2,0:0:0:0:
21,258,121112,1,6,0:3:0:0:
50,187,121370,5,4,3:1:0:0:
242,186,129905,6,0,P|338:209|361:252,1,140,2|2,0:0|0:0,0:0:0:0:
394,306,130681,2,0,L|407:152,1,140,2|2,0:0|3:2,0:0:0:0:
437,96,131457,1,2,0:3:0:0:
391,34,131715,2,0,P|329:52|252:45,1,140,0|0,0:0|3:1,0:0:0:0:
254,45,134043,6,0,L|245:120,1,70,2|2,0:0|3:2,0:0:0:0:
180,155,134560,2,0,L|192:229,1,70,2|2,0:0|0:0,0:0:0:0:
270,339,135336,1,10,3:1:0:0:
134,373,135853,2,0,P|75:361|41:290,1,140,8|2,0:1|3:3,0:0:0:0:
122,164,137060,6,0,P|123:120|100:65,1,93.3333333333333,10|2,0:1|0:0,0:0:0:0:
48,23,137664,1,2,0:0:0:0:
5,87,137922,5,2,0:0:0:0:
5,87,138698,1,2,0:0:0:0:
85,234,139474,1,2,0:0:0:0:
85,234,140250,1,10,0:1:0:0:
222,137,141026,6,0,P|255:128|369:150,1,140,2|2,3:1|3:2,0:0:0:0:
403,205,141801,1,2,0:0:0:0:
373,276,142060,2,0,P|378:336|382:359,2,70,2|2|2,3:1|0:0|3:1,0:0:0:0:
220,255,143095,2,0,P|222:294|213:333,2,70,2|2|10,3:2|3:2|3:2,0:0:0:0:
154,215,143870,1,10,3:2:0:0:
118,146,144129,1,6,3:1:0:0:
118,144,146198,6,0,B|259:89|229:202|364:187,1,256.666666666667,2|2,0:0|0:0,0:0:0:0:
357,187,148267,6,0,P|399:143|272:77,1,256.666666666667,2|2,0:0|0:0,0:0:0:0:
279,68,150336,6,0,B|179:77|131:17|131:17|20:93,1,280,2|2,0:0|0:0,0:0:0:0:
35,305,152405,5,0,0:0:0:0:
98,354,152664,2,0,P|144:275|119:188,1,186.666666666667,0|2,0:0|0:0,0:0:0:0:
120,189,154474,6,0,L|265:170,1,140,2|2,0:0|0:0,0:0:0:0:
327,234,155422,1,2,0:0:0:0:
484,48,156543,6,0,P|468:122|458:309,1,256.666666666667,2|2,0:0|0:0,0:0:0:0:
457,302,158612,6,0,B|357:238|329:384|210:294,1,256.666666666667,2|2,0:0|0:0,0:0:0:0:
256,192,161383,12,2,165544,0:0:0:0:
