osu file format v14

[General]
AudioFilename: audio.mp3
AudioLeadIn: 0
PreviewTime: 56361
Countdown: 0
SampleSet: Soft
StackLeniency: 0.7
Mode: 0
LetterboxInBreaks: 0
WidescreenStoryboard: 0

[Editor]
Bookmarks: 22142
DistanceSpacing: 0.9
BeatDivisor: 4
GridSize: 16
TimelineZoom: 0.8999999

[Metadata]
Title:Rightfully (TV Size)
TitleUnicode:Rightfully (TV Size)
Artist:Mili
ArtistUnicode:Mili
Creator:Tsumugi-chan
Version:wenect's Normal
Source:ゴブリンスレイヤー
Tags:Goblin Slayer OP anime breakcore electronic enerugi p4ndemonium pandemonium melwoine wenect wenet tech milli miili english
BeatmapID:1918142
BeatmapSetID:866335

[Difficulty]
HPDrainRate:3
CircleSize:3
OverallDifficulty:4
ApproachRate:5
SliderMultiplier:1
SliderTickRate:1

[Events]
//Background and Video events
0,0,"d3eb2c408b6ce9c166c071a00fb50ddb.jpg",0,0
//Break Periods
//Storyboard Layer 0 (Background)
//Storyboard Layer 1 (Fail)
//Storyboard Layer 2 (Pass)
//Storyboard Layer 3 (Foreground)
//Storyboard Layer 4 (Overlay)
//Storyboard Sound Samples

[TimingPoints]
19347,349.854227405248,4,2,2,25,1,0
22145,-100,4,2,2,25,0,0
23138,333.333333333333,4,2,2,25,1,8
23475,317.460317460317,4,2,2,25,1,0
23795,333.333333333333,4,2,2,25,1,8
24782,350.877192982456,4,2,2,25,1,0
25136,329.67032967033,4,2,2,25,1,8
25459,357.142857142857,4,2,2,25,1,8
25822,291.26213592233,4,2,2,25,1,8
26113,320.855614973262,4,2,2,30,1,0
26113,-100.200400801603,4,2,2,30,0,0
26428,329.67032967033,4,2,2,20,1,8
27429,329.67032967033,4,2,2,30,1,0
30055,329.67032967033,4,2,2,25,1,0
32692,-100,4,2,2,30,0,0
35329,-100,4,2,2,25,0,0
36648,329.67032967033,4,2,2,25,1,8
36653,329.67032967033,4,2,2,30,1,0
37971,329.67032967033,4,2,2,30,1,8
38012,329.67032967033,4,2,2,40,1,0
39291,329.67032967033,4,2,2,30,1,0
39950,-100,4,2,2,30,0,0
43247,329.67032967033,4,2,1,50,1,8
43253,-100,4,2,1,45,0,0
43257,329.67032967033,4,2,1,50,1,0
43751,-100,4,2,1,50,0,0
56443,-100,4,2,1,50,0,1
66993,-100,4,2,1,50,0,0
72267,-100,4,2,1,45,0,0
77542,-100,4,2,1,50,0,0
87621,444.444444444444,4,2,1,50,1,8
87818,357.142857142857,4,2,1,30,1,8
88176,352.941176470588,4,2,1,20,1,0
88176,-100,4,2,1,30,0,0

[Colours]
Combo1 : 255,255,128
Combo2 : 192,192,192
Combo3 : 255,128,128
Combo4 : 128,64,64

[HitObjects]
57,105,22145,6,0,B|155:85|155:85|185:136|146:180,1,200,2|0,3:2|0:0,0:0:0:0:
82,235,23138,1,0,0:0:0:0:
131,309,23475,2,0,P|176:315|229:329,1,100,2|0,3:2|3:0,0:0:0:0:
289,262,24128,1,0,0:0:0:0:
229,194,24461,6,0,P|201:198|172:204,1,50
148,177,24782,1,2,3:2:0:0:
209,106,25136,1,0,0:0:0:0:
293,140,25459,2,0,L|391:120,1,100,8|0,3:2|0:0,0:0:0:0:
432,151,25967,1,0,0:0:0:0:
432,151,26113,2,0,B|462:202|425:248,1,98,2|0,3:2|3:0,0:0:0:0:
361,306,26757,1,0,0:0:0:0:
301,40,27429,6,0,B|188:21|220:83|104:62,2,200,0|8|2,3:2|3:2|3:2,0:0:0:0:
360,108,29077,2,0,L|340:206,1,100,0|0,3:0|0:0,0:0:0:0:
467,332,30055,2,0,P|441:245|337:218,1,200,2|8,3:2|3:2,0:0:0:0:
287,286,31044,1,0,0:0:0:0:
215,231,31373,2,0,L|117:211,2,100,2|0|0,3:2|3:0|0:0,0:0:0:0:
358,122,32692,6,0,B|406:108|406:108|472:122,1,100,4|8,3:2|3:2,3:0:0:0:
478,205,33351,1,0,0:0:0:0:
443,287,33681,1,0,0:0:0:0:
381,352,34011,2,0,B|333:366|333:366|267:352,2,100,2|0|0,3:2|3:0|0:0,0:0:0:0:
436,280,35000,1,0,0:0:0:0:
385,205,35329,1,2,3:2:0:0:
375,209,36653,6,0,P|155:191|154:191,1,200
19,101,38012,6,0,L|121:92,1,100
181,27,38671,1,0,0:0:0:0:
262,65,39001,1,0,0:0:0:0:
331,13,39291,2,0,L|433:22,2,100,2|0|0,3:2|3:0|0:0,0:0:0:0:
263,81,40280,1,0,0:0:0:0:
296,164,40609,1,2,3:2:0:0:
281,166,43257,6,0,P|231:154|175:151,1,100,4|0,3:2|3:0,0:0:0:0:
141,168,43751,1,0,0:0:0:0:
141,168,43916,1,8,3:2:0:0:
89,241,44246,2,0,L|97:303,1,50,0|0,3:0|0:0,0:0:0:0:
102,334,44575,2,0,P|152:322|208:319,1,100,2|0,3:2|3:0,0:0:0:0:
257,248,45235,2,0,P|307:260|363:263,1,100,8|0,3:2|3:0,0:0:0:0:
429,212,45894,6,0,B|441:170|441:170|417:97,1,100,2|0,3:2|3:0,0:0:0:0:
409,73,46388,1,0,0:0:0:0:
409,73,46553,2,0,B|367:61|367:61|294:85,1,100,8|0,3:2|3:0,0:0:0:0:
226,104,47213,1,2,3:2:0:0:
54,157,47872,2,0,B|58:184|58:184|56:201|59:217|59:217|60:236|63:278,1,100,0|8,0:0|0:0,0:0:0:0:
128,317,48531,6,0,P|173:298|233:301,1,100,4|0,3:2|3:0,0:0:0:0:
291,357,49191,1,8,3:2:0:0:
376,328,49520,1,0,3:0:0:0:
464,345,49850,2,0,L|459:288,1,50,2|0,3:2|0:0,0:0:0:0:
493,264,50180,1,0,3:0:0:0:
469,177,50509,2,0,L|474:120,1,50,8|0,3:2|0:0,0:0:0:0:
440,96,50839,1,0,3:0:0:0:
359,136,51169,6,0,L|248:147,2,100,2|0|8,3:2|3:0|3:2,0:0:0:0:
413,64,52158,1,0,3:0:0:0:
337,15,52487,2,0,L|226:4,1,100,2|0,3:2|3:0,0:0:0:0:
154,41,53147,2,0,L|43:30,1,100,8|0,3:2|3:0,0:0:0:0:
1,103,53806,6,0,P|21:145|30:221,2,100,2|0|8,3:2|3:0|3:2,0:0:0:0:
54,31,54795,1,0,3:0:0:0:
131,77,55125,2,0,P|173:97|249:106,1,100,2|0,3:2|3:0,0:0:0:0:
306,67,55784,2,0,P|334:62|365:59,1,50,8|0,3:2|0:0,0:0:0:0:
399,71,56114,1,0,0:0:0:0:
463,133,56443,6,0,P|462:186|434:228,2,100,0|8|0,0:0|3:1|3:0,0:0:0:0:
412,58,57432,1,0,3:0:0:0:
331,98,57762,2,0,L|225:102,1,100,2|8,3:2|3:1,0:0:0:0:
162,43,58421,2,0,P|135:31|105:28,1,50,8|8,3:0|3:0,0:0:0:0:
72,45,58751,2,0,P|43:54|15:84,1,50,8|0,3:0|0:0,0:0:0:0:
13,108,59081,6,0,P|34:146|42:210,1,100,2|8,3:2|3:1,0:0:0:0:
21,289,59740,2,0,P|70:295|114:318,1,100,0|0,3:0|3:0,0:0:0:0:
180,256,60399,2,0,L|234:244,1,50,2|0,3:2|3:0,0:0:0:0:
271,262,60729,2,0,L|340:242,1,50,8|0,3:1|0:0,0:0:0:0:
348,213,61059,1,8,3:0:0:0:
400,286,61388,1,8,3:0:0:0:
340,353,61718,6,0,L|238:340,2,100,4|8|0,3:2|3:1|3:0,0:0:0:0:
393,280,62707,2,0,L|454:272,1,50,0|0,3:0|3:0,0:0:0:0:
487,281,63037,2,0,P|509:217|496:168,1,100,2|8,3:2|3:1,0:0:0:0:
484,146,63531,1,0,3:0:0:0:
484,146,63696,2,0,P|438:125|389:128,1,100,8|8,3:0|3:0,0:0:0:0:
326,63,64355,6,0,L|224:50,1,100,2|8,3:2|3:1,0:0:0:0:
177,125,65015,2,0,L|117:133,1,50,0|8,3:0|3:0,0:0:0:0:
105,170,65344,2,0,L|45:178,1,50,0|0,3:0|3:0,0:0:0:0:
26,211,65674,1,0,3:0:0:0:
34,300,66004,1,8,3:1:0:0:
112,343,66333,2,0,L|172:335,1,50,8|0,3:0|3:0,0:0:0:0:
205,345,66663,1,8,3:0:0:0:
256,192,66993,12,2,70949,3:2:0:0:
267,228,72267,6,0,B|216:221|216:221|172:240|172:240|109:233,1,150,4|0,3:2|3:0,0:0:0:0:
78,247,72927,2,0,L|59:143,1,100,0|0,3:0|0:0,0:0:0:0:
137,103,73586,2,0,B|188:96|188:96|232:115|232:115|295:108,1,150,2|0,3:2|3:0,0:0:0:0:
326,122,74246,2,0,L|345:18,1,100,0|0,3:0|0:0,0:0:0:0:
433,15,74905,2,0,L|404:170,1,150,2|0,3:2|3:0,0:0:0:0:
397,206,75564,1,0,3:0:0:0:
425,291,75894,1,0,0:0:0:0:
341,325,76224,2,0,B|234:289|231:367|128:359,1,200,2|0,3:2|3:0,0:0:0:0:
20,234,77542,6,0,B|117:212|117:212|131:233|153:246,1,150,4|0,3:2|3:0,0:0:0:0:
197,257,78202,2,0,P|218:209|194:152,1,100,0|0,3:0|0:0,0:0:0:0:
158,88,78861,2,0,B|255:110|255:110|269:89|291:76,1,150,2|0,3:2|3:0,0:0:0:0:
335,65,79520,2,0,P|356:113|332:170,1,100,0|0,3:0|0:0,0:0:0:0:
412,214,80180,2,0,P|443:126|431:55,1,150,2|0,3:2|3:0,0:0:0:0:
420,29,80839,1,0,3:0:0:0:
333,55,81169,1,0,0:0:0:0:
259,3,81498,2,0,L|149:-1,1,100,2|0,3:2|0:0,0:0:0:0:
156,89,82158,2,0,L|255:92,1,100,0|0,3:0|0:0,0:0:0:0:
296,173,82817,6,0,L|259:328,1,150,4|0,3:2|3:0,0:0:0:0:
218,333,83476,2,0,B|183:316|183:316|116:320,1,100,0|0,3:0|0:0,0:0:0:0:
53,261,84136,2,0,L|90:106,1,150,2|0,3:2|3:0,0:0:0:0:
131,101,84795,2,0,B|166:118|166:118|233:114,1,100,0|0,3:0|0:0,0:0:0:0:
279,41,85454,2,0,P|334:51|344:150,1,150,2|0,3:2|3:0,0:0:0:0:
334,173,86114,1,0,3:0:0:0:
258,222,86443,1,0,0:0:0:0:
281,309,86773,2,0,B|332:330|332:330|427:308,1,150,2|0,3:2|3:0,0:0:0:0:
467,296,87432,1,0,3:0:0:0:
256,192,88175,12,0,89587,0:0:0:0:
