osu file format v14

[General]
AudioFilename: audio.mp3
AudioLeadIn: 0
PreviewTime: 56361
Countdown: 0
SampleSet: Soft
StackLeniency: 0.3
Mode: 0
LetterboxInBreaks: 0
WidescreenStoryboard: 0

[Editor]
Bookmarks: 22142
DistanceSpacing: 1
BeatDivisor: 4
GridSize: 32
TimelineZoom: 2

[Metadata]
Title:Rightfully (TV Size)
TitleUnicode:Rightfully (TV Size)
Artist:Mili
ArtistUnicode:Mili
Creator:Tsumugi-chan
Version:P4nde's Insane
Source:ゴブリンスレイヤー
Tags:Goblin Slayer OP anime breakcore electronic enerugi p4ndemonium pandemonium melwoine wenect wenet tech milli miili english
BeatmapID:1962178
BeatmapSetID:866335

[Difficulty]
HPDrainRate:5
CircleSize:3.6
OverallDifficulty:8
ApproachRate:9.1
SliderMultiplier:2
SliderTickRate:1

[Events]
//Background and Video events
0,0,"d3eb2c408b6ce9c166c071a00fb50ddb.jpg",0,0
//Break Periods
2,40809,42003
//Storyboard Layer 0 (Background)
//Storyboard Layer 1 (Fail)
//Storyboard Layer 2 (Pass)
//Storyboard Layer 3 (Foreground)
//Storyboard Layer 4 (Overlay)
//Storyboard Sound Samples

[TimingPoints]
19347,349.854227405248,4,2,2,25,1,0
22145,-100,4,2,2,25,0,0
22495,-200,4,2,2,25,0,0
23138,333.333333333333,4,2,2,25,1,8
23475,317.460317460317,4,2,2,25,1,0
23475,-100,4,2,2,25,0,0
23795,333.333333333333,4,2,2,25,1,8
23795,-200,4,2,2,25,0,0
24782,350.877192982456,4,2,2,25,1,0
24782,-200,4,2,2,25,0,0
25136,329.67032967033,4,2,2,25,1,8
25136,-200,4,2,2,25,0,0
25459,357.142857142857,4,2,2,25,1,8
25459,-200,4,2,2,25,0,0
25822,291.26213592233,4,2,2,25,1,8
25822,-200,4,2,2,25,0,0
26113,320.855614973262,4,2,2,30,1,0
26113,-200,4,2,2,25,0,0
26428,329.67032967033,4,2,2,20,1,8
26428,-200,4,2,2,25,0,0
27429,329.67032967033,4,2,2,30,1,0
27429,-200,4,2,2,25,0,0
28088,-200,4,2,2,25,0,0
28747,-200,4,2,2,25,0,0
30055,329.67032967033,4,2,2,25,1,0
30055,-200,4,2,2,25,0,0
32033,-133.333333333333,4,2,2,50,0,0
32362,-100,4,2,2,50,0,0
32692,-100,4,2,2,30,0,0
33022,-200,4,2,2,30,0,0
34011,-100,4,2,2,30,0,0
34340,-200,4,2,2,30,0,0
35329,-200,4,2,2,25,0,0
36648,329.67032967033,4,2,2,25,1,8
36653,329.67032967033,4,2,2,30,1,0
36653,-400,4,2,2,25,0,0
37312,-200,4,2,2,50,0,0
37971,329.67032967033,4,2,2,30,1,8
38012,329.67032967033,4,2,2,40,1,0
38012,-100,4,2,2,40,0,0
38094,-100,4,2,2,5,0,0
38341,-200,4,2,2,25,0,0
38424,-200,4,2,2,5,0,0
38671,-200,4,2,2,35,0,0
39291,329.67032967033,4,2,2,30,1,0
39291,-100,4,2,2,15,0,0
39373,-100,4,2,2,10,0,0
39620,-200,4,2,2,15,0,0
39703,-200,4,2,2,10,0,0
39950,-200,4,2,2,30,0,0
40609,-200,4,2,2,15,0,0
42587,-200,4,2,2,50,0,0
42752,-133.333333333333,4,2,2,50,0,0
42917,-100,4,2,2,50,0,0
43082,-80,4,2,2,50,0,0
43247,329.67032967033,4,2,1,50,1,8
43257,329.67032967033,4,2,1,50,1,0
43257,-100,4,2,1,50,0,0
44575,-200,4,2,1,50,0,0
44905,-133.333333333333,4,2,1,50,0,0
45235,-100,4,2,1,50,0,0
45564,-80,4,2,1,50,0,0
46388,-100,4,2,1,50,0,0
46553,-66.6666666666667,4,2,1,50,0,0
46718,-50,4,2,1,50,0,0
46883,-40,4,2,1,50,0,0
47048,-33.3333333333333,4,2,1,50,0,0
47213,-1000,4,2,1,50,0,0
48202,-80,4,2,1,50,0,0
48531,-100,4,2,1,50,0,0
56443,-200,4,2,1,60,0,1
66993,-400,4,2,1,50,0,0
67899,-400,4,2,1,5,0,0
67982,-400,4,2,1,50,0,0
68229,-400,4,2,1,5,0,0
68311,-400,4,2,1,50,0,0
69218,-400,4,2,1,5,0,0
69300,-400,4,2,1,50,0,0
69548,-400,4,2,1,5,0,0
69630,-400,4,2,1,50,0,0
70537,-400,4,2,1,5,0,0
70619,-400,4,2,1,50,0,0
70866,-400,4,2,1,5,0,0
70949,-400,4,2,1,50,0,0
71855,-400,4,2,1,5,0,0
71938,-400,4,2,1,50,0,0
72185,-400,4,2,1,5,0,0
72267,-400,4,2,1,50,0,0
73174,-400,4,2,1,5,0,0
73257,-400,4,2,1,50,0,0
73504,-400,4,2,1,5,0,0
73586,-400,4,2,1,50,0,0
74493,-400,4,2,1,5,0,0
74575,-400,4,2,1,50,0,0
74822,-400,4,2,1,5,0,0
74905,-400,4,2,1,50,0,0
75811,-400,4,2,1,5,0,0
75894,-400,4,2,1,50,0,0
76141,-400,4,2,1,5,0,0
76224,-400,4,2,1,50,0,0
77542,-166.666666666667,4,2,1,50,0,0
82817,-200,4,2,1,50,0,0
87432,-200,4,2,1,40,0,0
87621,444.444444444444,4,2,1,50,1,8
87818,357.142857142857,4,2,1,30,1,8
87818,-263.157894736842,4,2,1,30,0,0
88176,352.941176470588,4,2,1,20,1,0
89411,-100,4,2,1,5,0,0

[Colours]
Combo1 : 255,255,128
Combo2 : 192,192,192
Combo3 : 255,128,128
Combo4 : 128,64,64

[HitObjects]
444,109,22145,6,0,P|407:162|342:169,1,133.333333333333,2|0,3:2|0:0,0:0:0:0:
215,56,22495,2,0,P|263:56|297:91,1,100,8|0,3:2|0:0,0:0:0:0:
297,91,23138,1,0,0:0:0:0:
90,218,23475,6,0,P|55:161|0:125,1,133.333333333333,2|0,3:2|0:0,0:0:0:0:
139,0,23795,2,0,P|122:46|124:96,1,100,0|0,3:0|0:0,0:0:0:0:
124,96,24461,1,0,0:0:0:0:
179,266,24782,6,0,P|205:224|250:204,1,100,2|0,3:2|0:0,0:0:0:0:
295,368,25459,2,0,P|247:381|200:366,1,100,8|0,3:2|0:0,0:0:0:0:
186,352,25967,1,0,0:0:0:0:
348,254,26113,6,0,L|356:303,1,50,2|0,3:2|0:0,0:0:0:0:
443,312,26428,2,0,L|435:362,1,50,0|0,3:0|0:0,0:0:0:0:
497,184,26757,5,0,0:0:0:0:
434,205,26922,1,0,0:0:0:0:
397,167,27087,1,0,0:0:0:0:
395,136,27252,1,0,0:0:0:0:
408,119,27429,6,0,P|372:56|301:50,1,150,0|0,3:2|0:0,0:0:0:0:
259,129,28088,2,0,L|111:155,1,150,8|0,3:2|0:0,0:0:0:0:
68,236,28747,2,0,L|117:244,2,50,2|0|0,3:2|0:0|3:0,0:0:0:0:
68,236,29407,1,0,0:0:0:0:
196,338,30055,6,0,P|286:362|339:284,1,200,2|8,3:2|3:2,0:0:0:0:
339,284,31044,1,0,0:0:0:0:
387,161,31373,2,0,P|381:185|383:210,1,50,2|0,3:2|0:0,0:0:0:0:
267,148,31703,2,0,P|289:137|308:120,1,50,0|8,3:0|0:0,0:0:0:0:
462,109,32033,6,0,P|491:132|507:165,1,75.0000028610231,2|0,0:0|0:0,0:0:0:0:
320,31,32362,6,0,P|273:13|224:19,1,100
167,243,32692,6,0,P|183:223|189:200,1,50,4|0,3:2|0:0,3:0:0:0:
289,150,33022,2,0,P|286:138|281:127,1,25,8|0,3:2|0:0,0:0:0:0:
127,55,33351,6,0,L|110:51,6,16.6666666666667
386,41,34011,6,0,P|369:60|363:83,1,50,2|0,3:2|0:0,0:0:0:0:
264,134,34340,2,0,P|267:146|272:157,1,25,0|0,3:0|0:0,0:0:0:0:
414,254,34670,6,0,L|412:237,6,16.6666666666667
356,323,35329,1,2,3:2:0:0:
355,323,36653,6,0,P|326:345|289:343,1,75
275,357,37312,2,0,P|251:288|184:259,1,150
52,206,38012,6,0,P|68:225|74:248,1,50
145,336,38341,2,0,P|136:344|126:351,1,25
204,97,38671,6,0,L|201:113,6,16.6666666666667
460,206,39291,6,0,P|443:225|437:248,1,50,2|0,3:2|0:0,0:0:0:0:
367,336,39620,2,0,P|375:344|385:351,1,25,0|0,3:0|0:0,0:0:0:0:
308,97,39950,6,0,L|309:113,6,16.6666666666667
256,192,40609,1,2,3:2:0:0:
256,191,42587,6,0,P|254:203|249:214,1,25
267,292,42752,6,0,P|250:300|232:304,1,37.5000014305115
171,359,42917,6,0,P|148:349|131:330,1,50
57,290,43082,6,0,P|58:258|72:231,1,62.5
86,114,43257,6,0,P|114:153|162:162,1,100,4|0,3:2|0:0,0:0:0:0:
178,151,43504,1,0,0:0:0:0:
178,151,43586,1,0,3:0:0:0:
195,62,43751,1,0,0:0:0:0:
317,62,43916,5,8,3:2:0:0:
321,86,43998,1,0,0:0:0:0:
325,111,44081,1,0,0:0:0:0:
330,135,44163,1,0,0:0:0:0:
334,160,44246,2,0,L|351:258,1,100,0|0,3:0|0:0,0:0:0:0:
493,317,44575,6,0,P|493:292|504:270,1,50,2|0,3:2|0:0,0:0:0:0:
431,378,44905,2,0,P|395:370|370:343,1,75.0000028610231,0|0,3:0|0:0,0:0:0:0:
229,182,45235,6,0,P|252:226|246:275,1,100,8|0,3:2|0:0,0:0:0:0:
254,99,45564,2,0,P|311:80|365:108,1,125,0|0,3:0|0:0,0:0:0:0:
279,374,45894,6,0,B|192:402|148:327|161:323|131:272|65:281,1,250,2|0,3:2|3:0,0:0:0:0:
12,349,46388,5,0,0:0:0:0:
66,281,46553,1,8,3:2:0:0:
23,186,46718,1,0,0:0:0:0:
101,92,46883,1,0,3:0:0:0:
0,0,47048,5,0,0:0:0:0:
0,0,47130,1,0,0:0:0:0:
0,0,47213,2,0,L|5:29,1,30,2|0,3:2|0:0,0:0:0:0:
101,92,47872,5,0,0:0:0:0:
113,81,47954,1,0,0:0:0:0:
128,76,48037,1,0,0:0:0:0:
145,77,48119,1,0,0:0:0:0:
158,67,48202,6,0,P|207:141|296:131,1,187.5,8|0,0:0|0:0,0:0:0:0:
423,28,48531,6,0,B|444:90|403:125|398:116|360:156|382:212,1,200,4|0,3:2|3:0,0:0:0:0:
450,266,49026,1,0,0:0:0:0:
287,356,49191,2,0,P|239:365|201:334,1,100,8|0,3:2|0:0,0:0:0:0:
226,250,49520,2,0,P|273:240|311:271,1,100,0|0,3:0|0:0,0:0:0:0:
111,372,49850,6,0,P|103:322|72:283,1,100,2|0,3:2|0:0,0:0:0:0:
0,197,50180,1,0,3:0:0:0:
24,200,50262,1,0,0:0:0:0:
48,194,50344,1,0,0:0:0:0:
68,178,50427,1,0,0:0:0:0:
80,157,50509,2,0,P|87:133|106:116,3,50,8|0|0|0,3:2|0:0|0:0|0:0,0:0:0:0:
122,31,50839,2,0,P|146:25|169:33,3,50,0|0|0|0,3:0|0:0|0:0|0:0,0:0:0:0:
219,104,51169,6,0,P|255:136|304:135,1,100,2|0,3:2|0:0,0:0:0:0:
376,37,51498,1,0,3:0:0:0:
381,61,51581,1,0,0:0:0:0:
385,86,51663,1,0,0:0:0:0:
390,110,51746,1,0,0:0:0:0:
394,135,51828,2,0,L|402:184,3,50,8|0|0|0,3:2|0:0|0:0|0:0,0:0:0:0:
472,234,52158,2,0,L|454:332,1,100,0|0,3:0|0:0,0:0:0:0:
300,363,52487,6,0,P|260:334|211:338,1,100,2|0,3:2|0:0,0:0:0:0:
111,384,52817,1,0,3:0:0:0:
116,360,52899,1,0,0:0:0:0:
120,335,52982,1,0,0:0:0:0:
125,311,53064,1,0,0:0:0:0:
129,286,53147,2,0,L|137:236,3,50,8|0|0|0,3:2|0:0|0:0|0:0,0:0:0:0:
72,180,53476,2,0,L|63:130,3,50,0|0|0|0,3:0|0:0|0:0|0:0,0:0:0:0:
125,69,53806,6,0,P|173:64|213:93,1,100,2|0,3:2|0:0,0:0:0:0:
281,204,54136,1,0,3:0:0:0:
304,210,54218,1,0,0:0:0:0:
329,208,54300,1,0,0:0:0:0:
352,197,54383,1,0,0:0:0:0:
369,178,54465,2,0,P|378:155|397:138,3,50,8|0|0|0,3:2|0:0|0:0|0:0,0:0:0:0:
480,164,54795,2,0,L|497:262,1,100,0|0,3:0|0:0,0:0:0:0:
322,382,55125,6,0,P|350:342|346:293,1,100,2|0,3:2|0:0,0:0:0:0:
252,209,55454,1,0,3:0:0:0:
226,213,55537,1,0,0:0:0:0:
203,207,55619,1,0,0:0:0:0:
181,192,55702,1,0,0:0:0:0:
168,172,55784,1,8,3:2:0:0:
260,78,55949,1,0,0:0:0:0:
99,0,56114,5,0,0:0:0:0:
101,13,56196,1,0,0:0:0:0:
103,25,56278,1,0,0:0:0:0:
105,37,56361,1,0,0:0:0:0:
107,50,56443,6,0,L|115:99,2,50,0|0|8,0:0|0:0|3:1,0:0:0:0:
202,140,56938,6,0,L|211:91,1,50,0|0,0:0|3:0,0:0:0:0:
228,3,57267,1,8,3:0:0:0:
429,64,57432,2,0,L|424:39,1,25,0|0,3:0|0:0,0:0:0:0:
346,83,57597,2,0,L|341:58,1,25,0|0,3:0|0:0,0:0:0:0:
512,45,57762,5,2,3:2:0:0:
476,268,57927,2,0,L|473:280,3,12.5,0|0|0|0,3:0|0:0|0:0|0:0,0:0:0:0:
490,181,58092,1,8,3:1:0:0:
374,365,58257,2,0,L|369:340,1,25
283,233,58421,5,8,3:0:0:0:
288,264,58504,1,8,3:0:0:0:
294,296,58586,1,8,3:0:0:0:
147,344,58751,2,0,L|156:295,1,50,8|0,3:0|0:0,0:0:0:0:
178,184,59081,6,0,L|173:209,1,25,2|0,3:2|0:0,0:0:0:0:
156,294,59246,1,0,0:0:0:0:
94,167,59410,6,0,L|89:192,1,25,8|0,3:1|0:0,0:0:0:0:
72,277,59575,1,0,0:0:0:0:
30,107,59740,5,0,3:0:0:0:
224,68,59905,2,0,L|233:117,1,50,8|0,3:0|3:0,0:0:0:0:
233,117,60235,1,0,3:0:0:0:
147,343,60399,6,0,L|156:294,1,50,2|0,3:2|3:0,0:0:0:0:
246,384,60729,2,0,L|237:335,1,50,8|0,3:1|0:0,0:0:0:0:
449,167,61059,5,8,3:0:0:0:
444,198,61141,1,8,3:0:0:0:
438,230,61224,1,0,3:0:0:0:
370,115,61388,5,8,3:0:0:0:
365,146,61471,1,8,3:0:0:0:
359,178,61553,1,8,3:0:0:0:
354,209,61636,1,8,3:0:0:0:
348,241,61718,6,0,L|345:253,12,12.5,4|0|0|0|0|0|0|0|8|0|0|0|0,3:2|0:0|0:0|0:0|0:0|0:0|0:0|0:0|3:1|0:0|0:0|0:0|0:0,0:0:0:0:
327,344,62377,1,0,3:0:0:0:
233,117,62542,6,0,L|238:142,1,25,8|0,3:0|0:0,0:0:0:0:
258,226,62707,1,0,3:0:0:0:
170,248,62872,1,0,3:0:0:0:
147,48,63037,6,0,L|138:97,1,50,2|0,3:2|3:0,0:0:0:0:
235,56,63366,5,8,3:1:0:0:
230,87,63449,1,8,3:0:0:0:
224,119,63531,1,0,3:0:0:0:
387,200,63696,5,8,3:0:0:0:
365,90,63861,2,0,L|370:115,1,25,0|8,0:0|3:0,0:0:0:0:
403,284,64026,2,0,L|413:334,1,50,8|8,3:0|3:0,0:0:0:0:
191,352,64355,6,0,L|188:368,3,16.6666666666667,2|0|0|0,3:2|0:0|0:0|0:0,0:0:0:0:
208,266,64685,5,8,3:1:0:0:
210,250,64767,1,0,0:0:0:0:
216,216,64850,1,0,0:0:0:0:
218,200,64932,1,8,3:0:0:0:
224,166,65015,6,0,L|233:117,1,50,0|8,3:0|3:0,0:0:0:0:
90,250,65344,2,0,L|81:201,1,50,0|0,3:0|0:0,0:0:0:0:
105,336,65674,5,0,3:0:0:0:
105,336,65839,1,0,0:0:0:0:
66,115,66004,2,0,L|57:66,1,50,8|0,3:1|0:0,0:0:0:0:
295,278,66333,5,8,3:0:0:0:
300,247,66416,1,0,0:0:0:0:
306,215,66498,1,0,3:0:0:0:
374,330,66663,5,8,3:0:0:0:
379,299,66746,1,8,3:0:0:0:
385,267,66828,1,8,3:0:0:0:
390,236,66910,1,8,3:0:0:0:
396,204,66993,6,0,L|402:167,2,37.5,4|8|0,3:1|3:2|3:0,0:0:0:0:
491,143,67652,2,0,L|484:106,1,37.5,0|0,3:0|0:0,0:0:0:0:
404,123,67982,2,0,L|410:159,1,37.5
352,14,68311,6,0,P|370:9|385:0,2,37.5,2|8|0,3:2|3:2|3:0,0:0:0:0:
285,74,68971,2,0,P|275:57|261:45,1,37.5,0|0,3:0|0:0,0:0:0:0:
197,100,69300,2,0,P|203:118|220:128,1,37.5
66,137,69630,6,0,B|73:109|73:109|69:102,2,37.5,2|8|0,3:2|3:2|3:0,0:0:0:0:
133,199,70289,2,0,B|143:226|143:226|150:230,1,37.5,0|0,3:0|0:0,0:0:0:0:
75,297,70619,2,0,B|65:270|65:270|58:266,1,37.5
261,314,70949,5,2,3:2:0:0:
261,314,71114,1,0,3:0:0:0:
321,250,71278,1,0,0:0:0:0:
321,250,71443,1,0,3:0:0:0:
403,285,71608,2,0,P|406:266|413:249,1,37.5,0|0,3:0|0:0,0:0:0:0:
484,205,71938,2,0,P|480:186|473:169,1,37.5
376,8,72267,6,0,L|370:45,2,37.5,4|8|0,3:2|3:2|3:0,0:0:0:0:
302,100,72927,2,0,L|295:137,1,37.5,0|0,3:0|0:0,0:0:0:0:
389,165,73257,2,0,L|382:127,1,37.5
353,282,73586,6,0,P|371:277|386:267,2,37.5,2|8|0,3:2|3:2|3:0,0:0:0:0:
281,332,74246,2,0,P|264:323|252:309,1,37.5,0|0,3:0|0:0,0:0:0:0:
170,287,74575,2,0,P|169:268|174:250,1,37.5
126,117,74905,6,0,B|154:124|154:124|161:120,2,37.5,2|8|0,3:2|3:2|3:0,0:0:0:0:
47,162,75564,2,0,B|18:154|18:154|11:158,1,37.5,0|0,3:0|0:0,0:0:0:0:
27,243,75894,2,0,B|55:250|55:250|62:246,1,37.5
138,370,76224,6,0,P|155:336|158:299,1,75,2|0,3:2|0:0,0:0:0:0:
246,298,76883,2,0,P|259:319|281:332,1,50,0|0,3:0|0:0,0:0:0:0:
408,284,77542,6,0,P|420:226|461:184,1,119.999996337891,4|0,3:2|0:0,0:0:0:0:
461,184,78037,1,0,3:0:0:0:
332,108,78202,2,0,P|346:134|351:164,2,59.9999981689454,0|0|0,3:0|0:0|0:0,0:0:0:0:
215,27,78861,6,0,P|158:28|137:81,1,119.999996337891,2|0,3:2|0:0,0:0:0:0:
137,81,79355,1,0,3:0:0:0:
38,165,79520,2,0,P|60:146|55:118,2,59.9999981689454,0|0|0,3:0|0:0|0:0,0:0:0:0:
85,314,80180,6,0,B|162:328|117:345|191:363,1,119.999996337891,2|0,3:2|0:0,0:0:0:0:
191,363,80674,1,0,3:0:0:0:
286,258,80839,2,0,B|249:266|271:274|232:281,2,59.9999981689454,0|0|0,3:0|0:0|0:0,0:0:0:0:
432,312,81498,5,2,3:2:0:0:
419,320,81663,1,0,3:0:0:0:
394,217,81828,1,0,0:0:0:0:
422,226,81993,1,0,3:0:0:0:
483,162,82158,2,0,P|511:110|500:52,1,119.999996337891,0|0,3:0|0:0,0:0:0:0:
314,7,82817,6,0,B|296:3|296:3|281:57,2,75,4|8|0,3:2|3:2|3:0,0:0:0:0:
194,124,83476,2,0,B|218:118|218:118|237:191,1,100,0|0,3:0|0:0,0:0:0:0:
93,296,84136,6,0,B|37:279|37:279|51:271,2,75,2|8|0,3:2|3:2|3:0,0:0:0:0:
173,263,84795,2,0,B|247:285|247:285|227:294,1,100,0|0,3:0|0:0,0:0:0:0:
400,286,85454,6,0,B|410:318|410:318|413:317|413:317|410:318|410:318|420:352,2,75,2|8|0,3:2|3:2|3:0,0:0:0:0:
362,164,86114,2,0,B|344:205|344:205|339:203|339:203|344:205|344:205|326:246,1,100,0|0,3:0|0:0,0:0:0:0:
169,130,86773,6,0,B|176:154|176:154|200:148|200:148|194:124,2,75,2|8|0,3:2|3:2|3:0,0:0:0:0:
266,17,87432,2,0,B|270:0|270:0|286:5|286:5|282:21,1,50,0|0,3:0|0:0,0:0:0:0:
345,77,87818,2,0,B|347:89|347:89|359:85|359:85|356:73,1,37.9999995361328
256,192,88352,12,0,89411,0:0:0:0:
