osu file format v14

[General]
AudioFilename: audio.mp3
AudioLeadIn: 0
PreviewTime: -1
Countdown: 1
SampleSet: Soft
StackLeniency: 0.5
Mode: 0
LetterboxInBreaks: 0
WidescreenStoryboard: 1

[Editor]
Bookmarks: 24646
DistanceSpacing: 0.9
BeatDivisor: 4
GridSize: 16
TimelineZoom: 1.6

[Metadata]
Title:Rightfully (TV Sized)
TitleUnicode:Rightfully (TV Sized)
Artist:Mili
ArtistUnicode:Mili
Creator:mitch_-
Version:Normal
Source:
Tags:
BeatmapID:1814845
BeatmapSetID:868183

[Difficulty]
HPDrainRate:4
CircleSize:3.5
OverallDifficulty:4
ApproachRate:4
SliderMultiplier:1.1
SliderTickRate:1

[Events]
//Background and Video events
0,0,"ezgif-1-f989b413fed8.png",0,0
//Break Periods
//Storyboard Layer 0 (Background)
//Storyboard Layer 1 (Fail)
//Storyboard Layer 2 (Pass)
//Storyboard Layer 3 (Foreground)
//Storyboard Sound Samples

[TimingPoints]
21350,329.67032967033,4,2,0,60,1,0
32558,-111.111111111111,4,2,0,100,0,0
33218,-100,4,2,0,100,0,0
33877,-111.111111111111,4,2,0,100,0,0
34371,-100,4,2,0,100,0,0
35855,-111.111111111111,4,2,0,100,0,0
37174,-100,4,2,0,100,0,0
37833,-111.111111111111,4,2,0,100,0,0
38492,-100,4,2,0,100,0,0
39152,-111.111111111111,4,2,0,100,0,0
39811,-100,4,2,0,100,0,0
42448,-90.9090909090909,4,2,0,100,0,0
55635,-90.9090909090909,4,2,0,100,0,1
66185,-100,4,2,0,100,0,0

[HitObjects]
165,65,21349,6,0,L|144:187,1,110
353,98,22339,1,0,0:0:0:0:
449,150,22668,2,0,L|470:272,1,110
255,314,23657,1,0,0:0:0:0:
150,276,23987,6,0,P|105:210|103:173,1,110
106,71,24646,2,0,P|179:38|261:52,1,165
285,101,25306,2,0,L|299:225,1,110
133,71,26624,6,0,P|116:185|143:294,1,220
359,290,27943,6,0,P|382:183|365:75,1,220
171,179,29262,2,0,P|167:274|276:309,1,220
367,258,30251,1,0,0:0:0:0:
411,157,30580,2,0,P|407:85|369:50,1,110
274,41,31240,2,0,B|207:35|207:35|144:61,1,110
162,161,31899,6,0,L|172:273,1,110
263,329,32558,2,0,P|359:334|376:290,1,148.49999546814
389,245,33218,6,0,L|398:135,1,110
294,72,33877,2,0,P|198:67|181:122,1,148.49999546814
173,156,34536,1,0,0:0:0:0:
357,77,35855,6,0,P|398:121|379:267,1,197.99999395752
171,246,37174,6,0,L|151:137,1,110
182,43,37833,2,0,P|257:13|323:57,1,148.49999546814
331,94,38492,6,0,L|350:202,1,110
354,301,39152,2,0,P|293:354|216:336,1,148.49999546814
187,313,39811,6,0,L|108:226,1,110
145,74,42448,6,0,B|208:53|208:53|274:73,1,121.000003692627
305,100,42943,1,0,0:0:0:0:
341,140,43108,2,0,B|362:203,1,60.5000018463135
348,250,43437,1,0,0:0:0:0:
348,250,43602,1,0,0:0:0:0:
302,279,43767,6,0,B|239:300|239:300|173:280,1,121.000003692627
218,179,44426,2,0,B|155:158|155:158|89:178,1,121.000003692627
102,283,45086,6,0,P|125:347|185:368,1,121.000003692627
223,355,45580,1,0,0:0:0:0:
223,355,45745,2,0,L|294:344,1,60.5000018463135
301,294,46075,2,0,L|364:299,1,60.5000018463135
453,233,46404,2,0,P|471:155|453:96,1,121.000003692627
362,71,47064,2,0,P|297:47|227:68,1,121.000003692627
155,113,47723,6,0,P|149:194|158:259,1,121.000003692627
170,285,48218,1,0,0:0:0:0:
170,285,48382,2,0,P|236:305|296:287,1,121.000003692627
369,223,49042,6,0,P|374:150|365:87,1,121.000003692627
277,42,49701,2,0,P|194:12|143:26,1,121.000003692627
133,121,50360,6,0,P|88:250|98:355,1,242.000007385254
206,357,51350,1,0,0:0:0:0:
310,328,51679,2,0,P|351:197|340:93,1,242.000007385254
237,58,52668,1,0,0:0:0:0:
137,88,52998,6,0,P|210:176|236:185,1,121.000003692627
317,147,53657,2,0,P|388:196|410:224,1,121.000003692627
355,318,54317,2,0,P|278:346|215:346,1,121.000003692627
158,275,54976,2,0,L|142:144,1,121.000003692627
139,100,55470,1,0,0:0:0:0:
139,100,55635,6,0,P|242:59|374:78,1,242.000007385254
439,159,56624,1,0,0:0:0:0:
409,263,56954,6,0,P|277:301|268:300,1,121.000003692627
184,277,57613,1,0,0:0:0:0:
153,172,57943,1,0,0:0:0:0:
223,88,58273,6,0,P|142:59|54:174,1,242.000007385254
105,260,59262,1,0,0:0:0:0:
190,327,59591,2,0,P|273:336|330:324,1,121.000003692627
391,258,60251,2,0,P|405:175|400:125,1,121.000003692627
326,60,60910,6,0,P|183:102|128:194,1,242.000007385254
122,282,61899,1,0,0:0:0:0:
122,282,62064,1,0,0:0:0:0:
122,282,62229,2,0,P|155:345|210:356,1,121.000003692627
253,351,62723,1,0,0:0:0:0:
253,351,62888,2,0,L|381:337,1,121.000003692627
449,260,63547,6,0,P|408:141|333:40,1,242.000007385254
232,63,64536,1,0,0:0:0:0:
132,107,64866,2,0,B|143:180|143:180|191:208,1,121.000003692627
265,132,65525,2,0,B|305:155|305:155|316:228,1,121.000003692627
380,304,66185,6,0,L|408:216,2,82.5
344,338,66844,2,0,L|218:342,1,110
198,248,67503,6,0,B|246:245|246:245|285:211,2,82.5
148,250,68163,2,0,L|99:129,1,110
195,103,68822,6,0,B|177:63|177:63|134:42,2,82.5
214,148,69481,2,0,P|261:202|318:203,1,110
392,232,70141,2,0,P|368:272|355:288,1,55
322,307,70470,2,0,P|282:325|262:326,1,55
221,326,70800,1,0,0:0:0:0:
125,298,71130,1,0,0:0:0:0:
102,201,71459,6,0,L|74:102,2,82.5
150,213,72119,2,0,P|205:235|261:233,1,110
339,182,72778,6,0,L|362:76,2,82.5
366,223,73437,2,0,P|379:294|348:345,1,110
264,326,74097,6,0,L|166:367,2,82.5
274,277,74756,2,0,P|254:211|203:180,1,110
183,96,75415,2,0,P|109:182|177:266,1,220
316,140,76734,6,0,P|320:83|314:51,2,82.5
302,187,77393,2,0,B|239:191|239:191|196:227,1,110
283,279,78053,6,0,P|356:270|376:256,2,82.5
247,314,78712,2,0,B|181:330|181:330|133:296,1,110
103,216,79371,2,0,P|64:247|55:293,2,82.5
150,201,80031,2,0,B|208:173|208:173|223:119,1,110
294,63,80690,6,0,P|328:57|352:60,1,55
382,95,81020,2,0,P|409:133|415:158,1,55
411,190,81350,2,0,P|404:259|369:294,1,110
281,308,82009,6,0,L|277:205,2,82.5
241,338,82668,2,0,L|125:342,1,110
104,245,83328,6,0,L|203:242,2,82.5
71,207,83987,2,0,L|67:93,1,110
163,75,84646,2,0,L|166:167,2,82.5
199,41,85306,2,0,P|276:37|315:56,1,110
345,78,85800,1,0,0:0:0:0:
345,78,85965,6,0,P|393:185|372:284,1,220
