osu file format v14

[General]
AudioFilename: audio.mp3
AudioLeadIn: 0
PreviewTime: 56361
Countdown: 0
SampleSet: Soft
StackLeniency: 0.5
Mode: 0
LetterboxInBreaks: 0
WidescreenStoryboard: 0

[Editor]
Bookmarks: 22142,87434
DistanceSpacing: 1.1
BeatDivisor: 4
GridSize: 32
TimelineZoom: 2

[Metadata]
Title:Rightfully (TV Size)
TitleUnicode:Rightfully (TV Size)
Artist:Mili
ArtistUnicode:Mili
Creator:Tsumugi-chan
Version:Melwoine's Extra
Source:ゴブリンスレイヤー
Tags:Goblin Slayer OP anime breakcore electronic enerugi p4ndemonium pandemonium melwoine wenect wenet tech milli miili english
BeatmapID:2232873
BeatmapSetID:866335

[Difficulty]
HPDrainRate:5
CircleSize:3
OverallDifficulty:8.7
ApproachRate:9.2
SliderMultiplier:1.8
SliderTickRate:1

[Events]
//Background and Video events
0,0,"hz55s4hm1fb21.jpg",0,0
//Break Periods
//Storyboard Layer 0 (Background)
//Storyboard Layer 1 (Fail)
//Storyboard Layer 2 (Pass)
//Storyboard Layer 3 (Foreground)
//Storyboard Layer 4 (Overlay)
//Storyboard Sound Samples

[TimingPoints]
19347,349.854227405248,4,2,2,40,1,0
22145,-100,4,2,2,40,0,0
22845,-84.0336134453781,4,2,2,25,0,0
23138,333.333333333333,4,2,2,40,1,8
23475,317.460317460317,4,2,2,40,1,0
23795,333.333333333333,4,2,2,40,1,8
24782,350.877192982456,4,2,2,40,1,0
25136,329.67032967033,4,2,2,40,1,8
25459,357.142857142857,4,2,2,40,1,8
25822,291.26213592233,4,2,2,40,1,8
26113,320.855614973262,4,2,2,40,1,0
26428,329.67032967033,4,2,2,40,1,8
27429,329.67032967033,4,2,2,40,1,0
27429,-125,4,2,2,40,0,0
30055,329.67032967033,4,2,2,40,1,0
30055,-125,4,2,2,40,0,0
32033,-100,4,2,2,40,0,0
32692,-83.3333333333333,4,2,2,40,0,0
36648,329.67032967033,4,2,2,25,1,8
36653,329.67032967033,4,2,2,30,1,0
36653,-166.666666666667,4,2,2,40,0,0
37971,329.67032967033,4,2,2,30,1,8
38012,329.67032967033,4,2,2,40,1,0
38012,-100,4,2,2,40,0,0
39291,329.67032967033,4,2,2,30,1,0
42587,-100,4,2,2,20,0,0
42752,-100,4,2,2,30,0,0
42917,-100,4,2,2,40,0,0
43082,-100,4,2,2,50,0,0
43247,329.67032967033,4,2,1,50,1,8
43257,329.67032967033,4,2,1,50,1,0
43257,-83.3333333333333,4,2,1,60,0,0
44246,-71.4285714285714,4,2,1,60,0,0
44575,-100,4,2,1,60,0,0
44905,-83.3333333333333,4,2,1,60,0,0
45235,-71.4285714285714,4,2,1,60,0,0
50180,-62.5,4,2,1,60,0,0
50839,-55.5555555555556,4,2,1,60,0,0
51169,-71.4285714285714,4,2,1,60,0,0
56443,-62.5,4,2,1,60,0,0
66993,-76.9230769230769,4,2,1,60,0,0
68311,-100,4,2,1,60,0,0
87621,444.444444444444,4,2,1,50,1,8
87818,357.142857142857,4,2,1,30,1,8
87818,-100,4,2,1,30,0,0
88176,352.941176470588,4,2,1,20,1,0
89587,-100,4,2,1,5,0,0

[Colours]
Combo1 : 128,64,64
Combo2 : 210,210,210
Combo3 : 255,94,94
Combo4 : 176,184,152

[HitObjects]
467,254,22145,6,0,P|414:252|347:232,1,90,2|0,3:2|0:0,0:0:0:0:
276,261,22495,2,0,P|303:296|337:325,1,90,8|0,3:2|0:0,0:0:0:0:
179,308,22845,2,0,P|172:263|228:141,1,180
146,5,23475,6,0,P|104:29|45:53,1,90,2|0,3:2|0:0,0:0:0:0:
0,0,23795,1,0,3:0:0:0:
284,70,24128,1,0,0:0:0:0:
278,45,24461,1,0,0:0:0:0:
13,293,24782,6,0,P|29:255|50:178,1,90,2|0,3:2|0:0,0:0:0:0:
21,124,25136,1,0,0:0:0:0:
202,248,25459,2,0,P|178:214|116:157,1,90,8|0,3:2|0:0,0:0:0:0:
110,270,25822,1,0,0:0:0:0:
331,356,26113,5,2,3:2:0:0:
331,356,26273,1,0,0:0:0:0:
407,304,26428,1,0,3:0:0:0:
407,304,26592,1,0,0:0:0:0:
349,237,26757,1,0,0:0:0:0:
374,158,26922,1,0,0:0:0:0:
436,91,27087,1,0,0:0:0:0:
410,6,27252,1,0,0:0:0:0:
385,167,27429,6,0,P|320:130|318:-8,1,216,0|0,3:2|0:0,0:0:0:0:
402,61,28088,1,8,3:2:0:0:
414,69,28253,2,0,L|250:88,1,144
153,188,28747,6,0,P|167:256|229:287,1,144,2|0,3:2|3:0,0:0:0:0:
160,366,29407,2,0,L|76:386,1,72
503,113,30055,6,0,B|361:43|358:202|220:192,1,288,2|8,3:2|3:2,0:0:0:0:
259,103,31044,2,0,P|297:117|358:130,1,72
148,197,31373,2,0,P|143:234|123:295,1,72,2|0,3:2|0:0,0:0:0:0:
20,284,31703,2,0,P|25:253|37:214,1,72,0|8,3:0|0:0,0:0:0:0:
167,79,32033,6,0,L|67:56,1,90
242,309,32362,2,0,L|251:221,1,90
512,28,32692,6,0,P|463:67|452:141,1,107.999996704102,4|0,3:2|0:0,3:0:0:0:
512,285,33022,2,0,P|448:273|406:222,1,107.999996704102,8|0,3:2|0:0,0:0:0:0:
162,88,33351,2,0,P|250:66|347:136,1,215.999993408203
164,207,33846,1,0,0:0:0:0:
153,216,33928,1,0,0:0:0:0:
141,229,34011,6,0,P|114:291|102:338,1,107.999996704102,2|0,3:2|0:0,0:0:0:0:
318,384,34340,2,0,P|280:345|249:301,1,107.999996704102,0|0,3:0|0:0,0:0:0:0:
0,63,34670,2,0,P|74:96|208:48,1,215.999993408203
303,117,35082,1,0,0:0:0:0:
292,128,35164,1,0,0:0:0:0:
286,143,35247,1,0,0:0:0:0:
282,158,35329,5,2,3:2:0:0:
95,365,36653,6,0,P|102:328|87:152,1,215.999993408203
305,61,37806,2,0,P|305:82|306:107,1,26.9999991760254
301,98,38012,6,0,P|249:92|197:81,1,90
362,191,38341,2,0,P|398:217|437:240,1,90
266,261,38671,1,0,0:0:0:0:
250,293,39001,1,0,0:0:0:0:
12,91,39291,6,0,P|50:120|123:134,1,90,2|0,3:2|0:0,0:0:0:0:
131,220,39620,2,0,P|90:248|26:261,1,90,0|0,3:0|0:0,0:0:0:0:
171,52,39950,2,0,L|187:165,1,90
264,194,40280,1,0,0:0:0:0:
486,247,40609,6,0,L|380:222,1,90,2|0,3:2|0:0,0:0:0:0:
386,216,40856,1,0,0:0:0:0:
378,207,40939,1,0,0:0:0:0:
21,355,42587,6,0,L|81:339,1,45
14,307,42752,2,0,L|75:317,1,45
170,350,42917,1,0,0:0:0:0:
195,337,42999,1,0,0:0:0:0:
221,297,43082,1,0,0:0:0:0:
219,249,43164,1,0,0:0:0:0:
185,205,43257,6,0,L|89:202,1,53.9999983520508,4|0,3:2|0:0,0:0:0:0:
65,56,43421,1,0,0:0:0:0:
68,78,43504,1,0,0:0:0:0:
74,101,43586,2,0,L|158:97,1,53.9999983520508,0|0,3:0|0:0,0:0:0:0:
327,22,43751,5,0,0:0:0:0:
308,78,43833,1,0,0:0:0:0:
337,132,43916,1,8,3:2:0:0:
401,167,43998,1,0,0:0:0:0:
441,218,44081,1,0,0:0:0:0:
447,284,44163,1,0,0:0:0:0:
422,336,44246,2,0,P|384:342|340:347,1,62.9999980773926,0|0,3:0|0:0,0:0:0:0:
313,234,44410,2,0,P|307:204|307:171,1,62.9999980773926
225,374,44575,6,0,P|187:346|166:242,1,135,2|0,3:2|0:0,0:0:0:0:
39,250,44905,2,0,P|93:219|86:110,1,161.999995056153,0|0,3:0|0:0,0:0:0:0:
151,6,45235,2,0,P|172:65|196:92,1,62.9999980773926,8|0,3:2|0:0,0:0:0:0:
324,77,45399,1,0,0:0:0:0:
337,66,45482,1,0,0:0:0:0:
352,57,45564,2,0,P|429:87|453:177,1,125.999996154785,0|0,3:0|0:0,0:0:0:0:
432,319,45811,1,0,0:0:0:0:
390,349,45894,6,0,P|314:307|305:172,1,188.999994232178,2|0,3:2|0:0,0:0:0:0:
260,197,46224,2,0,P|221:203|168:211,1,62.9999980773926,0|0,3:0|0:0,0:0:0:0:
40,226,46388,1,0,0:0:0:0:
70,217,46471,1,0,0:0:0:0:
96,200,46553,2,0,P|102:168|96:121,1,62.9999980773926,8|0,3:2|0:0,0:0:0:0:
10,17,46718,2,0,P|8:48|14:79,1,62.9999980773926
213,43,46883,1,0,3:0:0:0:
72,335,47048,1,0,0:0:0:0:
371,383,47213,6,0,L|328:234,1,125.999996154785,2|0,3:2|0:0,0:0:0:0:
258,341,47542,1,0,3:0:0:0:
483,170,47872,1,0,0:0:0:0:
447,164,47954,1,0,0:0:0:0:
413,160,48037,1,0,0:0:0:0:
379,156,48119,1,0,0:0:0:0:
346,151,48202,2,0,P|337:78|441:24,1,188.999994232178,8|0,0:0|0:0,0:0:0:0:
471,0,48531,6,0,P|463:37|457:87,1,62.9999980773926,4|0,3:2|0:0,0:0:0:0:
470,282,48696,1,0,0:0:0:0:
476,292,48778,1,0,0:0:0:0:
485,301,48861,2,0,P|437:289|400:285,1,62.9999980773926,0|0,3:0|0:0,0:0:0:0:
160,223,49026,1,0,0:0:0:0:
199,222,49108,1,0,0:0:0:0:
249,225,49191,2,0,P|266:258|260:368,1,125.999996154785,8|0,3:2|0:0,0:0:0:0:
161,120,49438,1,0,0:0:0:0:
154,83,49520,2,0,P|154:55|173:0,1,62.9999980773926,0|0,3:0|0:0,0:0:0:0:
0,79,49685,2,0,L|76:64,1,62.9999980773926
297,129,49850,6,0,P|353:126|434:97,1,125.999996154785,2|0,3:2|0:0,0:0:0:0:
420,239,50097,1,0,0:0:0:0:
390,251,50180,2,0,P|362:296|263:335,1,144,0|0,3:0|0:0,0:0:0:0:
71,368,50427,1,0,0:0:0:0:
131,310,50509,2,0,P|187:313|272:347,1,144,8|0,3:2|0:0,0:0:0:0:
0,162,50757,1,0,0:0:0:0:
68,227,50839,2,0,P|124:224|224:169,1,161.999995056153,0|0,3:0|0:0,0:0:0:0:
311,125,51086,1,0,0:0:0:0:
284,108,51169,6,0,P|277:83|377:25,1,125.999996154785,2|0,3:2|0:0,0:0:0:0:
512,299,51498,1,0,3:0:0:0:
479,299,51581,1,0,0:0:0:0:
444,312,51663,1,0,0:0:0:0:
426,338,51746,1,0,0:0:0:0:
420,371,51828,2,0,P|332:344|314:269,1,125.999996154785,8|0,3:2|0:0,0:0:0:0:
151,274,52075,1,0,0:0:0:0:
182,266,52158,2,0,L|274:244,1,62.9999980773926,0|0,3:0|0:0,0:0:0:0:
391,166,52322,1,0,0:0:0:0:
386,136,52405,1,0,0:0:0:0:
385,98,52487,6,0,P|462:137|468:222,1,125.999996154785,2|0,3:2|0:0,0:0:0:0:
263,56,52735,1,0,0:0:0:0:
243,1,52817,2,0,P|155:34|119:150,1,188.999994232178,0|0,3:0|0:0,0:0:0:0:
11,193,53147,1,8,3:2:0:0:
57,204,53229,1,0,0:0:0:0:
80,249,53311,1,0,0:0:0:0:
79,289,53394,1,0,0:0:0:0:
102,323,53476,2,0,L|187:333,1,62.9999980773926,0|0,3:0|0:0,0:0:0:0:
309,264,53641,1,0,0:0:0:0:
290,276,53724,1,0,0:0:0:0:
281,293,53806,6,0,L|270:374,1,62.9999980773926,2|0,3:2|0:0,0:0:0:0:
355,187,53971,1,0,0:0:0:0:
332,170,54053,1,0,0:0:0:0:
314,139,54136,2,0,P|306:74|310:8,1,125.999996154785,0|0,3:0|0:0,0:0:0:0:
485,142,54383,1,0,0:0:0:0:
512,161,54465,2,0,P|509:195|487:258,1,62.9999980773926,8|0,3:2|0:0,0:0:0:0:
430,384,54630,1,0,0:0:0:0:
453,362,54713,1,0,0:0:0:0:
494,352,54795,2,0,P|408:343|327:324,1,125.999996154785,0|0,3:0|0:0,0:0:0:0:
127,136,55125,5,2,3:2:0:0:
178,99,55207,1,0,0:0:0:0:
241,98,55289,1,0,0:0:0:0:
294,136,55372,1,0,0:0:0:0:
319,196,55454,1,0,3:0:0:0:
363,247,55537,1,0,0:0:0:0:
423,260,55619,1,0,0:0:0:0:
477,244,55702,1,0,0:0:0:0:
511,201,55784,6,0,L|499:95,1,62.9999980773926,8|0,3:2|0:0,0:0:0:0:
296,8,55949,2,0,P|315:30|372:74,1,62.9999980773926
467,24,56114,1,0,0:0:0:0:
467,24,56196,1,0,0:0:0:0:
467,24,56278,1,0,0:0:0:0:
467,24,56361,1,0,0:0:0:0:
467,24,56443,6,0,B|443:108|360:99|377:223,1,216
342,347,56773,2,0,P|412:339|479:366,1,144,8|0,3:1|0:0,0:0:0:0:
209,228,57020,1,8,3:0:0:0:
225,310,57103,2,0,P|219:345|212:380,1,72,0|0,3:0|0:0,0:0:0:0:
130,355,57267,1,8,3:0:0:0:
291,252,57432,1,0,3:0:0:0:
142,129,57597,1,0,3:0:0:0:
463,179,57762,6,0,P|412:193|358:233,1,72,2|0,3:2|0:0,0:0:0:0:
368,315,57927,2,0,P|354:366|362:432,1,72,0|0,3:0|0:0,0:0:0:0:
447,341,58092,2,0,P|369:355|261:367,1,144,8|0,3:1|0:0,0:0:0:0:
0,275,58421,1,8,3:0:0:0:
60,295,58504,1,8,3:0:0:0:
68,229,58586,2,0,P|67:191|63:137,1,72,8|0,3:0|0:0,0:0:0:0:
149,273,58751,2,0,P|228:169|185:61,1,216,8|0,3:0|0:0,0:0:0:0:
214,57,59081,2,0,P|174:76|129:82,1,72,2|0,3:2|0:0,0:0:0:0:
67,37,59246,1,0,0:0:0:0:
376,0,59410,2,0,P|371:36|339:119,1,72,8|0,3:1|0:0,0:0:0:0:
310,198,59575,1,0,0:0:0:0:
490,104,59740,6,0,P|478:141|475:216,1,72,0|0,3:0|0:0,0:0:0:0:
512,271,59905,1,8,3:0:0:0:
258,310,60070,2,0,L|337:293,1,72,0|0,3:0|0:3,0:3:0:0:
404,235,60235,1,0,3:0:0:0:
278,118,60399,5,2,3:2:0:0:
355,384,60564,1,0,3:0:0:0:
213,228,60729,1,8,3:1:0:0:
405,88,60894,1,0,0:0:0:0:
220,138,61059,1,8,3:0:0:0:
251,121,61141,1,8,3:0:0:0:
278,118,61224,2,0,P|245:103|187:108,1,72,0|0,3:0|0:0,0:0:0:0:
115,177,61388,1,8,3:0:0:0:
36,150,61471,1,8,3:0:0:0:
3,72,61553,2,0,L|96:58,1,72,8|8,3:0|3:0,0:0:0:0:
134,203,61718,6,0,P|86:270|0:316,1,144,4|0,3:2|0:0,0:0:0:0:
283,341,62048,2,0,P|346:351|462:388,1,144,8|0,3:1|0:0,0:0:0:0:
500,241,62377,1,0,3:0:0:0:
384,314,62542,1,8,3:0:0:0:
326,86,62707,2,0,P|345:114|407:166,1,72,0|0,3:0|0:0,0:0:0:0:
485,273,62872,2,0,P|473:239|467:203,1,72,0|0,3:0|0:0,0:0:0:0:
485,60,63037,5,2,3:2:0:0:
355,225,63202,1,0,3:0:0:0:
206,46,63366,1,8,3:1:0:0:
248,124,63449,2,0,P|257:189|260:244,1,72,8|0,3:0|3:0,0:0:0:0:
148,270,63614,1,0,3:0:0:0:
204,270,63696,2,0,P|235:284|316:367,1,144,8|0,3:0|0:0,0:0:0:0:
462,365,63943,1,8,3:0:0:0:
389,326,64026,1,8,3:0:0:0:
185,377,64191,1,8,3:0:0:0:
4,93,64355,6,0,B|150:37|150:179|282:202,1,288,2|8,3:2|3:1,0:0:0:0:
310,169,64767,1,0,0:0:0:0:
317,88,64850,2,0,L|324:-22,1,72,0|8,0:0|3:0,0:0:0:0:
477,215,65015,2,0,P|443:207|405:215,1,72,0|0,3:0|0:0,0:0:0:0:
312,360,65180,2,0,L|308:264,1,72,8|0,3:0|0:0,0:0:0:0:
407,129,65344,1,0,3:0:0:0:
197,276,65509,1,0,3:0:0:0:
416,317,65674,5,0,3:0:0:0:
182,106,65839,1,0,0:0:0:0:
81,329,66004,2,0,P|97:244|112:151,1,144,8|0,3:1|0:0,0:0:0:0:
198,15,66333,1,8,3:0:0:0:
17,130,66498,1,0,3:0:0:0:
225,200,66663,1,8,3:0:0:0:
280,193,66746,1,8,3:0:0:0:
320,163,66828,1,8,3:0:0:0:
346,114,66910,1,8,3:0:0:0:
352,68,66993,6,0,P|359:106|409:195,1,116.999994644165,4|0,3:1|0:0,0:0:0:0:
424,182,67240,1,8,3:2:0:0:
313,343,67487,1,0,3:0:0:0:
313,343,67652,2,0,P|367:337|441:323,1,116.999994644165,0|0,3:0|0:0,0:0:0:0:
216,294,67982,2,0,P|159:305|101:312,1,116.999994644165
0,119,68311,6,0,P|17:143|75:194,1,90,2|0,3:2|3:0,0:0:0:0:
100,195,68559,2,0,P|74:125|73:40,1,135,8|0,3:2|3:0,0:0:0:0:
133,1,68971,1,0,3:0:0:0:
157,28,69300,1,0,0:0:0:0:
401,183,69630,6,0,P|350:157|293:133,1,90,2|0,3:2|0:0,0:0:0:0:
267,74,69877,2,0,L|251:14,2,45,8|0|0,3:2|0:0|0:0,0:0:0:0:
231,160,70125,1,0,3:0:0:0:
358,64,70289,2,0,P|400:57|480:59,1,90,0|0,3:0|0:0,0:0:0:0:
512,161,70619,2,0,P|468:150|403:143,1,90
323,357,70949,5,2,3:2:0:0:
291,211,71114,1,0,3:0:0:0:
398,289,71278,1,0,0:0:0:0:
185,380,71443,1,0,3:0:0:0:
85,228,71608,2,0,P|130:243|214:305,1,135,0|0,3:0|0:0,0:0:0:0:
228,291,71938,2,0,P|214:245|206:195,1,90
221,37,72267,6,0,P|195:68|143:102,1,90,4|0,3:2|0:0,0:0:0:0:
121,90,72515,1,8,3:2:0:0:
104,84,72597,1,0,0:0:0:0:
306,1,72762,1,0,3:0:0:0:
382,203,72927,2,0,P|361:140|355:65,1,135,0|0,3:0|0:0,0:0:0:0:
374,51,73257,2,0,P|400:97|433:137,1,90
485,325,73586,6,0,P|425:314|364:307,1,90,2|0,3:2|3:0,0:0:0:0:
363,327,73833,2,0,L|241:346,1,90,8|0,3:2|0:0,0:0:0:0:
237,321,74081,1,0,3:0:0:0:
79,384,74246,2,0,P|87:342|126:248,1,135,0|0,3:0|0:0,0:0:0:0:
155,209,74575,2,0,L|68:229,1,90
159,120,74905,6,0,P|232:133|269:150,1,90,2|0,3:2|0:0,0:0:0:0:
292,136,75152,2,0,L|228:57,1,90,8|0,3:2|0:0,0:0:0:0:
243,24,75399,1,0,3:0:0:0:
60,139,75564,2,0,P|27:104|-9:42,1,90,0|0,3:0|0:0,0:0:0:0:
243,227,75894,2,0,P|276:262|312:323,1,90
485,221,76224,6,0,P|405:240|296:408,1,270,2|0,3:2|3:0,0:0:0:0:
475,171,76883,2,0,P|442:254|419:341,1,180,0|0,3:0|0:0,0:0:0:0:
263,122,77542,6,0,P|312:120|381:109,1,90,4|0,3:2|0:0,0:0:0:0:
372,93,77789,2,0,P|344:61|309:18,1,90,8|0,3:2|0:0,0:0:0:0:
319,0,78037,1,0,3:0:0:0:
189,190,78202,2,0,L|51:233,1,135,0|0,3:0|0:0,0:0:0:0:
78,239,78531,2,0,P|119:251|166:278,1,90
136,58,78861,5,2,3:2:0:0:
18,152,79026,1,0,3:0:0:0:
18,152,79108,2,0,P|21:115|33:20,1,90,8|0,3:2|0:0,0:0:0:0:
7,33,79355,1,0,3:0:0:0:
200,166,79520,2,0,P|261:192|319:216,1,90,0|0,3:0|0:0,0:0:0:0:
422,295,79850,2,0,P|368:298|291:313,1,90
488,139,80180,6,0,P|451:174|402:207,1,90,2|0,3:2|0:0,0:0:0:0:
395,192,80427,2,0,P|401:142|399:78,1,90,8|0,3:2|0:0,0:0:0:0:
373,73,80674,1,0,3:0:0:0:
465,327,80839,2,0,P|409:315|304:299,1,135,0|0,3:0|0:0,0:0:0:0:
307,316,81169,2,0,P|273:351|248:386,1,90
98,353,81498,5,2,3:2:0:0:
171,277,81663,1,0,3:0:0:0:
10,332,81828,1,0,0:0:0:0:
250,349,81993,1,0,3:0:0:0:
145,138,82158,1,0,3:0:0:0:
98,353,82322,1,0,0:0:0:0:
14,132,82487,2,0,P|38:173|66:227,1,90
307,249,82817,6,0,P|262:228|210:194,1,90,4|0,3:2|0:0,0:0:0:0:
223,182,83064,1,8,3:2:0:0:
223,181,83147,1,0,0:0:0:0:
381,303,83311,1,0,3:0:0:0:
351,172,83476,2,0,P|357:126|400:22,1,135,0|0,3:0|0:0,0:0:0:0:
385,23,83806,2,0,P|348:46|298:60,1,90
487,131,84136,6,0,P|504:182|515:233,1,90,2|0,3:2|3:0,0:0:0:0:
501,238,84383,2,0,P|495:294|492:341,1,90,8|0,3:2|0:0,0:0:0:0:
480,345,84630,1,0,3:0:0:0:
283,296,84795,2,0,P|331:295|388:308,1,90,0|0,3:0|0:0,0:0:0:0:
210,237,85125,2,0,P|162:245|108:267,1,90
247,132,85454,6,0,P|248:88|248:1,1,90,2|0,3:2|0:0,0:0:0:0:
218,34,85702,2,0,P|177:57|125:79,1,90,8|0,3:2|0:0,0:0:0:0:
114,104,85949,1,0,3:0:0:0:
314,202,86114,2,0,P|336:158|357:87,1,90,0|0,3:0|0:0,0:0:0:0:
387,305,86443,2,0,L|444:414,1,90
306,350,86773,6,0,P|266:347|184:346,1,90,2|0,3:2|3:0,0:0:0:0:
183,365,87020,2,0,L|95:318,1,90,8|0,3:2|0:0,0:0:0:0:
64,337,87267,1,0,3:0:0:0:
195,186,87432,1,0,3:0:0:0:
96,227,87621,1,0,0:0:0:0:
199,81,87818,6,0,P|234:98|301:110,1,90
301,106,88352,1,0,0:0:0:0:
256,192,88440,12,0,89587,0:0:0:0:
