osu file format v14

[General]
AudioFilename: audio.mp3
AudioLeadIn: 0
PreviewTime: 56361
Countdown: 0
SampleSet: Soft
StackLeniency: 0.3
Mode: 0
LetterboxInBreaks: 0
WidescreenStoryboard: 0

[Editor]
Bookmarks: 22145
DistanceSpacing: 1
BeatDivisor: 4
GridSize: 4
TimelineZoom: 3.299999

[Metadata]
Title:Rightfully (TV Size)
TitleUnicode:Rightfully (TV Size)
Artist:Mili
ArtistUnicode:Mili
Creator:Tsumugi-chan
Version:Extra
Source:ゴブリンスレイヤー
Tags:Goblin Slayer OP anime breakcore electronic enerugi p4ndemonium pandemonium melwoine wenect wenet tech milli miili english
BeatmapID:2513120
BeatmapSetID:866335

[Difficulty]
HPDrainRate:7
CircleSize:4.4
OverallDifficulty:9
ApproachRate:9.3
SliderMultiplier:1.8
SliderTickRate:1

[Events]
//Background and Video events
0,0,"BG.jpg",0,0
//Break Periods
2,41139,42033
//Storyboard Layer 0 (Background)
//Storyboard Layer 1 (Fail)
//Storyboard Layer 2 (Pass)
//Storyboard Layer 3 (Foreground)
//Storyboard Layer 4 (Overlay)
//Storyboard Sound Samples

[TimingPoints]
19347,349.854227405248,4,2,2,25,1,0
22145,-58.8235294117647,4,2,2,25,0,0
22495,-200,4,2,2,25,0,0
22728,-100,4,2,2,25,0,0
23138,333.333333333333,4,2,2,25,1,8
23138,-142.857142857143,4,2,2,25,0,0
23249,-142.857142857143,4,2,2,5,0,0
23304,-142.857142857143,4,2,2,25,0,0
23415,-142.857142857143,4,2,2,5,0,0
23475,317.460317460317,4,2,2,25,1,0
23475,-62.5,4,2,2,25,0,0
23795,333.333333333333,4,2,2,25,1,8
23795,-200,4,2,2,25,0,0
24461,-142.857142857143,4,2,2,25,0,0
24572,-142.857142857143,4,2,2,5,0,0
24628,-142.857142857143,4,2,2,25,0,0
24739,-142.857142857143,4,2,2,5,0,0
24782,350.877192982456,4,2,2,25,1,0
24782,-71.4285714285714,4,2,2,25,0,0
25136,329.67032967033,4,2,2,25,1,8
25136,-90.9090909090909,4,2,2,25,0,0
25459,357.142857142857,4,2,2,25,1,8
25459,-200,4,2,2,25,0,0
25822,291.26213592233,4,2,2,25,1,8
25822,-90.9090909090909,4,2,2,25,0,0
26113,320.855614973262,4,2,2,30,1,0
26428,329.67032967033,4,2,2,20,1,8
26428,-100,4,2,2,25,0,0
26757,-100,4,2,2,25,0,0
27429,329.67032967033,4,2,2,50,1,0
27429,-125,4,2,2,25,0,0
28033,-125,4,2,2,5,0,0
28088,-200,4,2,2,25,0,0
30055,329.67032967033,4,2,2,25,1,0
30055,-111.111111111111,4,2,2,25,0,0
30604,-111.111111111111,4,2,2,5,0,0
30714,-153.846153846154,4,2,2,25,0,0
31318,-153.846153846154,4,2,2,5,0,0
31373,-133.333333333333,4,2,2,25,0,0
32692,-58.8235294117647,4,2,2,30,0,0
32967,-58.8235294117647,4,2,2,5,0,0
33022,-222.222222222222,4,2,2,30,0,0
33351,-125,4,2,2,30,0,0
33681,-125,4,2,2,30,0,0
34011,-58.8235294117647,4,2,2,30,0,0
34285,-58.8235294117647,4,2,2,5,0,0
34340,-222.222222222222,4,2,2,30,0,0
34670,-125,4,2,2,30,0,0
34725,-125,4,2,2,28,0,0
34780,-125,4,2,2,26,0,0
34835,-125,4,2,2,24,0,0
34890,-125,4,2,2,22,0,0
34945,-125,4,2,2,20,0,0
35000,-125,4,2,2,18,0,0
35082,-125,4,2,2,14,0,0
35164,-125,4,2,2,12,0,0
35247,-125,4,2,2,10,0,0
35329,-100,4,2,2,15,0,0
36648,329.67032967033,4,2,2,25,1,8
36653,329.67032967033,4,2,2,30,1,0
36653,-200,4,2,2,30,0,0
37312,-111.111111111111,4,2,2,25,0,0
37971,329.67032967033,4,2,2,30,1,8
38012,329.67032967033,4,2,2,40,1,0
38012,-76.9230769230769,4,2,2,40,0,0
38286,-76.9230769230769,4,2,2,5,0,0
38341,-166.666666666667,4,2,2,38,0,0
38671,-125,4,2,2,38,0,0
38726,-125,4,2,2,36,0,0
38781,-125,4,2,2,34,0,0
38836,-125,4,2,2,32,0,0
38891,-125,4,2,2,30,0,0
38946,-125,4,2,2,26,0,0
39001,-125,4,2,2,22,0,0
39291,329.67032967033,4,2,2,30,1,0
39291,-76.9230769230769,4,2,2,30,0,0
39565,-76.9230769230769,4,2,2,5,0,0
39620,-166.666666666667,4,2,2,30,0,0
39950,-125,4,2,2,30,0,0
40005,-125,4,2,2,28,0,0
40060,-125,4,2,2,26,0,0
40115,-125,4,2,2,24,0,0
40170,-125,4,2,2,22,0,0
40225,-125,4,2,2,20,0,0
40280,-125,4,2,2,18,0,0
40334,-125,4,2,2,16,0,0
40389,-125,4,2,2,14,0,0
40444,-125,4,2,2,12,0,0
40499,-125,4,2,2,10,0,0
40554,-125,4,2,2,8,0,0
40609,-100,4,2,2,20,0,0
40939,-100,4,2,2,15,0,0
42587,-100,4,2,2,22,0,0
42669,-100,4,2,2,26,0,0
42751,-100,4,2,2,30,0,0
42834,-100,4,2,2,34,0,0
42916,-100,4,2,2,38,0,0
42999,-100,4,2,2,42,0,0
43081,-100,4,2,2,46,0,0
43163,-100,4,2,2,48,0,0
43247,329.67032967033,4,2,1,50,1,8
43257,329.67032967033,4,2,1,50,1,0
43257,-83.3333333333333,4,2,1,50,0,0
43586,-83.3333333333333,4,2,1,50,0,0
43916,-83.3333333333333,4,2,1,50,0,0
44246,-83.3333333333333,4,2,1,50,0,0
44575,-83.3333333333333,4,2,1,50,0,0
44905,-83.3333333333333,4,2,1,50,0,0
44987,-83.3333333333333,4,2,1,55,0,0
45235,-83.3333333333333,4,2,1,50,0,0
45564,-83.3333333333333,4,2,1,50,0,0
45894,-83.3333333333333,4,2,1,50,0,0
46224,-83.3333333333333,4,2,1,50,0,0
46553,-83.3333333333333,4,2,1,50,0,0
46883,-83.3333333333333,4,2,1,50,0,0
47213,-83.3333333333333,4,2,1,50,0,0
47872,-83.3333333333333,4,2,1,55,0,0
48202,-250,4,2,1,50,0,0
48531,-62.5,4,2,1,50,0,0
48861,-83.3333333333333,4,2,1,50,0,0
49191,-83.3333333333333,4,2,1,50,0,0
49520,-83.3333333333333,4,2,1,50,0,0
49850,-83.3333333333333,4,2,1,50,0,0
50180,-83.3333333333333,4,2,1,50,0,0
50839,-83.3333333333333,4,2,1,50,0,0
51169,-83.3333333333333,4,2,1,50,0,0
51498,-83.3333333333333,4,2,1,50,0,0
51828,-83.3333333333333,4,2,1,50,0,0
52158,-62.5,4,2,1,50,0,0
52487,-83.3333333333333,4,2,1,50,0,0
52817,-83.3333333333333,4,2,1,50,0,0
53147,-83.3333333333333,4,2,1,50,0,0
53476,-83.3333333333333,4,2,1,50,0,0
53806,-83.3333333333333,4,2,1,50,0,0
54136,-83.3333333333333,4,2,1,50,0,0
54465,-83.3333333333333,4,2,1,50,0,0
54795,-83.3333333333333,4,2,1,50,0,0
55454,-83.3333333333333,4,2,1,50,0,0
55784,-83.3333333333333,4,2,1,50,0,0
56443,-58.8235294117647,4,2,1,75,0,1
56773,-71.4285714285714,4,2,1,75,0,1
57432,-71.4285714285714,4,2,1,75,0,1
58092,-58.8235294117647,4,2,1,75,0,1
58421,-71.4285714285714,4,2,1,75,0,1
58751,-66.6666666666667,4,2,1,75,0,1
59081,-66.6666666666667,4,2,1,75,0,1
60729,-58.8235294117647,4,2,1,75,0,1
61059,-66.6666666666667,4,2,1,75,0,1
62048,-66.6666666666667,4,2,1,75,0,1
64355,-50,4,2,1,75,0,1
64685,-55.5555555555556,4,2,1,75,0,1
65015,-83.3333333333333,4,2,1,75,0,1
65344,-55.5555555555556,4,2,1,75,0,1
65674,-50,4,2,1,75,0,1
66004,-55.5555555555556,4,2,1,75,0,1
66333,-83.3333333333333,4,2,1,75,0,1
66663,-83.3333333333333,4,2,1,75,0,1
66993,-111.111111111111,4,2,1,40,0,0
67240,-90.9090909090909,4,2,1,40,0,0
67652,-111.111111111111,4,2,1,40,0,0
67982,-100,4,2,1,40,0,0
68311,-111.111111111111,4,2,1,40,0,0
68559,-90.9090909090909,4,2,1,40,0,0
68971,-100,4,2,1,40,0,0
69301,-111.111111111111,4,2,1,40,0,0
69630,-125,4,2,1,40,0,0
69877,-83.3333333333333,4,2,1,40,0,0
70290,-125,4,2,1,40,0,0
70619,-83.3333333333333,4,2,1,40,0,0
70949,-111.111111111111,4,2,1,40,0,0
71608,-83.3333333333333,4,2,1,40,0,0
71938,-111.111111111111,4,2,1,40,0,0
72267,-125,4,2,1,40,0,0
72515,-83.3333333333333,4,2,1,40,0,0
72927,-83.3333333333333,4,2,1,40,0,0
73257,-125,4,2,1,40,0,0
73586,-125,4,2,1,40,0,0
73916,-125,4,2,1,40,0,0
74246,-83.3333333333333,4,2,1,40,0,0
74575,-111.111111111111,4,2,1,40,0,0
74905,-125,4,2,1,40,0,0
75564,-100,4,2,1,40,0,0
75894,-83.3333333333333,4,2,1,40,0,0
76224,-111.111111111111,4,2,1,40,0,0
76553,-90.9090909090908,4,2,1,40,0,0
76883,-333.333333333333,4,2,1,40,0,0
77542,-111.111111111111,4,2,1,40,0,0
77790,-83.3333333333333,4,2,1,40,0,0
78202,-90.9090909090909,4,2,1,40,0,0
78531,-111.111111111111,4,2,1,40,0,0
79520,-100,4,2,1,40,0,0
79850,-111.111111111111,4,2,1,40,0,0
80180,-125,4,2,1,40,0,0
80839,-125,4,2,1,40,0,0
81169,-83.3333333333333,4,2,1,40,0,0
81498,-111.111111111111,4,2,1,40,0,0
82158,-83.3333333333333,4,2,1,40,0,0
82487,-111.111111111111,4,2,1,40,0,0
83476,-83.3333333333333,4,2,1,40,0,0
83806,-125,4,2,1,40,0,0
84795,-90.9090909090908,4,2,1,40,0,0
85125,-125,4,2,1,40,0,0
86114,-90.9090909090908,4,2,1,40,0,0
86443,-125,4,2,1,40,0,0
86773,-111.111111111111,4,2,1,40,0,0
87103,-125,4,2,1,40,0,0
87432,-100,4,2,1,40,0,0
87621,444.444444444444,4,2,1,50,1,8
87621,-100,4,2,1,35,0,0
87818,357.142857142857,4,2,1,30,1,8
87818,-100,4,2,1,30,0,0
88176,352.941176470588,4,2,1,20,1,0

[Colours]
Combo1 : 128,64,64
Combo2 : 210,210,210
Combo3 : 255,128,128
Combo4 : 255,255,138

[HitObjects]
424,44,22145,6,0,B|431:21|431:21|325:32|325:32|356:98,1,204.000003890991,2|0,3:2|0:0,0:0:0:0:
332,172,22495,6,0,L|392:178,1,60,8|0,3:2|0:0,0:0:0:0:
400,192,22845,1,0,0:0:0:0:
400,192,23138,6,0,L|423:145,1,41.9999987182618
409,207,23304,2,0,L|432:160,1,41.9999987182618
374,281,23475,6,0,B|305:274|305:274|259:314|259:314|170:325,1,192,2|0,3:2|0:0,0:0:0:0:
161,255,23795,6,0,L|101:261,1,60,0|0,3:0|0:0,0:0:0:0:
93,275,24128,1,0,0:0:0:0:
93,275,24461,6,0,L|70:228,1,41.9999987182618
84,290,24628,2,0,L|61:243,1,41.9999987182618
52,369,24782,6,0,P|137:359|167:281,1,167.999994873047,2|0,3:2|0:0,0:0:0:0:
231,237,25136,2,0,P|221:169|163:142,1,132.00000402832
106,94,25459,6,0,L|46:100,1,60,8|0,3:2|0:0,0:0:0:0:
169,142,25822,6,0,P|224:110|230:47,1,132.00000402832
242,30,26113,5,2,3:2:0:0:
493,188,26428,5,0,3:0:0:0:
493,188,26757,5,0,0:0:0:0:
452,200,26922,1,0,0:0:0:0:
424,166,27087,5,0,0:0:0:0:
371,149,27252,1,0,0:0:0:0:
316,196,27429,6,0,B|231:211|231:211|232:262|276:288|276:288|317:312|313:358,1,264,0|0,3:2|0:0,0:0:0:0:
313,357,28088,2,0,B|357:346|357:346|408:362,1,90,8|0,3:2|0:0,0:0:0:0:
236,356,28747,5,2,3:2:0:0:
239,193,29077,5,0,3:0:0:0:
241,25,29407,5,0,0:0:0:0:
241,25,30055,6,0,B|325:41|325:41|323:92|279:117|279:117|238:141|239:193,1,269.999991760254,2|0,3:2|0:0,0:0:0:0:
169,142,30714,6,0,P|72:168|39:275,1,214.49999018097,8|0,3:2|0:0,0:0:0:0:
37,268,31373,2,0,L|135:248,1,90.0000034332277,2|0,3:2|0:0,0:0:0:0:
194,300,31703,5,0,3:0:0:0:
179,374,31868,1,8,0:0:0:0:
303,320,32033,5,2,0:0:0:0:
249,196,32362,5,0,0:0:0:0:
249,196,32692,6,0,B|226:229|226:229|361:250|361:250|336:145,1,255.000004863739,4|0,3:2|0:0,3:0:0:0:
357,159,33022,2,0,L|342:96,1,53.9999983520508,8|0,3:2|0:0,0:0:0:0:
439,183,33351,6,0,L|477:194,5,24
424,197,33681,1,0,0:0:0:0:
248,96,34011,6,0,B|271:63|271:63|136:42|136:42|161:147,1,255.000004863739,2|0,3:2|0:0,0:0:0:0:
140,133,34340,2,0,L|155:196,1,53.9999983520508,0|0,3:0|0:0,0:0:0:0:
66,105,34670,6,0,L|22:97,5,24
112,46,35000,6,0,L|101:1,3,36
126,31,35329,5,2,3:2:0:0:
249,196,36653,6,0,B|269:281|218:255|238:353,1,150
248,365,37312,1,0,0:0:0:0:
248,365,38012,6,0,P|313:310|427:334,1,194.999991073609
415,325,38341,2,0,P|417:280|422:239,1,71.9999978027344
481,207,38671,6,0,L|519:196,5,24
466,193,39001,1,0,0:0:0:0:
262,219,39291,6,0,P|197:164|83:188,1,194.999991073609,2|0,3:2|0:0,0:0:0:0:
94,179,39620,2,0,P|91:134|86:93,1,71.9999978027344,0|0,3:0|0:0,0:0:0:0:
29,61,39950,6,0,L|-9:50,11,24
44,47,40609,5,2,3:2:0:0:
5,54,40939,5,0,0:0:0:0:
5,54,42587,5,0,0:0:0:0:
2,61,42670,5,0,0:0:0:0:
2,68,42752,5,0,0:0:0:0:
17,77,42834,5,0,0:0:0:0:
44,76,42917,5,0,0:0:0:0:
81,63,42999,5,0,0:0:0:0:
108,21,43082,5,0,0:0:0:0:
168,0,43164,5,0,0:0:0:0:
229,43,43257,6,0,B|236:71|236:71|226:95,1,53.9999983520508,4|0,3:2|0:0,0:0:0:0:
256,168,43421,2,0,P|226:171|175:176,1,53.9999983520508
33,278,43586,5,0,3:0:0:0:
67,266,43669,1,0,0:0:0:0:
90,281,43751,1,0,0:0:0:0:
118,267,43833,1,0,0:0:0:0:
145,277,43916,2,0,B|152:307|152:307|142:351,1,53.9999983520508,8|0,3:2|0:0,0:0:0:0:
238,356,44081,2,0,B|234:325|234:325|240:294,1,53.9999983520508
332,248,44246,6,0,B|391:245|380:275|441:278,1,107.999996704102,0|0,3:0|0:0,0:0:0:0:
512,342,44493,5,0,0:0:0:0:
494,351,44575,2,0,B|453:275|453:275|496:188,1,161.999995056153,2|0,3:2|0:0,0:0:0:0:
512,94,44905,6,0,B|485:101|485:101|452:94,1,53.9999983520508,0|0,3:0|0:0,0:0:0:0:
388,122,45070,2,0,B|387:94|378:53,1,53.9999983520508
254,14,45235,5,8,3:2:0:0:
245,37,45317,1,0,0:0:0:0:
260,57,45399,1,0,0:0:0:0:
252,80,45482,1,0,0:0:0:0:
260,105,45564,6,0,P|228:100|186:96,1,53.9999983520508,0|0,3:0|0:0,0:0:0:0:
140,63,45729,2,0,P|136:89|132:116,1,53.9999983520508
48,228,45894,6,0,P|79:223|131:218,1,53.9999983520508,2|0,3:2|0:0,0:0:0:0:
168,186,46059,2,0,L|179:271,1,53.9999983520508
299,182,46224,5,0,3:0:0:0:
329,176,46306,1,0,0:0:0:0:
358,189,46388,1,0,0:0:0:0:
386,208,46471,1,0,0:0:0:0:
415,214,46553,2,0,L|486:207,1,53.9999983520508,8|0,3:2|0:0,0:0:0:0:
492,217,46718,2,0,L|438:221,1,53.9999983520508
416,133,46883,6,0,B|445:125|445:125|468:130,1,53.9999983520508,0|0,3:0|0:0,0:0:0:0:
478,306,47048,2,0,B|449:314|449:314|425:308,1,53.9999983520508
256,380,47213,5,2,3:2:0:0:
256,380,47542,5,0,3:0:0:0:
256,380,47872,5,0,0:0:0:0:
248,355,47954,1,0,0:0:0:0:
259,332,48037,1,0,0:0:0:0:
250,309,48119,1,0,0:0:0:0:
263,283,48202,6,0,P|256:249|253:220,1,54,8|0,0:0|0:0,0:0:0:0:
210,170,48531,6,0,B|194:86|255:120|241:19,1,144,4|0,3:2|0:0,0:0:0:0:
322,1,48779,5,0,0:0:0:0:
322,1,48861,2,0,B|327:31|327:31|321:64,1,53.9999983520508,0|0,3:0|0:0,0:0:0:0:
162,52,49026,2,0,B|155:26|155:26|162:0,1,53.9999983520508
292,155,49191,5,8,3:2:0:0:
323,146,49273,1,0,0:0:0:0:
354,161,49355,1,0,0:0:0:0:
384,146,49438,1,0,0:0:0:0:
415,162,49520,2,0,B|420:132|420:132|409:91,1,53.9999983520508,0|0,3:0|0:0,0:0:0:0:
506,98,49685,2,0,B|501:126|501:126|510:162,1,53.9999983520508
509,315,49850,5,2,3:2:0:0:
478,306,49932,1,0,0:0:0:0:
447,321,50015,1,0,0:0:0:0:
417,306,50097,1,0,0:0:0:0:
380,244,50180,5,0,3:0:0:0:
343,240,50262,1,0,0:0:0:0:
315,257,50344,1,0,0:0:0:0:
304,294,50427,1,0,0:0:0:0:
283,329,50509,1,8,3:2:0:0:
242,343,50592,1,0,0:0:0:0:
215,322,50674,1,0,0:0:0:0:
182,340,50757,1,0,0:0:0:0:
152,319,50839,6,0,B|144:348|144:348|152:388,1,53.9999983520508,0|0,3:0|0:0,0:0:0:0:
51,377,51004,2,0,B|59:349|59:349|53:323,1,53.9999983520508
0,197,51169,5,2,3:2:0:0:
31,188,51251,1,0,0:0:0:0:
62,203,51333,1,0,0:0:0:0:
92,188,51416,1,0,0:0:0:0:
128,210,51498,5,0,3:0:0:0:
164,176,51581,1,0,0:0:0:0:
170,123,51663,1,0,0:0:0:0:
145,80,51746,1,0,0:0:0:0:
166,51,51828,6,0,L|110:63,1,53.9999983520508,8|0,3:2|0:0,0:0:0:0:
34,79,51993,2,0,B|41:51|41:51|32:22,1,53.9999983520508
237,83,52158,6,0,B|314:72|295:121|379:121,1,144,0|0,3:0|0:0,0:0:0:0:
380,199,52405,5,0,0:0:0:0:
380,199,52487,2,0,L|436:187,1,53.9999983520508,2|0,3:2|0:0,0:0:0:0:
512,171,52652,2,0,B|505:199|505:199|514:228,1,53.9999983520508
512,338,52817,6,0,L|456:326,1,53.9999983520508,0|0,3:0|0:0,0:0:0:0:
380,310,52982,2,0,B|387:338|387:338|378:367,1,53.9999983520508
288,260,53147,5,8,3:2:0:0:
260,262,53229,1,0,0:0:0:0:
236,251,53311,1,0,0:0:0:0:
207,262,53394,1,0,0:0:0:0:
177,244,53476,1,0,3:0:0:0:
139,268,53559,1,0,0:0:0:0:
102,243,53641,1,0,0:0:0:0:
55,272,53724,1,0,0:0:0:0:
35,262,53806,6,0,P|30:231|25:207,1,53.9999983520508,2|0,3:2|0:0,0:0:0:0:
52,138,53971,2,0,B|24:134|24:134|0:141,1,53.9999983520508
168,5,54136,6,0,P|163:36|158:60,1,53.9999983520508,0|0,3:0|0:0,0:0:0:0:
185,129,54301,2,0,B|157:133|157:133|132:125,1,53.9999983520508
300,263,54465,6,0,P|295:232|290:208,1,53.9999983520508,8|0,3:2|0:0,0:0:0:0:
317,139,54630,2,0,B|289:135|289:135|264:142,1,53.9999983520508
233,346,54795,5,0,3:0:0:0:
251,354,54878,1,0,0:0:0:0:
272,339,54960,1,0,0:0:0:0:
306,368,55043,1,0,0:0:0:0:
370,332,55124,5,2,3:2:0:0:
404,361,55207,1,0,0:0:0:0:
425,346,55289,1,0,0:0:0:0:
442,355,55372,1,0,0:0:0:0:
456,349,55454,6,0,P|461:318|466:294,1,53.9999983520508,0|0,3:0|0:0,0:0:0:0:
510,232,55619,2,0,P|472:224|448:215,1,53.9999983520508
254,268,55784,5,8,3:2:0:0:
254,268,55949,1,0,0:0:0:0:
65,190,56114,5,0,0:0:0:0:
109,211,56196,1,0,0:0:0:0:
152,191,56279,1,0,0:0:0:0:
198,215,56361,1,0,0:0:0:0:
254,268,56443,6,0,B|302:232|302:232|294:124|294:124|227:96,1,229.500004377365
151,102,56773,6,0,B|272:86|191:54|343:30,1,188.999994232178,8|8,3:1|3:0,0:0:0:0:
395,0,57103,6,0,B|403:32|403:32|394:67,1,62.9999980773926,0|0,3:0|0:0,0:0:0:0:
512,82,57268,2,0,B|504:50|504:50|513:15,1,62.9999980773926,8|0,3:0|0:0,0:0:0:0:
328,159,57432,5,0,3:0:0:0:
446,122,57597,1,0,3:0:0:0:
412,257,57762,6,0,B|404:225|404:225|413:190,1,62.9999980773926,2|0,3:2|0:0,0:0:0:0:
484,226,57927,1,0,3:0:0:0:
489,242,58009,1,0,0:0:0:0:
488,258,58092,2,0,B|402:254|422:297|332:300,1,153.000002918243,8|0,3:1|0:0,0:0:0:0:
272,270,58339,5,0,0:0:0:0:
272,270,58421,2,0,B|264:302|264:302|273:337,1,62.9999980773926,8|8,3:0|3:0,0:0:0:0:
186,381,58586,2,0,B|194:349|194:349|185:314,1,62.9999980773926,8|0,3:0|0:0,0:0:0:0:
11,211,58751,5,8,3:0:0:0:
86,190,58916,1,0,0:0:0:0:
231,157,59081,6,0,B|150:147|188:110|84:100,1,135.000005149842,2|0,3:2|0:0,0:0:0:0:
34,124,59328,5,0,0:0:0:0:
12,131,59410,2,0,P|7:93|-7:40,1,67.5000025749208,8|0,3:1|0:0,0:0:0:0:
216,10,59575,2,0,P|221:48|235:101,1,67.5000025749208
156,228,59740,5,0,3:0:0:0:
98,1,59905,1,8,3:0:0:0:
340,28,60070,5,0,3:0:0:0:
398,255,60235,1,0,3:0:0:0:
328,218,60399,6,0,P|335:185|339:151,1,67.5000025749208,2|0,3:2|0:0,0:0:0:0:
487,177,60564,2,0,P|479:209|475:243,1,67.5000025749208,0|0,3:0|0:0,0:0:0:0:
378,335,60729,6,0,B|288:312|308:369|212:371,1,153.000002918243,8|0,3:1|0:0,0:0:0:0:
141,346,60976,5,0,0:0:0:0:
162,340,61059,2,0,B|173:306|173:306|158:272,1,67.5000025749208,8|8,3:0|3:0,0:0:0:0:
27,288,61224,2,0,B|16:322|16:322|31:356,1,67.5000025749208,0|0,3:0|0:0,0:0:0:0:
95,240,61388,5,8,3:0:0:0:
99,213,61471,1,8,3:0:0:0:
85,192,61553,1,8,3:0:0:0:
88,163,61636,1,8,3:0:0:0:
14,143,61718,6,0,B|57:136|57:136|99:103|99:103|136:98,1,135.000005149842,4|0,3:2|0:0,0:0:0:0:
318,16,61965,5,0,0:0:0:0:
297,10,62048,2,0,B|273:74|273:74|300:136,1,135.000005149842,8|0,3:1|0:0,0:0:0:0:
326,143,62295,1,0,0:0:0:0:
326,143,62377,1,0,3:0:0:0:
510,188,62542,1,8,3:0:0:0:
339,282,62707,6,0,B|326:251|326:251|339:218,1,67.5000025749208,0|0,3:0|0:0,0:0:0:0:
393,36,62872,2,0,B|404:69|404:69|385:114,1,67.5000025749208,0|0,3:0|0:0,0:0:0:0:
414,313,63037,6,0,B|438:249|438:249|411:187,1,135.000005149842,2|0,3:2|3:0,0:0:0:0:
223,101,63284,5,0,0:0:0:0:
223,101,63366,2,0,L|195:176,1,67.5000025749208,8|8,3:1|3:0,0:0:0:0:
186,356,63531,2,0,L|160:286,1,67.5000025749208,0|0,3:0|3:0,0:0:0:0:
12,260,63696,2,0,B|52:255|52:255|97:220|97:220|134:215,1,135.000005149842,8|0,3:0|0:0,0:0:0:0:
38,115,63943,5,8,3:0:0:0:
38,115,64026,2,0,P|20:145|32:208,1,67.5000025749208,8|0,3:0|0:0,0:0:0:0:
215,227,64191,2,0,P|214:192|171:142,1,67.5000025749208,8|0,3:0|0:0,0:0:0:0:
104,68,64355,6,0,B|140:96|183:103|229:94|260:56|260:-1|215:-27|169:-31|143:20,1,270,2|0,3:2|0:0,0:0:0:0:
281,131,64685,6,0,B|420:93|361:231|521:229,1,242.999992584229,8|8,3:1|3:0,0:0:0:0:
486,226,65015,2,0,B|478:249|478:249|485:277,1,53.9999983520508,0|0,3:0|0:0,0:0:0:0:
390,330,65180,2,0,B|397:306|397:306|390:278,1,53.9999983520508,8|0,3:0|0:0,0:0:0:0:
216,228,65344,6,0,B|143:241|143:241|95:326|95:326|25:339,1,242.999992584229,0|0,3:0|0:0,0:0:0:0:
53,239,65674,6,0,B|107:248|107:248|143:312|143:312|196:322,1,180,0|0,3:0|0:0,0:0:0:0:
282,40,66004,6,0,B|290:10|290:10|180:35|180:35|236:138,1,242.999992584229,8|0,3:1|0:0,0:0:0:0:
227,122,66333,2,0,L|301:134,1,53.9999983520508,8|0,3:0|0:0,0:0:0:0:
359,114,66498,2,0,B|351:143|351:143|367:197,1,53.9999983520508,0|0,3:0|0:0,0:0:0:0:
361,292,66663,5,8,3:0:0:0:
391,279,66745,1,8,3:0:0:0:
423,287,66828,1,8,3:0:0:0:
451,269,66910,1,8,3:0:0:0:
483,276,66993,5,4,3:1:0:0:
260,352,67240,6,0,B|198:341|198:341|173:353|173:353|115:342,1,148.50000453186,8|0,3:2|3:0,0:0:0:0:
76,173,67652,6,0,L|156:155,1,80.9999975280763,0|0,3:0|0:0,0:0:0:0:
214,214,67899,1,0,0:0:0:0:
214,214,67982,2,0,B|183:149|183:149|214:74,1,135
191,12,68311,6,0,L|271:30,1,80.9999975280763,2|0,3:2|3:0,0:0:0:0:
346,3,68559,2,0,B|357:97|308:50|324:165,1,148.50000453186,8|0,3:2|3:0,0:0:0:0:
451,300,68971,6,0,B|441:216|484:258|470:155,1,135,0|0,3:0|0:0,0:0:0:0:
472,169,69301,2,0,B|434:154|434:154|392:167,1,80.9999975280763
259,283,69630,6,0,B|248:317|248:317|260:353,1,72,2|0,3:2|0:0,0:0:0:0:
326,317,69877,2,0,P|245:313|173:372,1,161.999995056153,8|0,3:2|3:0,0:0:0:0:
76,241,70290,6,0,B|87:207|87:207|75:171,1,72,0|0,3:0|0:0,0:0:0:0:
8,206,70537,1,0,0:0:0:0:
8,206,70619,2,0,P|89:210|161:151,1,161.999995056153
211,112,70949,5,2,3:2:0:0:
286,137,71114,1,0,3:0:0:0:
152,164,71279,1,0,0:0:0:0:
195,34,71443,1,0,3:0:0:0:
329,7,71608,6,0,B|427:13|376:65|489:74,1,161.999995056153,0|0,3:0|0:0,0:0:0:0:
472,72,71938,2,0,B|459:112|459:112|477:166,1,80.9999975280763
355,240,72268,6,0,B|320:228|320:228|274:244,1,72,4|0,3:2|0:0,0:0:0:0:
227,192,72515,2,0,B|266:201|266:201|271:287|271:287|238:300,1,161.999995056153,8|0,3:2|3:0,0:0:0:0:
72,320,72927,6,0,B|39:306|39:306|43:221|43:221|83:211,1,161.999995056153,0|0,3:0|0:0,0:0:0:0:
150,167,73257,2,0,L|162:252,1,72
392,370,73586,6,0,L|404:285,1,72,2|0,3:2|3:0,0:0:0:0:
470,261,73833,1,8,3:2:0:0:
470,261,73916,2,0,B|483:295|483:295|468:342,1,72,0|0,0:0|3:0,0:0:0:0:
286,239,74246,6,0,B|273:138|321:180|311:77,1,161.999995056153,0|0,3:0|0:0,0:0:0:0:
311,82,74575,2,0,L|226:94,1,80.9999975280763
83,138,74905,6,0,L|71:53,1,72,2|0,3:2|0:0,0:0:0:0:
5,29,75152,1,8,3:2:0:0:
5,29,75235,2,0,B|-8:63|-8:63|6:110,1,72,0|0,0:0|3:0,0:0:0:0:
204,86,75564,6,0,L|337:67,1,135,0|0,3:0|0:0,0:0:0:0:
414,35,75894,6,0,B|427:136|379:94|389:197,1,161.999995056153
388,191,76224,2,0,L|303:179,1,80.9999975280763,2|0,3:2|0:0,0:0:0:0:
225,170,76471,5,0,0:0:0:0:
225,170,76553,2,0,B|254:237|254:237|224:315,1,148.50000453186
226,307,76883,2,0,L|282:299,1,53.9999983520508,0|0,3:0|0:0,0:0:0:0:
75,381,77542,6,0,B|87:343|87:343|74:304,1,80.9999975280763,4|0,3:2|0:0,0:0:0:0:
3,280,77790,2,0,B|70:268|70:268|91:248|91:248|177:234,1,161.999995056153,8|0,3:2|3:0,0:0:0:0:
464,165,78202,6,0,B|435:232|435:232|462:302,1,148.50000453186,0|0,3:0|0:0,0:0:0:0:
462,302,78531,2,0,L|368:286,1,80.9999975280763
226,307,78861,6,0,L|242:213,1,80.9999975280763,2|0,3:2|3:0,0:0:0:0:
265,154,79108,1,8,3:2:0:0:
265,154,79191,2,0,L|171:170,1,80.9999975280763,0|0,0:0|3:0,0:0:0:0:
14,58,79520,6,0,L|37:200,1,135,0|0,3:0|0:0,0:0:0:0:
36,192,79850,2,0,L|130:208,1,80.9999975280763
327,238,80180,6,0,L|341:153,1,72,2|0,3:2|0:0,0:0:0:0:
408,131,80427,1,8,3:2:0:0:
408,131,80509,2,0,B|419:165|419:165|403:211,1,72,0|0,0:0|3:0,0:0:0:0:
145,124,80839,6,0,B|132:90|132:90|144:56,1,72,0|0,3:0|0:0,0:0:0:0:
217,92,81086,1,0,0:0:0:0:
217,92,81169,2,0,B|232:185|178:147|192:253,1,161.999995056153
262,282,81498,5,2,3:2:0:0:
327,238,81663,1,0,3:0:0:0:
191,247,81828,1,0,0:0:0:0:
267,360,81993,1,0,3:0:0:0:
432,354,82158,6,0,B|447:261|393:299|407:193,1,161.999995056153,0|0,3:0|0:0,0:0:0:0:
407,198,82487,2,0,L|501:214,1,80.9999975280763
196,327,82817,6,0,L|102:343,1,80.9999975280763,4|0,3:2|0:0,0:0:0:0:
48,369,83064,1,8,3:2:0:0:
48,369,83147,2,0,B|36:327|36:327|54:277,1,80.9999975280763,0|0,0:0|3:0,0:0:0:0:
64,49,83476,6,0,B|131:61|131:61|152:81|152:81|238:95,1,161.999995056153,0|0,3:0|0:0,0:0:0:0:
217,91,83806,2,0,L|203:176,1,72
486,211,84136,6,0,L|472:126,1,72,2|0,3:2|3:0,0:0:0:0:
506,73,84383,1,8,3:2:0:0:
506,73,84465,2,0,B|472:62|472:62|426:78,1,72,0|0,0:0|3:0,0:0:0:0:
277,214,84795,6,0,P|346:213|398:280,1,148.50000453186,0|0,3:0|0:0,0:0:0:0:
395,269,85125,2,0,L|409:184,1,72
117,269,85454,6,0,L|103:184,1,72,2|0,3:2|0:0,0:0:0:0:
29,211,85702,1,8,3:2:0:0:
29,211,85784,2,0,L|43:126,1,72,0|0,0:0|3:0,0:0:0:0:
303,70,86114,6,0,B|315:159|267:127|278:231,1,148.50000453186,0|0,3:0|0:0,0:0:0:0:
276,213,86443,2,0,B|240:227|240:227|200:209,1,72
121,345,86773,6,0,B|159:332|159:332|200:345,1,80.9999975280763,2|0,3:2|3:0,0:0:0:0:
267,370,87020,1,8,3:2:0:0:
267,370,87103,2,0,L|281:285,1,72,0|0,0:0|3:0,0:0:0:0:
303,70,87432,5,0,3:0:0:0:
224,54,87621,5,0,0:0:0:0:
328,147,87818,5,0,0:0:0:0:
328,147,87996,1,0,0:0:0:0:
356,10,88352,5,0,0:0:0:0:
256,192,88440,12,0,89587,0:0:0:0:
