osu file format v14

[General]
AudioFilename: audio.mp3
AudioLeadIn: 0
PreviewTime: 56361
Countdown: 0
SampleSet: Soft
StackLeniency: 0.5
Mode: 0
LetterboxInBreaks: 0
WidescreenStoryboard: 0

[Editor]
Bookmarks: 22142
DistanceSpacing: 1.3
BeatDivisor: 4
GridSize: 32
TimelineZoom: 2.2

[Metadata]
Title:Rightfully (TV Size)
TitleUnicode:Rightfully (TV Size)
Artist:Mili
ArtistUnicode:Mili
Creator:Tsumugi-chan
Version:Enerugi's Hard
Source:ゴブリンスレイヤー
Tags:Goblin Slayer OP anime breakcore electronic enerugi p4ndemonium pandemonium melwoine wenect wenet tech milli miili english
BeatmapID:2246375
BeatmapSetID:866335

[Difficulty]
HPDrainRate:4
CircleSize:3.5
OverallDifficulty:5
ApproachRate:7.5
SliderMultiplier:1.4
SliderTickRate:1

[Events]
//Background and Video events
0,0,"d3eb2c408b6ce9c166c071a00fb50ddb.jpg",0,0
//Break Periods
//Storyboard Layer 0 (Background)
//Storyboard Layer 1 (Fail)
//Storyboard Layer 2 (Pass)
//Storyboard Layer 3 (Foreground)
//Storyboard Layer 4 (Overlay)
//Storyboard Sound Samples

[TimingPoints]
19347,349.854227405248,4,2,2,25,1,0
22145,-125,4,2,2,25,0,0
22495,-125,4,2,2,25,0,0
23138,333.333333333333,4,2,2,25,1,8
23138,-125,4,2,2,25,0,0
23475,317.460317460317,4,2,2,25,1,0
23475,-125,4,2,2,25,0,0
23795,333.333333333333,4,2,2,25,1,8
23795,-125,4,2,2,25,0,0
24782,350.877192982456,4,2,2,25,1,0
24782,-125,4,2,2,25,0,0
25136,329.67032967033,4,2,2,25,1,8
25459,357.142857142857,4,2,2,25,1,8
25459,-125,4,2,2,25,0,0
25822,291.26213592233,4,2,2,25,1,8
26113,320.855614973262,4,2,2,30,1,0
26113,-125,4,2,2,25,0,0
26428,329.67032967033,4,2,2,20,1,8
26428,-125,4,2,2,25,0,0
27429,329.67032967033,4,2,2,30,1,0
27429,-125,4,2,2,25,0,0
28088,-125,4,2,2,25,0,0
28747,-125,4,2,2,25,0,0
30055,329.67032967033,4,2,2,25,1,0
30055,-125,4,2,2,25,0,0
30714,-125,4,2,2,25,0,0
31373,-125,4,2,2,25,0,0
32692,-125,4,2,2,30,0,0
33022,-125,4,2,2,30,0,0
34011,-125,4,2,2,30,0,0
34340,-125,4,2,2,30,0,0
35329,-125,4,2,2,25,0,0
36648,329.67032967033,4,2,2,25,1,8
36653,329.67032967033,4,2,2,30,1,0
36653,-125,4,2,2,35,0,0
37971,329.67032967033,4,2,2,30,1,8
38012,329.67032967033,4,2,2,40,1,0
38012,-125,4,2,2,35,0,0
39291,329.67032967033,4,2,2,30,1,0
39291,-125,4,2,2,35,0,0
43247,329.67032967033,4,2,1,50,1,8
43257,329.67032967033,4,2,1,50,1,0
43257,-111.111111111111,4,2,1,50,0,0
56443,-100,4,2,1,60,0,1
66993,-111.111111111111,4,2,1,50,0,0
72267,-111.111111111111,4,2,1,45,0,0
77542,-111.111111111111,4,2,1,50,0,0
87432,-111.111111111111,4,2,1,40,0,0
87621,444.444444444444,4,2,1,40,1,8
87818,357.142857142857,4,2,1,30,1,8
87818,-111.111111111111,4,2,1,30,0,8
88176,352.941176470588,4,2,1,20,1,0
88176,-100,4,2,1,15,0,0
89411,-100,4,2,1,5,0,0

[Colours]
Combo1 : 255,255,128
Combo2 : 192,192,192
Combo3 : 255,128,128
Combo4 : 128,64,64

[HitObjects]
24,161,22145,6,0,P|94:162|120:152,1,84,2|0,3:2|0:0,0:0:0:0:
143,149,22495,2,0,P|131:203|138:258,1,112,8|0,3:2|0:0,0:0:0:0:
256,327,23138,1,0,0:0:0:0:
371,258,23475,2,0,P|372:188|362:162,1,84,2|0,3:2|0:0,0:0:0:0:
359,139,23795,2,0,P|413:150|468:143,1,112,0|0,3:0|0:0,0:0:0:0:
417,19,24461,1,0,0:0:0:0:
288,55,24782,6,0,P|233:43|178:49,1,112,2|0,3:2|0:0,0:0:0:0:
169,227,25459,2,0,P|206:185|228:134,1,112,8|0,3:2|0:0,0:0:0:0:
80,38,26113,2,0,P|97:91|111:112,1,56,2|0,3:2|0:0,0:0:0:0:
100,169,26428,2,0,P|94:196|82:222,1,56,0|0,3:0|0:0,0:0:0:0:
49,293,26757,2,0,P|102:310|123:324,1,56
156,367,27087,2,0,P|209:350|230:336,1,56
276,310,27429,6,0,P|331:328|397:309,1,112,0|0,3:2|0:0,0:0:0:0:
470,214,28088,1,8,3:2:0:0:
470,214,28418,1,0,0:0:0:0:
382,110,28747,2,0,P|328:100|276:118,1,112,2|0,3:2|3:0,0:0:0:0:
180,212,29407,2,0,P|125:222|73:204,1,112
139,20,30055,6,0,L|131:132,1,112,2|0,3:2|0:0,0:0:0:0:
339,98,30714,2,0,L|227:89,1,112,8|0,3:2|0:0,0:0:0:0:
261,297,31373,2,0,L|269:185,1,112,2|0,3:2|3:0,0:0:0:0:
61,219,32033,2,0,L|172:227,1,112
247,71,32692,6,0,P|233:115|246:162,1,84,4|0,3:2|0:0,0:0:0:0:
269,185,33022,2,0,L|386:190,1,112,8|0,3:2|0:0,0:0:0:0:
480,281,33681,1,0,0:0:0:0:
379,384,34011,2,0,P|393:340|380:293,1,84,2|0,3:2|0:0,0:0:0:0:
357,270,34340,2,0,L|240:265,1,112,0|0,3:0|0:0,0:0:0:0:
116,304,35000,1,0,0:0:0:0:
149,173,35329,5,2,3:2:0:0:
149,173,36653,6,0,P|188:123|141:32,1,168
78,1,37312,2,0,L|251:-6,1,168
319,21,38012,6,0,P|333:74|322:125,1,84
322,141,38341,2,0,P|384:135|435:143,1,112
512,251,39001,1,0,0:0:0:0:
423,350,39291,2,0,P|388:306|380:266,1,84,2|0,3:2|0:0,0:0:0:0:
382,240,39620,2,0,P|320:246|269:238,1,112,0|0,3:0|0:0,0:0:0:0:
140,208,40280,1,0,0:0:0:0:
230,108,40609,5,2,3:2:0:0:
147,80,43257,6,0,P|141:121|148:172,1,62.9999980773926,4|0,3:2|0:0,0:0:0:0:
167,178,43504,1,0,0:0:0:0:
167,178,43586,2,0,P|173:219|166:270,1,62.9999980773926,0|0,3:0|0:0,0:0:0:0:
145,325,43916,2,0,P|175:320|212:324,1,62.9999980773926,8|0,3:2|0:0,0:0:0:0:
290,353,44246,2,0,L|284:389,2,31.4999990386963,0|0|0,3:0|0:0|0:0,0:0:0:0:
369,313,44575,6,0,B|373:279|373:279|361:252,1,62.9999980773926,2|0,3:2|0:0,0:0:0:0:
294,186,44905,2,0,B|327:181|327:181|349:162,1,62.9999980773926,0|0,3:0|0:0,0:0:0:0:
431,103,45235,2,0,B|397:98|397:98|375:79,1,62.9999980773926,8|0,3:2|0:0,0:0:0:0:
348,0,45564,2,0,B|325:18|325:18|292:23,1,62.9999980773926,0|0,3:0|0:0,0:0:0:0:
207,50,45894,5,2,3:2:0:0:
134,0,46059,1,0,0:0:0:0:
64,53,46224,2,0,P|50:96|57:135,1,62.9999980773926,0|0,3:0|0:0,0:0:0:0:
70,152,46471,1,0,0:0:0:0:
70,152,46553,2,0,P|84:195|77:234,1,62.9999980773926,8|0,3:2|0:0,0:0:0:0:
56,297,46883,1,0,3:0:0:0:
125,352,47048,1,0,0:0:0:0:
201,308,47213,5,2,3:2:0:0:
201,308,47872,2,0,L|255:304,3,31.4999990386963
276,298,48202,2,0,L|282:215,1,62.9999980773926,8|0,0:0|0:0,0:0:0:0:
287,147,48531,6,0,P|345:157|376:158,1,62.9999980773926,4|0,3:2|0:0,0:0:0:0:
432,127,48861,1,0,3:0:0:0:
432,127,49026,1,0,0:0:0:0:
365,68,49191,2,0,P|334:61|302:57,1,62.9999980773926,8|0,3:2|0:0,0:0:0:0:
234,2,49520,2,0,P|207:19|182:38,1,62.9999980773926,0|0,3:0|0:0,0:0:0:0:
95,48,49850,2,0,P|88:78|84:110,1,62.9999980773926,2|0,3:2|0:0,0:0:0:0:
67,193,50180,6,0,L|25:205,2,31.4999990386963,0|0|0,3:0|0:0|0:0,0:0:0:0:
152,171,50509,2,0,P|183:174|213:181,1,62.9999980773926,8|0,3:2|0:0,0:0:0:0:
285,235,50839,2,0,P|316:231|346:224,1,62.9999980773926,0|0,3:0|0:0,0:0:0:0:
400,152,51169,6,0,P|434:204|428:266,1,125.999996154785,2|0,3:2|3:0,0:0:0:0:
388,344,51663,1,0,0:0:0:0:
303,319,51828,2,0,P|271:318|235:327,1,62.9999980773926,8|0,3:2|0:0,0:0:0:0:
158,356,52158,2,0,P|126:357|90:348,1,62.9999980773926,0|0,3:0|0:0,0:0:0:0:
23,300,52487,2,0,P|21:255|32:222,1,62.9999980773926,2|0,3:2|0:0,0:0:0:0:
62,157,52817,5,0,3:0:0:0:
62,157,52982,1,0,0:0:0:0:
148,176,53147,2,0,L|215:173,1,62.9999980773926,8|0,3:2|0:0,0:0:0:0:
245,145,53394,1,0,0:0:0:0:
245,145,53476,2,0,L|312:148,1,62.9999980773926,0|0,3:0|0:0,0:0:0:0:
381,196,53806,6,0,P|390:122|350:72,1,125.999996154785,2|0,3:2|3:0,0:0:0:0:
286,39,54300,1,0,0:0:0:0:
200,62,54465,2,0,P|163:69|110:61,1,62.9999980773926,8|0,3:2|0:0,0:0:0:0:
52,42,54795,2,0,P|59:79|51:132,1,62.9999980773926,0|0,3:0|0:0,0:0:0:0:
45,250,55125,6,0,P|38:213|46:160,1,62.9999980773926,2|0,3:2|0:0,0:0:0:0:
136,273,55454,2,0,P|135:241|141:210,1,62.9999980773926,0|0,3:0|0:0,0:0:0:0:
202,145,55784,1,8,3:2:0:0:
275,194,55949,1,0,0:0:0:0:
344,139,56114,2,0,L|390:135,3,31.4999990386963
424,139,56443,6,0,B|450:184|450:184|422:292,1,140,0|8,0:0|3:1,0:0:0:0:
388,351,56938,1,0,0:0:0:0:
308,305,57103,2,0,B|260:299|260:299|227:310,1,70,0|8,3:0|3:0,0:0:0:0:
153,336,57432,2,0,B|132:342|132:342|84:336,1,70,0|0,3:0|3:0,0:0:0:0:
0,305,57762,6,0,P|-16:229|37:159,1,140,2|8,3:2|3:1,0:0:0:0:
87,124,58257,1,0,0:0:0:0:
161,174,58421,2,0,P|212:182|241:176,1,70,8|8,3:0|3:0,0:0:0:0:
307,213,58751,2,0,P|286:242|259:263,1,70,8|0,3:0|0:0,0:0:0:0:
389,245,59081,6,0,P|396:203|323:126,1,140,2|8,3:2|3:1,0:0:0:0:
253,98,59575,1,0,0:0:0:0:
324,42,59740,2,0,P|381:54|410:72,1,70,0|8,3:0|3:0,0:0:0:0:
458,120,60070,2,0,P|479:172|482:207,1,70,0|0,3:0|3:0,0:0:0:0:
477,276,60399,1,2,3:2:0:0:
477,276,60564,1,0,3:0:0:0:
389,245,60729,6,0,P|355:239|319:243,1,70,8|0,3:1|0:0,0:0:0:0:
249,300,61059,2,0,P|209:307|159:305,1,70,8|0,3:0|3:0,0:0:0:0:
136,321,61306,1,8,3:0:0:0:
136,321,61388,2,0,P|97:315|46:316,1,70,8|8,3:0|3:0,0:0:0:0:
0,211,61718,6,0,P|79:223|135:184,2,140,4|8|0,3:2|3:1|3:0,0:0:0:0:
127,80,62707,2,0,P|161:80|196:97,1,70,0|0,3:0|3:0,0:0:0:0:
259,158,63037,5,2,3:2:0:0:
321,92,63202,1,0,3:0:0:0:
390,150,63366,2,0,P|424:157|458:151,1,70,8|0,3:1|3:0,0:0:0:0:
461,34,63696,2,0,P|426:28|392:35,1,70,8|0,3:0|0:0,0:0:0:0:
321,92,64026,2,0,L|246:79,1,70,8|8,3:0|3:0,0:0:0:0:
174,32,64355,6,0,B|119:36|119:36|81:60|81:60|22:65,1,140,2|8,3:2|3:1,0:0:0:0:
2,146,64850,1,0,0:0:0:0:
76,198,65015,2,0,B|88:231|88:231|84:265,1,70,0|8,3:0|3:0,0:0:0:0:
155,322,65344,2,0,B|177:295|177:295|208:280,1,70,0|0,3:0|3:0,0:0:0:0:
301,280,65674,6,0,B|332:294|332:294|355:321,1,70,2|0,3:2|3:0,0:0:0:0:
443,210,66004,2,0,B|431:243|431:243|434:277,1,70,8|0,3:1|0:0,0:0:0:0:
366,163,66333,2,0,B|337:183|337:183|303:189,1,70,8|0,3:0|3:0,0:0:0:0:
264,98,66663,2,0,B|293:78|293:78|327:72,1,70,8|8,3:0|3:0,0:0:0:0:
414,91,66993,6,0,P|466:103|517:94,2,94.499997116089,4|8|0,3:1|3:2|3:0,0:0:0:0:
384,14,67652,2,0,B|342:-8|342:-8|239:10,1,125.999996154785,0|0,3:0|0:0,0:0:0:0:
126,93,68311,2,0,P|74:105|23:96,2,94.499997116089,2|8|0,3:2|3:2|3:0,0:0:0:0:
188,39,68971,2,0,B|210:81|210:81|192:184,1,125.999996154785,0|0,3:0|0:0,0:0:0:0:
160,318,69630,6,0,P|108:330|57:321,2,94.499997116089,2|8|0,3:2|3:2|3:0,0:0:0:0:
236,288,70289,2,0,B|278:266|278:266|381:284,1,125.999996154785,0|0,3:0|0:0,0:0:0:0:
511,307,70949,2,0,L|499:246,1,62.9999980773926,2|0,3:2|3:0,0:0:0:0:
434,194,71278,2,0,L|446:133,1,62.9999980773926,0|0,0:0|3:0,0:0:0:0:
512,81,71608,2,0,P|458:50|398:64,1,125.999996154785,0|0,3:0|0:0,0:0:0:0:
275,173,72267,6,0,B|262:125|262:125|279:74,2,94.499997116089,4|8|0,3:2|3:2|3:0,0:0:0:0:
231,242,72927,2,0,P|176:255|94:236,1,125.999996154785,0|0,3:0|0:0,0:0:0:0:
1,119,73586,2,0,B|14:167|14:167|-3:218,2,94.499997116089,2|8|0,3:2|3:2|3:0,0:0:0:0:
45,50,74246,2,0,P|100:37|182:56,1,125.999996154785,0|0,3:0|0:0,0:0:0:0:
217,203,74905,6,0,B|169:216|169:216|118:199,2,94.499997116089,2|8|0,3:2|3:2|3:0,0:0:0:0:
293,171,75564,2,0,P|348:158|430:177,1,125.999996154785,0|0,3:0|0:0,0:0:0:0:
480,320,76224,6,0,P|440:327|402:319,1,62.9999980773926,2|0,3:2|3:0,0:0:0:0:
349,279,76553,2,0,P|317:276|287:283,1,62.9999980773926,0|0,0:0|3:0,0:0:0:0:
212,319,76883,2,0,P|138:322|79:302,1,125.999996154785,0|0,3:0|0:0,0:0:0:0:
0,174,77542,6,0,P|60:157|123:161,1,125.999996154785,4|0,3:2|0:0,0:0:0:0:
203,143,78037,2,0,P|205:96|201:68,2,62.9999980773926,0|0|0,3:0|3:0|0:0,0:0:0:0:
180,221,78531,1,0,0:0:0:0:
342,244,78861,2,0,P|358:183|354:120,1,125.999996154785,2|0,3:2|0:0,0:0:0:0:
373,41,79355,2,0,P|420:39|448:43,2,62.9999980773926,0|0|0,3:0|3:0|0:0,0:0:0:0:
295,64,79850,1,0,0:0:0:0:
140,120,80180,6,0,P|135:182|151:243,1,125.999996154785,2|0,3:2|0:0,0:0:0:0:
148,325,80674,2,0,P|102:335|73:337,2,62.9999980773926,0|0|0,3:0|3:0|0:0,0:0:0:0:
220,287,81169,1,0,0:0:0:0:
378,328,81498,2,0,P|377:296|383:265,1,62.9999980773926,2|0,3:2|3:0,0:0:0:0:
430,198,81828,2,0,P|430:166|424:135,1,62.9999980773926,0|0,0:0|3:0,0:0:0:0:
392,59,82158,2,0,P|326:41|258:72,1,125.999996154785,0|0,3:0|0:0,0:0:0:0:
149,166,82817,6,0,L|142:45,2,94.499997116089,4|8|0,3:2|3:2|3:0,0:0:0:0:
188,237,83476,2,0,P|238:261|317:216,1,125.999996154785,0|0,3:0|0:0,0:0:0:0:
458,285,84136,2,0,L|464:164,2,94.499997116089,2|8|0,3:2|3:2|3:0,0:0:0:0:
419,356,84795,2,0,P|369:380|290:335,1,125.999996154785,0|0,3:0|0:0,0:0:0:0:
142,367,85454,6,0,L|21:373,2,94.499997116089,2|8|0,3:2|3:2|3:0,0:0:0:0:
213,328,86114,2,0,P|237:278|192:199,1,125.999996154785,0|0,3:0|0:0,0:0:0:0:
94,101,86773,2,0,L|-27:95,2,94.499997116089,2|8|0,3:2|3:2|3:0,0:0:0:0:
168,61,87432,2,0,L|258:56,1,62.9999980773926,0|0,3:0|0:0,0:0:0:0:
303,119,87818,2,0,L|385:122,1,62.9999980773926
256,192,88175,12,0,89411,0:0:0:0:
