osu file format v14

[General]
AudioFilename: audio.mp3
AudioLeadIn: 0
PreviewTime: 41221
Countdown: 0
SampleSet: Normal
StackLeniency: 0.7
Mode: 3
LetterboxInBreaks: 0
SpecialStyle: 0
WidescreenStoryboard: 1

[Editor]
DistanceSpacing: 1
BeatDivisor: 4
GridSize: 32
TimelineZoom: 1.6

[Metadata]
Title:Rightfully (TV Size)
TitleUnicode:Rightfully (TV Size)
Artist:Mili
ArtistUnicode:Mili
Creator:[Ping]
Version:Advanced
Source:ゴブリンスレイヤー
Tags:goblin slayer opening yamato kasai momocashew
BeatmapID:1810148
BeatmapSetID:865039

[Difficulty]
HPDrainRate:7.5
CircleSize:4
OverallDifficulty:7.5
ApproachRate:5
SliderMultiplier:1.4
SliderTickRate:1

[Events]
//Background and Video events
0,0,"Goblin Slayer.jpg",0,0
//Break Periods
//Storyboard Layer 0 (Background)
//Storyboard Layer 1 (Fail)
//Storyboard Layer 2 (Pass)
//Storyboard Layer 3 (Foreground)
//Storyboard Sound Samples

[TimingPoints]
21112,329.67032967033,4,1,1,100,1,0
41221,-100,4,2,0,15,0,0
42210,-100,4,2,0,20,0,1
46166,-100,4,2,0,20,0,0
47485,-100,4,2,0,20,0,1
65947,-100,4,1,1,100,0,0

[HitObjects]
64,192,21111,1,0,0:0:0:70:kick.wav
448,192,21111,1,0,0:0:0:0:
64,192,21441,1,0,0:0:0:70:kick.wav
448,192,21441,1,0,0:0:0:0:
448,192,22101,1,0,0:0:0:30:kick.wav
320,192,22265,1,0,0:0:0:0:
64,192,22430,1,0,0:0:0:70:kick.wav
192,192,22430,1,0,0:0:0:0:
320,192,22760,1,0,0:0:0:70:kick.wav
448,192,22760,1,0,0:0:0:70:LR_Tom Hit.wav
64,192,23090,1,0,0:0:0:70:LR_HiHat SClick 2.wav
448,192,23419,1,0,0:0:0:0:
192,192,23584,1,0,0:0:0:0:
64,192,23749,1,0,0:0:0:70:kick.wav
320,192,23749,1,0,0:0:0:0:
448,192,24079,1,0,0:0:0:0:
64,192,24408,1,0,0:0:0:70:kick.wav
192,192,24408,1,8,0:2:0:40:LR_Clap kick.wav
320,192,24738,1,0,0:0:0:0:
64,192,25068,1,0,0:0:0:70:kick.wav
448,192,25068,1,0,0:0:0:0:
192,192,25232,1,0,0:0:0:0:
64,192,25397,1,0,0:0:0:70:kick.wav
448,192,25397,1,0,0:0:0:0:
320,192,25562,1,0,0:0:0:0:
192,192,25727,1,0,0:0:0:70:LR_HiHat SClick 2.wav
448,192,25892,1,0,0:0:0:0:
64,192,26057,1,0,0:0:0:0:
192,192,26221,1,0,0:0:0:0:
320,192,26386,1,0,0:0:0:70:kick.wav
448,192,26386,128,0,27705:0:0:0:0:
192,192,27046,1,0,0:0:0:40:LR_Clap kick.wav
64,192,27705,128,0,29024:0:0:0:70:LR_Tom Hit.wav
320,192,27705,1,0,0:0:0:0:
448,192,28035,1,0,0:0:0:70:kick.wav
192,192,28364,1,0,0:0:0:70:LR_HiHat SClick 2.wav
320,192,29024,128,0,30013:0:0:0:70:kick.wav
448,192,29024,1,0,0:0:0:0:
64,192,29683,1,0,0:0:0:20:LR_DS - Snare Wet High.wav
192,192,30013,128,0,30177:0:0:0:0:
64,192,30177,128,0,30342:0:0:0:0:
448,192,30342,128,0,31002:0:0:0:70:kick.wav
64,192,30672,1,0,0:0:0:70:kick.wav
192,192,30837,1,0,0:0:0:70:kick.wav
320,192,31002,128,0,31331:0:0:0:0:
64,192,31331,128,0,31661:0:0:0:0:
192,192,31661,1,0,0:0:0:70:kick.wav
448,192,31661,1,0,0:0:0:0:
64,192,31991,1,0,0:0:0:70:kick.wav
320,192,31991,1,0,0:0:0:0:
192,192,32320,128,0,32815:0:0:0:20:LR2_HatO.WAV
320,192,32815,128,0,32980:0:0:0:0:
64,192,32980,1,0,0:0:0:70:LR_Tom Hit.wav
448,192,32980,1,0,0:0:0:0:
192,192,33309,1,0,0:0:0:70:kick.wav
320,192,33309,1,0,0:0:0:0:
448,192,33639,128,0,33969:0:0:0:70:LR_HiHat SClick 2.wav
320,192,33969,128,0,34298:0:0:0:0:
64,192,34298,1,0,0:0:0:70:kick.wav
192,192,34298,1,0,0:0:0:0:
320,192,35617,128,0,36276:0:0:0:0:
192,192,36276,128,0,36936:0:0:0:0:
64,192,36936,1,0,0:0:0:0:
320,192,36936,1,0,0:0:0:0:
192,192,37265,1,0,0:0:0:0:
448,192,37265,1,0,0:0:0:0:
320,192,37595,128,0,38090:0:0:0:0:
192,192,38090,128,0,38254:0:0:0:0:
64,192,38254,1,0,0:0:0:0:
448,192,38254,1,0,0:0:0:0:
192,192,38584,1,0,0:0:0:0:
320,192,38584,1,0,0:0:0:0:
64,192,38914,128,0,39243:0:0:0:0:
448,192,39243,128,0,39573:0:0:0:0:
64,192,39573,1,0,0:0:0:0:
192,192,39573,1,0,0:0:0:0:
448,192,41221,1,0,0:0:0:0:
320,192,41304,1,0,0:0:0:0:
192,192,41386,1,0,0:0:0:0:
64,192,41469,1,0,0:0:0:0:
320,192,41551,1,0,0:0:0:0:
448,192,41633,1,0,0:0:0:0:
64,192,41716,1,0,0:0:0:0:
192,192,41798,1,0,0:0:0:0:
320,192,41881,1,0,0:0:0:0:
448,192,41963,1,0,0:0:0:0:
192,192,42046,1,0,0:0:0:0:
64,192,42128,1,0,0:0:0:0:
320,192,42210,1,0,0:0:0:70:kick.wav
448,192,42210,1,0,0:0:0:0:
448,192,42375,1,0,0:0:0:0:
192,192,42540,1,0,0:0:0:70:kick.wav
320,192,42540,1,0,0:0:0:0:
64,192,42705,1,0,0:0:0:0:
192,192,42870,1,0,0:0:0:70:kick.wav
320,192,42870,1,0,0:0:0:0:
448,192,43035,1,0,0:0:0:0:
64,192,43199,1,0,0:0:0:70:kick.wav
192,192,43199,1,0,0:0:0:0:
320,192,43364,1,0,0:0:0:0:
64,192,43529,1,0,0:0:0:70:kick.wav
448,192,43529,1,0,0:0:0:0:
64,192,43694,1,0,0:0:0:0:
192,192,43859,1,0,0:0:0:70:kick.wav
320,192,43859,1,0,0:0:0:0:
448,192,44024,1,0,0:0:0:0:
192,192,44188,1,0,0:0:0:70:kick.wav
320,192,44188,1,0,0:0:0:0:
64,192,44353,1,0,0:0:0:0:
320,192,44518,1,0,0:0:0:70:kick.wav
448,192,44518,1,0,0:0:0:0:
192,192,44683,1,0,0:0:0:0:
64,192,44848,1,0,0:0:0:70:kick.wav
320,192,44848,1,0,0:0:0:0:
320,192,45013,1,0,0:0:0:0:
192,192,45177,1,0,0:0:0:70:kick.wav
448,192,45177,1,0,0:0:0:0:
64,192,45342,1,0,0:0:0:0:
320,192,45507,1,0,0:0:0:70:kick.wav
448,192,45507,1,0,0:0:0:0:
192,192,45672,1,0,0:0:0:0:
64,192,45837,1,0,0:0:0:70:kick.wav
448,192,45837,1,0,0:0:0:0:
320,192,46002,1,0,0:0:0:0:
64,192,46166,128,0,46496:0:0:0:70:kick.wav
192,192,46166,1,0,0:0:0:0:
448,192,46496,1,0,0:0:0:20:kick.wav
192,192,46826,1,0,0:0:0:0:
320,192,46908,1,0,0:0:0:0:
448,192,46991,1,0,0:0:0:0:
192,192,47073,1,0,0:0:0:0:
64,192,47155,1,0,0:0:0:50:LR_CymbalG.wav
320,192,47155,1,0,0:0:0:0:
192,192,47320,1,0,0:0:0:0:
64,192,47485,1,0,0:0:0:70:kick.wav
448,192,47485,128,0,48804:0:0:0:0:
320,192,47650,1,0,0:0:0:0:
64,192,47815,1,0,0:0:0:70:kick.wav
192,192,47815,1,0,0:0:0:0:
320,192,47980,1,0,0:0:0:0:
64,192,48144,1,0,0:0:0:70:kick.wav
192,192,48144,1,0,0:0:0:0:
320,192,48309,1,0,0:0:0:0:
64,192,48474,1,0,0:0:0:70:kick.wav
192,192,48474,1,0,0:0:0:0:
320,192,48639,1,0,0:0:0:0:
64,192,48804,128,0,50122:0:0:0:70:kick.wav
192,192,48804,1,0,0:0:0:0:
320,192,48969,1,0,0:0:0:0:
192,192,49133,1,0,0:0:0:70:kick.wav
448,192,49133,1,0,0:0:0:0:
320,192,49298,1,0,0:0:0:0:
192,192,49463,1,0,0:0:0:70:kick.wav
448,192,49463,1,0,0:0:0:0:
320,192,49628,1,0,0:0:0:0:
192,192,49793,1,0,0:0:0:70:kick.wav
448,192,49793,1,0,0:0:0:0:
320,192,49958,1,0,0:0:0:0:
192,192,50122,128,0,51441:0:0:0:70:kick.wav
448,192,50122,1,0,0:0:0:0:
64,192,50287,1,0,0:0:0:0:
320,192,50452,1,0,0:0:0:70:kick.wav
448,192,50452,1,0,0:0:0:0:
64,192,50617,1,0,0:0:0:0:
320,192,50782,1,0,0:0:0:70:kick.wav
448,192,50782,1,0,0:0:0:0:
64,192,50947,1,0,0:0:0:0:
320,192,51112,1,0,0:0:0:70:kick.wav
448,192,51112,1,0,0:0:0:0:
64,192,51276,1,0,0:0:0:0:
320,192,51441,128,0,52760:0:0:0:70:kick.wav
448,192,51441,1,0,0:0:0:0:
192,192,51606,1,0,0:0:0:0:
64,192,51771,1,0,0:0:0:70:kick.wav
448,192,51771,1,0,0:0:0:0:
192,192,51936,1,0,0:0:0:0:
64,192,52101,1,0,0:0:0:70:kick.wav
448,192,52101,1,0,0:0:0:0:
192,192,52265,1,0,0:0:0:0:
64,192,52430,1,0,0:0:0:70:kick.wav
448,192,52430,1,0,0:0:0:0:
192,192,52595,1,0,0:0:0:0:
64,192,52760,1,0,0:0:0:70:kick.wav
448,192,52760,128,0,54079:0:0:0:0:
320,192,52925,1,0,0:0:0:0:
64,192,53090,1,0,0:0:0:70:kick.wav
192,192,53090,1,0,0:0:0:0:
320,192,53254,1,0,0:0:0:0:
64,192,53419,1,0,0:0:0:70:kick.wav
192,192,53419,1,0,0:0:0:0:
320,192,53584,1,0,0:0:0:0:
64,192,53749,1,0,0:0:0:70:kick.wav
192,192,53749,1,0,0:0:0:0:
320,192,53914,1,0,0:0:0:0:
64,192,54079,128,0,54738:0:0:0:70:kick.wav
192,192,54079,1,0,0:0:0:0:
320,192,54243,1,0,0:0:0:0:
192,192,54408,1,0,0:0:0:70:kick.wav
448,192,54408,1,0,0:0:0:0:
320,192,54573,1,0,0:0:0:0:
192,192,54738,1,0,0:0:0:70:LR_DS - Snare Wet High.wav
448,192,54738,1,0,0:0:0:100:LR_Kick Hard Fast.wav
320,192,54903,1,0,0:0:0:100:LR_Kick Hard Fast.wav
64,192,55068,1,0,0:0:0:100:LR_Kick Hard Fast.wav
448,192,55150,1,0,0:0:0:100:LR_Kick Hard Fast.wav
320,192,55232,1,0,0:0:0:100:LR_Kick Hard Fast.wav
192,192,55315,1,0,0:0:0:100:LR_Kick Hard Fast.wav
64,192,55397,1,0,0:0:0:50:LR_CymbalG.wav
448,192,55397,1,0,0:0:0:0:
320,192,55562,1,0,0:0:0:0:
192,192,55727,1,0,0:0:0:70:LR_Snare Hit Hard.wav
448,192,55727,1,0,0:0:0:0:
64,192,55892,1,0,0:0:0:0:
320,192,56057,1,0,0:0:0:70:LR_Kick Hard Fast.wav
448,192,56057,1,0,0:0:0:0:
64,192,56221,1,0,0:0:0:70:LR_Snare Hit Hard.wav
192,192,56386,1,0,0:0:0:70:LR_Kick Hard Fast.wav
320,192,56386,1,0,0:0:0:0:
448,192,56551,1,0,0:0:0:70:LR_Kick Hard Fast.wav
64,192,56716,1,0,0:0:0:70:LR_Tom Hit.wav
192,192,56716,1,0,0:0:0:0:
320,192,56881,1,0,0:0:0:70:LR_Kick Hard Fast.wav
192,192,57046,1,0,0:0:0:70:LR_Snare Hit Hard.wav
448,192,57046,1,0,0:0:0:0:
64,192,57210,1,0,0:0:0:0:
320,192,57375,1,0,0:0:0:70:LR_Snare Hit Hard.wav
448,192,57375,1,0,0:0:0:0:
192,192,57458,1,0,0:0:0:70:LR_Snare Hit Hard.wav
64,192,57540,1,0,0:0:0:70:LR_Kick Hard Fast.wav
192,192,57705,1,0,0:0:0:70:LR_Snare Hit Hard.wav
320,192,57705,1,0,0:0:0:0:
64,192,58035,1,0,0:0:0:70:LR_Kick Hard Fast.wav
448,192,58035,1,0,0:0:0:0:
192,192,58199,1,0,0:0:0:0:
64,192,58364,1,0,0:0:0:70:LR_Snare Hit Hard.wav
320,192,58364,1,0,0:0:0:0:
448,192,58529,1,0,0:0:0:0:
64,192,58694,1,0,0:0:0:70:LR_Kick Hard Fast.wav
192,192,58694,1,0,0:0:0:0:
320,192,58859,1,0,0:0:0:70:LR_Snare Hit Hard.wav
192,192,59024,1,0,0:0:0:70:LR_Kick Hard Fast.wav
448,192,59024,1,0,0:0:0:0:
64,192,59188,1,0,0:0:0:70:LR_Kick Hard Fast.wav
320,192,59353,1,0,0:0:0:70:LR_Tom Hit.wav
448,192,59353,1,0,0:0:0:0:
64,192,59518,1,0,0:0:0:70:LR_Kick Hard Fast.wav
192,192,59683,1,0,0:0:0:70:LR_Snare Hit Hard.wav
320,192,59683,1,0,0:0:0:0:
64,192,60013,1,0,0:0:0:70:LR_Snare Hit Hard.wav
448,192,60013,1,0,0:0:0:0:
192,192,60095,1,0,0:0:0:70:LR_Snare Hit Hard.wav
320,192,60177,1,0,0:0:0:70:LR_Kick Hard Fast.wav
64,192,60342,1,0,0:0:0:70:LR_Snare Hit Hard.wav
448,192,60342,1,0,0:0:0:0:
320,192,60425,1,0,0:0:0:70:LR_Snare Hit Hard.wav
192,192,60507,1,0,0:0:0:70:LR_Snare Hit Hard.wav
64,192,60590,1,0,0:0:0:70:LR_Snare Hit Hard.wav
320,192,60672,1,0,0:0:0:70:LR_Kick Hard Fast.wav
448,192,60672,1,0,0:0:0:0:
192,192,61002,1,0,0:0:0:70:LR_Snare Hit Hard.wav
320,192,61002,1,0,0:0:0:0:
448,192,61166,1,0,0:0:0:0:
64,192,61331,1,0,0:0:0:70:LR_Kick Hard Fast.wav
192,192,61331,1,0,0:0:0:0:
320,192,61496,1,0,0:0:0:70:LR_Snare Hit Hard.wav
192,192,61661,1,0,0:0:0:70:LR_Kick Hard Fast.wav
448,192,61661,1,0,0:0:0:0:
64,192,61826,1,0,0:0:0:70:LR_Kick Hard Fast.wav
320,192,61991,1,0,0:0:0:70:LR_Snare Hit Hard.wav
448,192,61991,1,0,0:0:0:0:
192,192,62155,1,0,0:0:0:70:LR_Kick Hard Fast.wav
448,192,62320,1,0,0:0:0:70:LR_Snare Hit Hard.wav
320,192,62403,1,0,0:0:0:70:LR_Snare Hit Hard.wav
64,192,62485,1,0,0:0:0:70:LR_Kick Hard Fast.wav
192,192,62568,1,0,0:0:0:50:LR_Kick Hard Fast.wav
320,192,62650,1,0,0:0:0:70:LR_Snare Hit Hard.wav
448,192,62650,1,0,0:0:0:0:
64,192,62815,1,0,0:0:0:0:
192,192,62980,1,0,0:0:0:70:LR_Snare Hit Hard.wav
448,192,62980,1,0,0:0:0:0:
320,192,63144,1,0,0:0:0:70:LR_Snare Hit Hard.wav
64,192,63309,1,0,0:0:0:70:LR_Kick Hard Fast.wav
192,192,63309,1,0,0:0:0:0:
448,192,63474,1,0,0:0:0:0:
192,192,63639,1,0,0:0:0:70:LR_Snare Hit Hard.wav
320,192,63639,1,0,0:0:0:0:
64,192,63804,1,0,0:0:0:0:
320,192,63969,1,0,0:0:0:70:LR_Kick Hard Fast.wav
448,192,63969,1,0,0:0:0:0:
64,192,64133,1,0,0:0:0:70:LR_Snare Hit Hard.wav
192,192,64298,1,0,0:0:0:70:LR_Kick Hard Fast.wav
320,192,64298,1,0,0:0:0:0:
320,192,64463,1,0,0:0:0:70:LR_Kick Hard Fast.wav
448,192,64463,1,0,0:0:0:0:
64,192,64628,1,0,0:0:0:70:LR_Tom Hit.wav
192,192,64628,1,0,0:0:0:0:
320,192,64793,1,0,0:0:0:70:LR_Kick Hard Fast.wav
448,192,64793,1,0,0:0:0:0:
64,192,64958,1,0,0:0:0:70:LR_Snare Hit Hard.wav
192,192,64958,1,0,0:0:0:0:
64,192,65287,1,0,0:0:0:70:LR_Snare Hit Hard.wav
448,192,65287,1,0,0:0:0:0:
320,192,65370,1,0,0:0:0:70:LR_Snare Hit Hard.wav
192,192,65452,1,0,0:0:0:70:LR_Kick Hard Fast.wav
320,192,65617,1,0,0:0:0:70:LR_Snare Hit Hard.wav
448,192,65617,1,0,0:0:0:0:
64,192,65782,1,0,0:0:0:70:LR_Snare Hit Hard.wav
192,192,65782,1,0,0:0:0:0:
192,192,65947,1,0,0:0:0:60:kick.wav
320,192,65947,128,0,68254:0:0:0:0:
448,192,66194,1,0,0:0:0:0:
64,192,66441,1,0,0:0:0:0:
192,192,66606,1,0,0:0:0:30:LR_Clap kick.wav
448,192,66936,1,0,0:0:0:0:
64,192,67265,1,0,0:0:0:50:kick.wav
192,192,67513,1,0,0:0:0:0:
448,192,67760,1,0,0:0:0:0:
64,192,67925,1,0,0:0:0:30:LR_DS - Snare Wet High.wav
192,192,68254,128,0,68584:0:0:0:0:
320,192,68584,128,0,69903:0:0:0:50:kick.wav
448,192,68584,1,0,0:0:0:0:
64,192,68831,1,0,0:0:0:0:
448,192,69079,1,0,0:0:0:0:
192,192,69243,1,0,0:0:0:30:LR_Clap kick.wav
64,192,69573,1,0,0:0:0:0:
192,192,69903,1,0,0:0:0:50:kick.wav
448,192,69903,1,0,0:0:0:0:
64,192,70068,1,0,0:0:0:0:
320,192,70232,1,0,0:0:0:0:
192,192,70397,1,0,0:0:0:0:
448,192,70562,1,0,0:0:0:0:
64,192,70562,128,0,70892:0:0:0:0:
320,192,70892,128,0,71221:0:0:0:0:
64,192,71221,128,0,73529:0:0:0:50:kick.wav
192,192,71221,1,0,0:0:0:0:
448,192,71469,1,0,0:0:0:0:
192,192,71716,1,0,0:0:0:0:
320,192,71881,1,0,0:0:0:30:LR_Clap kick.wav
448,192,72210,1,0,0:0:0:0:
192,192,72540,1,0,0:0:0:50:kick.wav
320,192,72787,1,0,0:0:0:0:
448,192,73035,1,0,0:0:0:0:
192,192,73199,1,0,0:0:0:30:LR_DS - Snare Wet High.wav
320,192,73529,128,0,73859:0:0:0:0:
192,192,73859,1,0,0:0:0:50:kick.wav
448,192,73859,128,0,75177:0:0:0:0:
64,192,74106,1,0,0:0:0:0:
320,192,74353,1,0,0:0:0:0:
192,192,74518,1,0,0:0:0:30:LR_Clap kick.wav
64,192,74848,1,0,0:0:0:0:
192,192,75177,128,0,75672:0:0:0:50:kick.wav
320,192,75177,1,0,0:0:0:0:
448,192,75672,128,0,75837:0:0:0:0:
192,192,75837,128,0,76496:0:0:0:30:LR_DS - Snare Wet High.wav
64,192,75837,1,0,0:0:0:0:
448,192,76496,1,0,0:0:0:50:kick.wav
320,192,76496,1,0,0:0:0:0:
64,192,76661,1,0,0:0:0:0:
192,192,76826,1,0,0:0:0:0:
320,192,76991,1,0,0:0:0:0:
448,192,77155,1,0,0:0:0:30:LR_Clap kick.wav
320,192,77320,1,0,0:0:0:0:
192,192,77485,1,0,0:0:0:0:
64,192,77650,1,0,0:0:0:0:
320,192,77815,1,0,0:0:0:50:kick.wav
448,192,77980,1,0,0:0:0:0:
192,192,78144,1,0,0:0:0:0:
320,192,78309,1,0,0:0:0:0:
64,192,78474,1,0,0:0:0:30:LR_DS - Snare Wet High.wav
192,192,78639,1,0,0:0:0:0:
320,192,78804,1,0,0:0:0:0:
448,192,78969,1,0,0:0:0:0:
64,192,79133,1,0,0:0:0:50:kick.wav
448,192,79298,1,0,0:0:0:0:
320,192,79463,1,0,0:0:0:0:
192,192,79628,1,0,0:0:0:0:
64,192,79793,1,0,0:0:0:30:LR_Clap kick.wav
192,192,79958,1,0,0:0:0:0:
320,192,80122,1,0,0:0:0:0:
448,192,80287,1,0,0:0:0:0:
64,192,80452,1,0,0:0:0:50:kick.wav
320,192,80617,1,0,0:0:0:0:
192,192,80782,1,0,0:0:0:0:
448,192,80947,1,0,0:0:0:0:
64,192,81112,128,0,81441:0:0:0:30:LR_DS - Snare Wet High.wav
448,192,81441,128,0,81771:0:0:0:0:
192,192,81771,128,0,84408:0:0:0:50:kick.wav
320,192,81771,1,0,0:0:0:0:
64,192,82018,1,0,0:0:0:0:
448,192,82265,1,0,0:0:0:0:
320,192,82430,1,0,0:0:0:30:LR_Clap kick.wav
64,192,82760,1,0,0:0:0:0:
448,192,83090,1,0,0:0:0:50:kick.wav
320,192,83337,1,0,0:0:0:0:
64,192,83584,1,0,0:0:0:0:
448,192,83749,1,0,0:0:0:30:LR_DS - Snare Wet High.wav
320,192,84079,1,0,0:0:0:0:
64,192,84408,1,0,0:0:0:50:kick.wav
448,192,84408,128,0,85727:0:0:0:0:
320,192,84655,1,0,0:0:0:0:
192,192,84903,1,0,0:0:0:0:
64,192,85068,1,0,0:0:0:30:LR_Clap kick.wav
320,192,85397,1,0,0:0:0:0:
64,192,85727,1,0,0:0:0:50:kick.wav
192,192,85727,1,0,0:0:0:0:
320,192,85974,1,0,0:0:0:0:
448,192,86221,1,0,0:0:0:0:
320,192,86386,1,0,0:0:0:30:LR_DS - Snare Wet High.wav
192,192,86551,1,0,0:0:0:0:
64,192,86716,1,0,0:0:0:0:
448,192,86881,1,0,0:0:0:0:
320,192,87293,128,0,88364:0:0:0:0:
192,192,87705,128,0,88364:0:0:0:0:
