osu file format v14

[General]
AudioFilename: audio.mp3
AudioLeadIn: 0
PreviewTime: 56398
Countdown: 0
SampleSet: Normal
StackLeniency: 0.7
Mode: 1
LetterboxInBreaks: 0
WidescreenStoryboard: 0

[Editor]
Bookmarks: 22151
DistanceSpacing: 1.7
BeatDivisor: 12
GridSize: 4
TimelineZoom: 2.700001

[Metadata]
Title:Rightfully (TV Size)
TitleUnicode:Rightfully (TV Size)
Artist:Mili
ArtistUnicode:Mili
Creator:Nao Tomori
Version:Hell Oni
Source:ゴブリンスレイヤー
Tags:goblin slayer OP japanese english Cassie Wei momocashew Yamato Kasai light novel anime opening breakcore electronic komasy radar
BeatmapID:2445404
BeatmapSetID:1172411

[Difficulty]
HPDrainRate:6
CircleSize:5
OverallDifficulty:7
ApproachRate:5
SliderMultiplier:1.4
SliderTickRate:1

[Events]
//Background and Video events
0,0,"981632.jpg",0,-20
//Break Periods
//Storyboard Layer 0 (Background)
//Storyboard Layer 1 (Fail)
//Storyboard Layer 2 (Pass)
//Storyboard Layer 3 (Foreground)
//Storyboard Layer 4 (Overlay)
//Storyboard Sound Samples

[TimingPoints]
19347,349.854227405248,4,1,0,70,1,0
19697,-110.862286867253,4,1,0,50,0,0
23138,333.333333333333,4,1,0,70,1,8
23138,-116.354234001293,4,1,0,50,0,0
23475,317.460317460317,4,1,0,70,1,0
23475,-122.171945701358,4,1,0,50,0,0
23795,333.333333333333,4,1,0,50,1,8
23795,-116.354234001293,4,1,0,50,0,0
24782,350.877192982456,4,1,0,50,1,0
24782,-110.536522301228,4,1,0,50,0,0
25136,329.67032967033,4,1,0,50,1,8
25136,-117.647058823529,4,1,0,50,0,0
25459,357.142857142857,4,1,0,50,1,8
25459,-108.597285067873,4,1,0,50,0,0
25822,291.26213592233,4,1,0,50,1,8
25822,-133.160956690369,4,1,0,50,0,0
26113,320.855614973262,4,1,0,50,1,0
26113,-120.879120879121,4,1,0,50,0,0
26428,329.67032967033,4,1,0,50,1,8
26428,-117.647058823529,4,1,0,50,0,0
27429,329.67032967033,4,1,0,50,1,0
27429,-117.647058823529,4,1,0,50,0,0
30055,329.67032967033,4,1,0,50,1,0
30055,-117.647058823529,4,1,0,50,0,0
36648,329.67032967033,4,1,0,50,1,8
36653,329.67032967033,4,1,0,30,1,0
36653,-117.647058823529,4,1,0,30,0,0
37971,329.67032967033,4,1,0,50,1,8
37971,-117.647058823529,4,1,0,50,0,0
38012,329.67032967033,4,1,0,50,1,0
38012,-117.647058823529,4,1,0,50,0,0
39291,329.67032967033,4,1,0,50,1,0
39291,-117.647058823529,4,1,0,50,0,0
42258,-99.9999999999999,4,1,0,50,0,0
43247,329.67032967033,4,1,0,70,1,8
43247,-99.9999999999999,4,1,0,70,0,0
43257,329.67032967033,4,1,0,70,1,0
43257,-99.9999999999999,4,1,0,70,0,0
47872,-99.009900990099,4,1,0,70,0,0
47954,-97.5609756097561,4,1,0,70,0,0
48037,-95.6937799043062,4,1,0,70,0,0
48119,-93.4579439252336,4,1,0,70,0,0
48202,-90.9090909090909,4,1,0,70,0,0
48366,-100,4,1,0,70,0,0
56114,-98.0392156862745,4,1,0,70,0,0
56196,-96.1538461538461,4,1,0,70,0,0
56278,-94.3396226415094,4,1,0,70,0,0
56361,-92.5925925925926,4,1,0,70,0,0
56443,-90.9090909090909,4,1,0,70,0,1
66993,-90.9090909090909,4,1,0,80,0,0
67158,-117.647058823529,4,1,0,50,0,0
87621,444.444444444444,4,1,0,50,1,8
87621,-87.260034904014,4,1,0,50,0,0
87818,357.142857142857,4,1,0,50,1,8
87818,-108.597285460986,4,1,0,50,0,0
88176,352.941176470588,4,1,0,50,1,0
88176,-109.888902319755,4,1,0,50,0,0
88528,-109.888902319755,4,1,0,25,0,0

[HitObjects]
163,195,22145,5,4,0:0:0:0:
163,195,22495,1,0,0:0:0:0:
163,195,22845,1,8,0:0:0:0:
163,195,23138,1,0,0:0:0:0:
163,195,23304,1,8,0:0:0:0:
163,195,23475,1,0,0:0:0:0:
162,195,23795,1,0,0:0:0:0:
163,195,24128,1,8,0:0:0:0:
193,171,24461,1,0,0:0:0:0:
193,171,24628,1,8,0:0:0:0:
181,169,24782,1,0,0:0:0:0:
181,169,25136,1,8,0:0:0:0:
181,169,25459,1,0,0:0:0:0:
181,169,25822,1,8,0:0:0:0:
181,169,25967,1,8,0:0:0:0:
181,169,26113,1,0,0:0:0:0:
181,169,26273,1,8,0:0:0:0:
181,169,26428,1,0,0:0:0:0:
181,169,26592,1,0,0:0:0:0:
181,169,26757,1,8,0:0:0:0:
181,169,26922,1,8,0:0:0:0:
181,169,27087,1,0,0:0:0:0:
181,169,27252,1,8,0:0:0:0:
181,169,27429,1,0,0:0:0:0:
268,186,28088,1,8,0:0:0:0:
223,148,28418,1,0,0:0:0:0:
217,158,28582,1,8,0:0:0:0:
217,158,28747,1,0,0:0:0:0:
216,158,29077,1,0,0:0:0:0:
216,158,29242,1,0,0:0:0:0:
211,156,29407,1,8,0:0:0:0:
205,158,29736,5,8,0:0:0:0:
204,156,30055,1,0,0:0:0:0:
52,251,30714,5,8,0:0:0:0:
150,120,31044,1,0,0:0:0:0:
150,120,31208,1,8,0:0:0:0:
150,120,31373,1,0,0:0:0:0:
150,120,31703,1,0,0:0:0:0:
150,120,31868,1,8,0:0:0:0:
150,120,32033,1,0,0:0:0:0:
150,120,32197,1,0,0:0:0:0:
150,120,32362,1,8,0:0:0:0:
150,120,32527,1,8,0:0:0:0:
150,120,32609,1,8,0:0:0:0:
156,112,32692,1,0,0:0:0:0:
156,112,33022,1,0,0:0:0:0:
156,112,33351,1,8,0:0:0:0:
156,112,33846,1,8,0:0:0:0:
156,112,33901,1,8,0:0:0:0:
200,128,33956,1,8,0:0:0:0:
200,128,34011,1,0,0:0:0:0:
203,149,34340,1,0,0:0:0:0:
198,155,34670,1,8,0:0:0:0:
197,155,35000,1,8,0:0:0:0:
176,112,35082,1,8,0:0:0:0:
253,93,35164,1,0,0:0:0:0:
176,112,35247,1,8,0:0:0:0:
176,112,35329,1,0,0:0:0:0:
124,152,36653,1,8,0:0:0:0:
121,153,37312,1,8,0:0:0:0:
269,124,38012,1,0,0:0:0:0:
217,191,38341,1,0,0:0:0:0:
217,191,38671,1,8,0:0:0:0:
217,191,39291,1,0,0:0:0:0:
217,191,39620,1,0,0:0:0:0:
208,191,39950,1,8,0:0:0:0:
208,191,40609,1,0,0:0:0:0:
256,192,42422,12,0,43082,0:0:0:0:
151,166,43257,5,4,0:0:0:0:
155,200,43421,1,8,0:0:0:0:
155,200,43504,1,8,0:0:0:0:
155,200,43586,1,0,0:0:0:0:
155,200,43669,1,0,0:0:0:0:
155,200,43751,1,8,0:0:0:0:
155,200,43833,1,0,0:0:0:0:
155,200,43916,1,8,0:0:0:0:
155,200,43998,1,8,0:0:0:0:
155,200,44081,1,0,0:0:0:0:
155,200,44163,1,0,0:0:0:0:
155,200,44246,1,8,0:0:0:0:
142,204,44328,1,0,0:0:0:0:
142,204,44410,1,8,0:0:0:0:
142,204,44493,1,8,0:0:0:0:
142,204,44575,1,0,0:0:0:0:
142,204,44740,1,0,0:0:0:0:
142,204,44822,1,0,0:0:0:0:
142,204,44905,1,8,0:0:0:0:
142,204,44987,1,0,0:0:0:0:
142,204,45070,1,0,0:0:0:0:
142,204,45152,1,0,0:0:0:0:
142,204,45235,1,8,0:0:0:0:
131,203,45317,1,8,0:0:0:0:
131,204,45399,1,0,0:0:0:0:
131,203,45482,1,0,0:0:0:0:
131,204,45564,1,8,0:0:0:0:
131,203,45647,1,0,0:0:0:0:
131,204,45729,1,0,0:0:0:0:
131,203,45811,1,0,0:0:0:0:
131,204,45894,1,8,0:0:0:0:
131,203,45976,1,0,0:0:0:0:
131,204,46059,1,8,0:0:0:0:
131,203,46141,1,8,0:0:0:0:
131,204,46224,1,0,0:0:0:0:
131,204,46388,1,0,0:0:0:0:
131,203,46471,1,0,0:0:0:0:
131,204,46553,1,8,0:0:0:0:
131,203,46636,1,8,0:0:0:0:
131,204,46718,1,0,0:0:0:0:
131,203,46800,1,8,0:0:0:0:
131,204,46883,1,0,0:0:0:0:
131,203,46965,1,8,0:0:0:0:
131,204,47048,1,8,0:0:0:0:
175,133,47130,1,8,0:0:0:0:
166,153,47213,1,4,0:0:0:0:
181,222,47542,1,0,0:0:0:0:
181,222,47872,1,8,0:0:0:0:
181,222,47954,1,0,0:0:0:0:
173,230,48037,1,0,0:0:0:0:
173,230,48119,1,0,0:0:0:0:
173,230,48202,1,12,0:0:0:0:
173,230,48531,1,8,0:0:0:0:
173,230,48614,1,8,0:0:0:0:
173,230,48696,1,8,0:0:0:0:
192,118,48778,1,8,0:0:0:0:
189,124,48861,1,0,0:0:0:0:
162,78,48943,1,0,0:0:0:0:
203,115,49026,1,0,0:0:0:0:
194,120,49108,1,0,0:0:0:0:
212,93,49191,1,8,0:0:0:0:
212,93,49273,1,8,0:0:0:0:
206,96,49355,1,0,0:0:0:0:
199,110,49438,1,0,0:0:0:0:
199,110,49520,1,8,0:0:0:0:
199,110,49603,1,8,0:0:0:0:
199,110,49685,1,8,0:0:0:0:
199,110,49767,1,8,0:0:0:0:
199,110,49850,1,0,0:0:0:0:
190,113,50015,1,0,0:0:0:0:
190,113,50097,1,0,0:0:0:0:
190,113,50180,1,8,0:0:0:0:
190,113,50262,1,8,0:0:0:0:
190,113,50344,1,8,0:0:0:0:
190,113,50427,1,8,0:0:0:0:
190,113,50509,1,0,0:0:0:0:
190,113,50592,1,0,0:0:0:0:
190,113,50674,1,8,0:0:0:0:
186,118,50757,1,0,0:0:0:0:
186,118,50839,1,8,0:0:0:0:
186,118,50921,1,8,0:0:0:0:
186,118,51004,1,0,0:0:0:0:
186,118,51086,1,0,0:0:0:0:
167,118,51169,1,8,0:0:0:0:
167,118,51333,1,0,0:0:0:0:
167,118,51416,1,0,0:0:0:0:
167,118,51498,1,0,0:0:0:0:
167,118,51581,1,0,0:0:0:0:
168,105,51663,1,8,0:0:0:0:
168,105,51746,1,8,0:0:0:0:
168,105,51828,1,8,0:0:0:0:
168,105,51910,1,8,0:0:0:0:
168,105,51993,1,0,0:0:0:0:
168,110,52075,1,0,0:0:0:0:
168,110,52158,1,8,0:0:0:0:
168,110,52240,1,8,0:0:0:0:
168,110,52322,1,0,0:0:0:0:
168,110,52405,1,0,0:0:0:0:
160,116,52487,1,8,0:0:0:0:
160,116,52652,1,0,0:0:0:0:
160,116,52735,1,8,0:0:0:0:
160,116,52817,1,0,0:0:0:0:
160,116,52982,1,8,0:0:0:0:
160,116,53064,1,8,0:0:0:0:
160,116,53147,1,0,0:0:0:0:
160,116,53229,1,0,0:0:0:0:
160,116,53311,1,8,0:0:0:0:
160,116,53394,1,0,0:0:0:0:
160,116,53476,1,8,0:0:0:0:
160,116,53559,1,0,0:0:0:0:
158,122,53641,1,0,0:0:0:0:
157,122,53724,1,0,0:0:0:0:
158,122,53806,1,8,0:0:0:0:
158,122,53971,1,0,0:0:0:0:
158,122,54053,1,0,0:0:0:0:
148,122,54136,1,8,0:0:0:0:
148,122,54300,1,0,0:0:0:0:
148,122,54383,1,0,0:0:0:0:
148,122,54465,1,8,0:0:0:0:
148,122,54548,1,8,0:0:0:0:
148,122,54630,1,0,0:0:0:0:
148,122,54713,1,8,0:0:0:0:
148,122,54795,1,0,0:0:0:0:
156,35,54877,1,0,0:0:0:0:
148,122,54960,1,0,0:0:0:0:
148,122,55042,1,0,0:0:0:0:
148,122,55125,1,8,0:0:0:0:
148,122,55289,1,8,0:0:0:0:
145,115,55372,1,8,0:0:0:0:
148,122,55454,1,0,0:0:0:0:
179,69,55537,1,8,0:0:0:0:
144,118,55619,1,8,0:0:0:0:
144,118,55702,1,8,0:0:0:0:
144,118,55784,1,4,0:0:0:0:
144,118,55949,1,4,0:0:0:0:
220,107,56114,1,0,0:0:0:0:
290,103,56196,1,0,0:0:0:0:
290,103,56278,1,0,0:0:0:0:
290,103,56361,1,0,0:0:0:0:
290,103,56443,1,12,0:0:0:0:
343,149,56608,1,0,0:0:0:0:
343,149,56773,1,8,0:0:0:0:
219,111,56938,1,0,0:0:0:0:
219,111,57020,1,0,0:0:0:0:
328,66,57103,1,8,0:0:0:0:
328,66,57158,1,8,0:0:0:0:
328,66,57213,1,8,0:0:0:0:
322,67,57267,1,0,0:0:0:0:
238,205,57350,1,0,0:0:0:0:
327,53,57432,1,8,0:0:0:0:
318,59,57597,1,0,0:0:0:0:
308,58,57762,1,8,0:0:0:0:
342,102,57844,1,8,0:0:0:0:
292,67,57927,1,0,0:0:0:0:
292,66,57982,1,0,0:0:0:0:
292,67,58037,1,0,0:0:0:0:
262,111,58092,1,8,0:0:0:0:
206,115,58257,1,8,0:0:0:0:
284,125,58311,1,8,0:0:0:0:
279,123,58366,1,8,0:0:0:0:
275,120,58421,1,0,0:0:0:0:
347,112,58504,1,0,0:0:0:0:
335,120,58586,1,8,0:0:0:0:
338,78,58751,1,0,0:0:0:0:
231,166,58833,1,0,0:0:0:0:
315,85,58916,1,8,0:0:0:0:
288,91,59081,1,0,0:0:0:0:
238,65,59246,1,8,0:0:0:0:
238,65,59287,1,8,0:0:0:0:
238,65,59410,1,8,0:0:0:0:
238,65,59452,1,8,0:0:0:0:
228,127,59575,1,0,0:0:0:0:
228,127,59658,1,8,0:0:0:0:
215,121,59740,1,0,0:0:0:0:
162,71,59822,1,0,0:0:0:0:
215,121,59905,1,8,0:0:0:0:
196,134,60070,1,0,0:0:0:0:
194,140,60235,1,8,0:0:0:0:
194,140,60317,1,8,0:0:0:0:
194,140,60399,1,0,0:0:0:0:
299,83,60482,1,0,0:0:0:0:
194,140,60564,1,0,0:0:0:0:
194,140,60647,1,0,0:0:0:0:
194,140,60729,1,8,0:0:0:0:
194,140,60894,1,8,0:0:0:0:
363,109,60949,1,8,0:0:0:0:
358,115,61004,1,8,0:0:0:0:
332,153,61059,1,0,0:0:0:0:
365,149,61141,1,0,0:0:0:0:
365,149,61224,1,8,0:0:0:0:
130,49,61388,1,8,0:0:0:0:
129,76,61471,1,0,0:0:0:0:
126,74,61553,1,8,0:0:0:0:
124,72,61636,1,8,0:0:0:0:
153,94,61718,1,0,0:0:0:0:
296,29,61883,1,0,0:0:0:0:
343,52,61938,1,0,0:0:0:0:
170,88,61993,1,0,0:0:0:0:
174,74,62048,1,8,0:0:0:0:
242,98,62130,1,0,0:0:0:0:
188,76,62213,1,8,0:0:0:0:
188,76,62295,1,8,0:0:0:0:
192,53,62377,1,0,0:0:0:0:
172,65,62542,1,8,0:0:0:0:
172,65,62707,1,0,0:0:0:0:
172,65,62789,1,0,0:0:0:0:
172,65,62872,1,8,0:0:0:0:
172,65,62954,1,0,0:0:0:0:
172,65,63037,1,8,0:0:0:0:
196,27,63092,1,8,0:0:0:0:
297,97,63147,1,8,0:0:0:0:
284,117,63202,1,0,0:0:0:0:
307,108,63284,1,0,0:0:0:0:
297,97,63366,1,8,0:0:0:0:
199,38,63449,1,8,0:0:0:0:
210,99,63531,1,0,0:0:0:0:
210,99,63614,1,0,0:0:0:0:
214,86,63696,1,8,0:0:0:0:
214,86,63861,1,0,0:0:0:0:
214,86,63916,1,0,0:0:0:0:
213,30,63971,1,0,0:0:0:0:
214,86,64026,1,8,0:0:0:0:
214,86,64191,1,8,0:0:0:0:
284,69,64273,1,8,0:0:0:0:
207,92,64355,1,0,0:0:0:0:
207,92,64520,1,0,0:0:0:0:
207,92,64685,1,8,0:0:0:0:
335,45,64740,1,8,0:0:0:0:
273,80,64795,1,8,0:0:0:0:
205,62,64850,1,0,0:0:0:0:
205,62,64905,1,0,0:0:0:0:
205,62,64960,1,0,0:0:0:0:
205,62,65015,1,8,0:0:0:0:
296,96,65180,1,0,0:0:0:0:
339,112,65235,1,0,0:0:0:0:
339,112,65289,1,0,0:0:0:0:
339,112,65344,1,8,0:0:0:0:
413,110,65427,1,0,0:0:0:0:
406,109,65509,1,8,0:0:0:0:
406,109,65592,1,8,0:0:0:0:
118,53,65674,1,0,0:0:0:0:
118,53,65839,1,0,0:0:0:0:
214,246,65921,1,0,0:0:0:0:
208,81,66004,1,8,0:0:0:0:
118,53,66059,1,8,0:0:0:0:
118,53,66114,1,8,0:0:0:0:
118,53,66169,1,0,0:0:0:0:
263,127,66251,1,0,0:0:0:0:
118,53,66333,1,8,0:0:0:0:
184,127,66416,1,8,0:0:0:0:
118,53,66498,1,0,0:0:0:0:
224,67,66553,1,0,0:0:0:0:
118,53,66608,1,0,0:0:0:0:
114,44,66663,1,8,0:0:0:0:
113,42,66746,1,8,0:0:0:0:
114,44,66828,1,8,0:0:0:0:
113,42,66910,1,8,0:0:0:0:
114,44,66993,1,4,0:0:0:0:
379,167,67240,1,0,0:0:0:0:
376,166,67487,1,0,0:0:0:0:
376,166,67652,1,8,0:0:0:0:
376,166,67982,1,0,0:0:0:0:
376,167,68311,1,0,0:0:0:0:
376,166,68559,1,8,0:0:0:0:
376,167,68641,1,0,0:0:0:0:
291,160,68806,1,0,0:0:0:0:
291,160,68971,1,8,0:0:0:0:
291,158,69300,1,0,0:0:0:0:
271,143,69630,1,8,0:0:0:0:
269,144,69877,1,8,0:0:0:0:
265,145,70125,1,0,0:0:0:0:
265,145,70289,1,8,0:0:0:0:
264,145,70619,1,8,0:0:0:0:
263,142,70949,1,0,0:0:0:0:
263,142,71114,1,8,0:0:0:0:
263,142,71278,1,0,0:0:0:0:
263,142,71443,1,8,0:0:0:0:
263,142,71526,1,8,0:0:0:0:
256,143,71608,1,0,0:0:0:0:
256,143,71773,1,0,0:0:0:0:
246,139,71938,1,8,0:0:0:0:
246,139,72267,1,0,0:0:0:0:
246,139,72515,1,8,0:0:0:0:
246,139,72762,1,8,0:0:0:0:
246,139,72927,1,0,0:0:0:0:
246,139,73257,1,8,0:0:0:0:
210,112,73586,1,0,0:0:0:0:
214,113,73833,1,8,0:0:0:0:
214,113,74081,1,0,0:0:0:0:
214,113,74246,1,8,0:0:0:0:
214,113,74575,1,0,0:0:0:0:
214,113,74905,1,0,0:0:0:0:
333,206,75152,1,8,0:0:0:0:
333,206,75235,1,0,0:0:0:0:
333,206,75399,1,0,0:0:0:0:
332,200,75564,1,8,0:0:0:0:
332,200,75894,1,8,0:0:0:0:
329,199,76224,1,0,0:0:0:0:
209,84,76471,1,0,0:0:0:0:
329,199,76553,1,8,0:0:0:0:
329,199,76718,1,8,0:0:0:0:
329,199,76883,1,0,0:0:0:0:
324,185,77542,1,0,0:0:0:0:
323,185,77789,1,0,0:0:0:0:
323,185,77872,1,8,0:0:0:0:
323,185,78037,1,8,0:0:0:0:
251,98,78202,1,0,0:0:0:0:
250,98,78531,1,8,0:0:0:0:
249,101,78861,1,0,0:0:0:0:
247,104,79108,1,8,0:0:0:0:
247,104,79191,1,0,0:0:0:0:
247,104,79355,1,8,0:0:0:0:
247,104,79520,1,0,0:0:0:0:
246,105,79850,1,8,0:0:0:0:
150,63,80015,1,0,0:0:0:0:
150,63,80097,1,0,0:0:0:0:
150,63,80180,1,8,0:0:0:0:
148,64,80427,1,0,0:0:0:0:
148,64,80509,1,8,0:0:0:0:
148,64,80674,1,0,0:0:0:0:
148,64,80839,1,8,0:0:0:0:
148,69,81004,1,8,0:0:0:0:
148,69,81169,1,0,0:0:0:0:
148,69,81498,1,8,0:0:0:0:
189,81,81663,1,0,0:0:0:0:
189,81,81746,1,0,0:0:0:0:
189,81,81828,1,8,0:0:0:0:
189,81,81993,1,8,0:0:0:0:
189,81,82158,1,0,0:0:0:0:
189,81,82240,1,8,0:0:0:0:
189,81,82322,1,0,0:0:0:0:
125,100,82405,1,0,0:0:0:0:
189,81,82487,1,8,0:0:0:0:
189,81,82817,1,0,0:0:0:0:
189,81,83064,1,0,0:0:0:0:
189,81,83147,1,8,0:0:0:0:
189,81,83311,1,8,0:0:0:0:
189,81,83476,1,0,0:0:0:0:
189,81,83806,1,0,0:0:0:0:
211,91,84136,1,8,0:0:0:0:
211,91,84383,1,0,0:0:0:0:
211,91,84465,1,8,0:0:0:0:
169,30,84630,1,0,0:0:0:0:
176,87,84795,1,8,0:0:0:0:
109,116,84877,1,0,0:0:0:0:
176,87,84960,1,8,0:0:0:0:
104,115,85042,1,8,0:0:0:0:
176,87,85125,1,0,0:0:0:0:
144,152,85454,1,0,0:0:0:0:
143,150,85702,1,0,0:0:0:0:
143,150,85784,1,8,0:0:0:0:
143,150,85949,1,0,0:0:0:0:
143,150,86114,1,8,0:0:0:0:
143,150,86443,1,0,0:0:0:0:
143,150,86773,1,8,0:0:0:0:
143,150,87020,1,8,0:0:0:0:
143,150,87103,1,0,0:0:0:0:
143,150,87267,1,8,0:0:0:0:
143,150,87432,1,8,0:0:0:0:
167,74,87818,1,0,0:0:0:0:
229,207,87996,1,8,0:0:0:0:
391,151,88352,1,0,0:0:0:0:
256,192,88528,12,0,89587,0:0:0:0:
