osu file format v14

[General]
AudioFilename: audio.mp3
AudioLeadIn: 0
PreviewTime: 56398
Countdown: 0
SampleSet: Normal
StackLeniency: 0.7
Mode: 1
LetterboxInBreaks: 0
WidescreenStoryboard: 1

[Editor]
DistanceSpacing: 1.7
BeatDivisor: 12
GridSize: 4
TimelineZoom: 1.8

[Metadata]
Title:Rightfully (TV Size)
TitleUnicode:Rightfully (TV Size)
Artist:Mili
ArtistUnicode:Mili
Creator:Nao Tomori
Version:Futsuu
Source:ゴブリンスレイヤー
Tags:goblin slayer OP japanese english Cassie Wei momocashew Yamato Kasai light novel anime opening breakcore electronic komasy radar
BeatmapID:2445444
BeatmapSetID:1172411

[Difficulty]
HPDrainRate:7
CircleSize:5
OverallDifficulty:4
ApproachRate:5
SliderMultiplier:1.4
SliderTickRate:1

[Events]
//Background and Video events
0,0,"981632.jpg",0,-20
//Break Periods
//Storyboard Layer 0 (Background)
//Storyboard Layer 1 (Fail)
//Storyboard Layer 2 (Pass)
//Storyboard Layer 3 (Foreground)
//Storyboard Layer 4 (Overlay)
//Storyboard Sound Samples

[TimingPoints]
19347,349.854227405248,4,1,0,70,1,0
22123,-110.862286867253,4,1,0,50,0,0
23138,333.333333333333,4,1,0,70,1,8
23138,-116.354234001293,4,1,0,50,0,0
23475,317.460317460317,4,1,0,70,1,0
23475,-122.171945701358,4,1,0,50,0,0
23795,333.333333333333,4,1,0,70,1,8
23795,-116.354234001293,4,1,0,50,0,0
24782,350.877192982456,4,1,0,70,1,0
24782,-110.536522301228,4,1,0,50,0,0
25136,329.67032967033,4,1,0,70,1,8
25136,-117.647058823529,4,1,0,50,0,0
25459,357.142857142857,4,1,0,70,1,8
25459,-108.597285067873,4,1,0,50,0,0
25822,291.26213592233,4,1,0,70,1,8
25822,-133.160956690369,4,1,0,50,0,0
26113,320.855614973262,4,1,0,70,1,0
26113,-120.879120879121,4,1,0,50,0,0
26428,329.67032967033,4,1,0,70,1,8
26428,-117.647058823529,4,1,0,50,0,0
27429,329.67032967033,4,1,0,70,1,0
27429,-117.647058823529,4,1,0,50,0,0
30055,329.67032967033,4,1,0,70,1,0
30055,-117.647058823529,4,1,0,50,0,0
36648,329.67032967033,4,1,0,50,1,8
36653,329.67032967033,4,1,0,70,1,0
36653,-117.647058823529,4,1,0,30,0,0
37971,329.67032967033,4,1,0,70,1,8
37971,-117.647058823529,4,1,0,50,0,0
38012,329.67032967033,4,1,0,70,1,0
38012,-117.647058823529,4,1,0,50,0,0
39291,329.67032967033,4,1,0,70,1,0
39291,-117.647058823529,4,1,0,50,0,0
42258,-99.9999999999999,4,1,0,50,0,0
43247,329.67032967033,4,1,0,70,1,8
43247,-99.9999999999999,4,1,0,70,0,0
43257,329.67032967033,4,1,0,70,1,0
43257,-99.9999999999999,4,1,0,70,0,0
48202,-94.3396226415094,4,1,0,70,0,0
48366,-100,4,1,0,70,0,0
56114,-99.009900990099,4,1,0,70,0,0
56443,-95.2380952380952,4,1,0,70,0,1
66993,-95.2380952380952,4,1,0,80,0,0
67158,-117.647058823529,4,1,0,50,0,0
87621,444.444444444444,4,1,0,50,1,8
87621,-87.260034904014,4,1,0,50,0,0
87818,357.142857142857,4,1,0,50,1,8
87818,-108.597285460986,4,1,0,50,0,0
88176,352.941176470588,4,1,0,50,1,0
88176,-109.888902319755,4,1,0,50,0,0
88528,-109.888902319755,4,1,0,25,0,0

[HitObjects]
194,175,22145,5,4,0:0:0:0:
198,174,22495,1,0,0:0:0:0:
203,202,23475,1,0,0:0:0:0:
203,202,23795,1,0,0:0:0:0:
203,202,24782,1,0,0:0:0:0:
203,202,25459,1,8,0:0:0:0:
203,202,26113,1,0,0:0:0:0:
203,202,26428,1,0,0:0:0:0:
258,183,26757,1,8,0:0:0:0:
203,202,27429,1,0,0:0:0:0:
203,202,28088,1,8,0:0:0:0:
239,182,28747,1,0,0:0:0:0:
239,182,29077,1,0,0:0:0:0:
233,188,30055,1,0,0:0:0:0:
230,188,30714,1,8,0:0:0:0:
230,188,31373,1,0,0:0:0:0:
230,188,31703,1,0,0:0:0:0:
230,188,32033,1,8,0:0:0:0:
228,188,32692,1,4,0:0:0:0:
205,129,33022,1,0,0:0:0:0:
265,109,33351,1,8,0:0:0:0:
260,172,34011,1,0,0:0:0:0:
260,172,34340,1,0,0:0:0:0:
225,152,34670,1,8,0:0:0:0:
256,179,35329,1,0,0:0:0:0:
253,183,38012,1,0,0:0:0:0:
253,183,38341,1,0,0:0:0:0:
223,192,39291,1,0,0:0:0:0:
223,192,39620,1,0,0:0:0:0:
220,191,40609,1,0,0:0:0:0:
214,191,43257,1,12,0:0:0:0:
240,160,43751,1,8,0:0:0:0:
240,160,43916,1,0,0:0:0:0:
237,165,44246,1,8,0:0:0:0:
237,165,44410,1,8,0:0:0:0:
237,165,44575,1,0,0:0:0:0:
236,143,44905,1,8,0:0:0:0:
235,155,45235,1,0,0:0:0:0:
227,158,45564,1,0,0:0:0:0:
227,158,45894,1,8,0:0:0:0:
227,158,46059,1,8,0:0:0:0:
218,165,46388,1,0,0:0:0:0:
218,165,46553,1,8,0:0:0:0:
218,165,46718,1,8,0:0:0:0:
218,165,46883,1,0,0:0:0:0:
194,120,47213,1,4,0:0:0:0:
173,106,48202,1,12,0:0:0:0:
171,107,48531,1,0,0:0:0:0:
139,158,48861,1,0,0:0:0:0:
139,156,49191,1,0,0:0:0:0:
220,138,49520,1,0,0:0:0:0:
220,138,49685,1,8,0:0:0:0:
220,138,49850,1,0,0:0:0:0:
220,138,50180,1,0,0:0:0:0:
220,138,50509,1,0,0:0:0:0:
214,141,50674,1,8,0:0:0:0:
214,141,50839,1,0,0:0:0:0:
214,141,51004,1,0,0:0:0:0:
209,143,51169,1,8,0:0:0:0:
208,143,51828,1,0,0:0:0:0:
208,143,52158,1,8,0:0:0:0:
208,143,52322,1,8,0:0:0:0:
208,143,52487,1,0,0:0:0:0:
212,144,52817,1,0,0:0:0:0:
212,144,53147,1,0,0:0:0:0:
224,101,53476,1,0,0:0:0:0:
216,95,53641,1,8,0:0:0:0:
216,95,53806,1,0,0:0:0:0:
242,224,54465,1,0,0:0:0:0:
242,224,54630,1,0,0:0:0:0:
234,224,54795,1,8,0:0:0:0:
212,204,55125,1,8,0:0:0:0:
207,206,55454,1,8,0:0:0:0:
207,206,55619,1,8,0:0:0:0:
199,200,55784,1,4,0:0:0:0:
199,195,56114,1,4,0:0:0:0:
199,195,56443,1,12,0:0:0:0:
141,128,56773,1,8,0:0:0:0:
181,146,57103,1,0,0:0:0:0:
191,169,57432,1,0,0:0:0:0:
265,190,57597,1,0,0:0:0:0:
182,149,57762,1,8,0:0:0:0:
181,163,58092,1,8,0:0:0:0:
171,161,58257,1,0,0:0:0:0:
198,104,58421,1,8,0:0:0:0:
193,50,58751,1,0,0:0:0:0:
194,141,59081,1,8,0:0:0:0:
173,145,59740,1,8,0:0:0:0:
222,92,59905,1,0,0:0:0:0:
221,123,60070,1,8,0:0:0:0:
221,123,60235,1,8,0:0:0:0:
221,123,60399,1,0,0:0:0:0:
221,123,60729,1,8,0:0:0:0:
221,123,61059,1,0,0:0:0:0:
214,122,61224,1,8,0:0:0:0:
179,77,61388,1,0,0:0:0:0:
176,70,61553,1,8,0:0:0:0:
176,70,61718,1,0,0:0:0:0:
252,127,62377,1,0,0:0:0:0:
243,128,62707,1,8,0:0:0:0:
243,128,62872,1,0,0:0:0:0:
243,128,63037,1,8,0:0:0:0:
243,128,63366,1,8,0:0:0:0:
241,102,63531,1,8,0:0:0:0:
225,92,63696,1,0,0:0:0:0:
225,94,64026,1,8,0:0:0:0:
208,124,64355,1,0,0:0:0:0:
222,149,65015,1,8,0:0:0:0:
222,149,65180,1,0,0:0:0:0:
222,149,65344,1,8,0:0:0:0:
217,145,65674,1,0,0:0:0:0:
212,150,65839,1,0,0:0:0:0:
212,150,66004,1,8,0:0:0:0:
179,53,66169,1,0,0:0:0:0:
212,142,66333,1,8,0:0:0:0:
207,121,66663,1,8,0:0:0:0:
203,136,66828,1,8,0:0:0:0:
203,136,66993,1,0,0:0:0:0:
291,238,67652,1,8,0:0:0:0:
291,238,68311,1,0,0:0:0:0:
291,238,68971,1,8,0:0:0:0:
291,238,69300,1,8,0:0:0:0:
291,238,69630,1,0,0:0:0:0:
291,238,70289,1,8,0:0:0:0:
291,241,70949,1,8,0:0:0:0:
291,241,71114,1,0,0:0:0:0:
291,241,71278,1,8,0:0:0:0:
291,241,71608,1,0,0:0:0:0:
208,144,71938,1,0,0:0:0:0:
208,144,72267,1,0,0:0:0:0:
208,144,72927,1,8,0:0:0:0:
208,144,73586,1,0,0:0:0:0:
208,144,74246,1,8,0:0:0:0:
208,144,74575,1,0,0:0:0:0:
208,144,74905,1,0,0:0:0:0:
208,143,75564,1,8,0:0:0:0:
204,148,76224,1,0,0:0:0:0:
204,148,76718,1,8,0:0:0:0:
204,148,76883,1,0,0:0:0:0:
203,150,77542,1,0,0:0:0:0:
203,150,78202,1,8,0:0:0:0:
203,150,78531,1,0,0:0:0:0:
203,150,78861,1,8,0:0:0:0:
203,150,79520,1,8,0:0:0:0:
203,150,79850,1,0,0:0:0:0:
203,150,80180,1,0,0:0:0:0:
222,125,80839,1,8,0:0:0:0:
219,132,81498,1,8,0:0:0:0:
219,132,81828,1,8,0:0:0:0:
215,123,82158,1,8,0:0:0:0:
215,123,82322,1,0,0:0:0:0:
215,123,82487,1,8,0:0:0:0:
207,139,82817,1,0,0:0:0:0:
207,137,83476,1,8,0:0:0:0:
208,134,84136,1,0,0:0:0:0:
208,131,84795,1,8,0:0:0:0:
208,131,85125,1,0,0:0:0:0:
209,155,85454,1,8,0:0:0:0:
205,149,86114,1,0,0:0:0:0:
205,153,86443,1,0,0:0:0:0:
205,153,86773,1,8,0:0:0:0:
205,153,87432,1,0,0:0:0:0:
205,153,88352,1,0,0:0:0:0:
256,192,88528,12,0,89587,0:0:0:0:
