osu file format v14

[General]
AudioFilename: audio.mp3
AudioLeadIn: 0
PreviewTime: 55881
Countdown: 0
SampleSet: Normal
StackLeniency: 0.7
Mode: 1
LetterboxInBreaks: 0
WidescreenStoryboard: 0

[Editor]
Bookmarks: 662,21760
DistanceSpacing: 1
BeatDivisor: 4
GridSize: 32
TimelineZoom: 1.7

[Metadata]
Title:Rightfully (TV Size)
TitleUnicode:Rightfully (TV Size)
Artist:Mili
ArtistUnicode:Mili
Creator:Blackener
Version:Merciless Oni
Source:ゴブリンスレイヤー
Tags:goblin slayer momocashew Yamato Kasai Yukihito Mitomo Shoto Yoshida Ame Yamaguchi Ao Fujimori anime japanese opening op
BeatmapID:1815751
BeatmapSetID:868721

[Difficulty]
HPDrainRate:5.5
CircleSize:5
OverallDifficulty:6
ApproachRate:5
SliderMultiplier:1.4
SliderTickRate:1

[Events]
//Background and Video events
0,0,"bg.jpg",0,50
//Break Periods
//Storyboard Layer 0 (Background)
//Storyboard Layer 1 (Fail)
//Storyboard Layer 2 (Pass)
//Storyboard Layer 3 (Foreground)
//Storyboard Sound Samples

[TimingPoints]
662,329.67032967033,4,1,0,30,1,0
662,-133.333333333333,4,1,0,30,0,0
21760,-133.333333333333,4,1,0,50,0,0
42859,-100,4,1,0,65,0,0
55387,-99.009900990099,4,1,0,65,0,0
55469,-98.0392156862745,4,1,0,65,0,0
55552,-97.0873786407767,4,1,0,65,0,0
55634,-96.1538461538461,4,1,0,65,0,0
55716,-95.2380952380952,4,1,0,65,0,0
55799,-94.3396226415094,4,1,0,65,0,0
55881,-93.4579439252336,4,1,0,65,0,0
55964,-92.5925925925926,4,1,0,65,0,0
56046,-90.9090909090909,4,1,0,80,0,1
65936,-91.8367346938774,4,1,0,80,0,1
66019,-92.7835051546391,4,1,0,80,0,1
66101,-93.7499999999999,4,1,0,80,0,1
66183,-94.7368421052631,4,1,0,80,0,1
66266,-95.7446808510637,4,1,0,80,0,1
66348,-96.774193548387,4,1,0,80,0,1
66431,-97.8260869565217,4,1,0,80,0,1
66513,-98.9010989010988,4,1,0,80,0,1
66596,-99.9999999999999,4,1,0,65,0,0

[HitObjects]
256,192,21760,5,4,0:0:0:0:
256,192,22090,1,0,0:0:0:0:
256,192,22420,1,8,0:0:0:0:
256,192,22749,1,0,0:0:0:0:
256,192,22914,1,0,0:0:0:0:
256,192,23079,1,8,0:0:0:0:
256,192,23244,1,8,0:0:0:0:
256,192,23409,1,0,0:0:0:0:
256,192,23738,1,8,0:0:0:0:
256,192,24068,1,8,0:0:0:0:
256,192,24398,1,0,0:0:0:0:
256,192,24727,1,0,0:0:0:0:
256,192,24892,1,0,0:0:0:0:
256,192,25057,1,8,0:0:0:0:
256,192,25552,1,8,0:0:0:0:
256,192,25716,1,0,0:0:0:0:
256,192,26046,1,0,0:0:0:0:
256,192,26211,1,0,0:0:0:0:
256,192,26376,1,8,0:0:0:0:
256,192,26541,1,0,0:0:0:0:
256,192,26705,1,0,0:0:0:0:
256,192,26870,1,8,0:0:0:0:
256,192,27035,1,0,0:0:0:0:
256,192,27694,1,8,0:0:0:0:
256,192,28024,1,0,0:0:0:0:
256,192,28189,1,8,0:0:0:0:
256,192,28354,1,0,0:0:0:0:
256,192,28683,1,0,0:0:0:0:
256,192,29013,1,8,0:0:0:0:
256,192,29672,1,0,0:0:0:0:
256,192,30002,1,0,0:0:0:0:
256,192,30332,1,8,0:0:0:0:
256,192,30662,1,0,0:0:0:0:
256,192,30826,1,8,0:0:0:0:
256,192,30991,1,0,0:0:0:0:
256,192,31321,1,0,0:0:0:0:
269,192,31486,1,0,0:0:0:0:
256,192,31651,1,8,0:0:0:0:
256,192,31815,1,0,0:0:0:0:
256,192,31980,1,8,0:0:0:0:
256,192,32145,1,8,0:0:0:0:
256,192,32310,1,4,0:0:0:0:
256,192,32640,5,0,0:0:0:0:
256,192,32969,1,8,0:0:0:0:
256,192,33299,1,8,0:0:0:0:
256,192,33464,1,8,0:0:0:0:
256,192,33546,1,0,0:0:0:0:
256,192,33629,1,0,0:0:0:0:
256,192,33958,1,0,0:0:0:0:
256,192,34288,1,8,0:0:0:0:
256,192,34618,1,8,0:0:0:0:
256,192,34782,1,8,0:0:0:0:
256,192,34865,1,8,0:0:0:0:
256,192,34947,1,0,0:0:0:0:
256,192,36266,12,0,37420,0:0:0:0:
256,192,37585,5,0,0:0:0:0:
256,192,37914,1,0,0:0:0:0:
256,192,38244,1,8,0:0:0:0:
224,192,38409,1,0,0:0:0:0:
256,192,38574,1,0,0:0:0:0:
256,192,38738,1,8,0:0:0:0:
256,192,38903,1,0,0:0:0:0:
256,192,39233,1,0,0:0:0:0:
256,192,39563,1,8,0:0:0:0:
256,192,39727,1,0,0:0:0:0:
256,192,39892,1,8,0:0:0:0:
256,192,40057,1,8,0:0:0:0:
256,192,40222,1,0,0:0:0:0:
256,192,40552,1,8,0:0:0:0:
256,192,41870,12,0,42694,0:0:0:0:
256,192,42859,5,4,0:0:0:0:
256,192,43107,1,8,0:0:0:0:
256,192,43189,1,0,0:0:0:0:
256,192,43354,1,8,0:0:0:0:
256,192,43519,1,0,0:0:0:0:
256,192,43601,1,0,0:0:0:0:
256,192,43683,1,8,0:0:0:0:
256,192,43766,1,8,0:0:0:0:
256,192,43848,1,0,0:0:0:0:
256,192,44013,1,0,0:0:0:0:
256,192,44178,1,8,0:0:0:0:
256,192,44343,1,0,0:0:0:0:
256,192,44425,1,0,0:0:0:0:
256,192,44508,1,8,0:0:0:0:
256,192,44672,1,8,0:0:0:0:
256,192,44837,1,0,0:0:0:0:
256,192,45002,5,8,0:0:0:0:
256,192,45085,1,8,0:0:0:0:
256,192,45167,1,0,0:0:0:0:
256,192,45332,1,0,0:0:0:0:
256,192,45497,1,8,0:0:0:0:
256,192,45662,1,0,0:0:0:0:
256,192,45744,1,8,0:0:0:0:
256,192,45826,1,0,0:0:0:0:
256,192,45991,1,8,0:0:0:0:
256,192,46156,1,0,0:0:0:0:
256,192,46238,1,0,0:0:0:0:
256,192,46321,1,8,0:0:0:0:
256,192,46403,1,8,0:0:0:0:
256,192,46486,1,0,0:0:0:0:
256,192,46651,1,8,0:0:0:0:
256,192,46815,1,0,0:0:0:0:
256,192,47145,1,0,0:0:0:0:
256,192,47475,1,0,0:0:0:0:
256,192,47640,1,0,0:0:0:0:
256,192,47722,1,0,0:0:0:0:
256,192,47804,1,12,0:0:0:0:
256,192,48134,1,0,0:0:0:0:
256,192,48299,1,0,0:0:0:0:
256,192,48381,1,0,0:0:0:0:
256,192,48464,1,8,0:0:0:0:
256,192,48629,1,0,0:0:0:0:
256,192,48793,1,8,0:0:0:0:
256,192,48876,1,0,0:0:0:0:
256,192,48958,1,0,0:0:0:0:
256,192,49041,1,0,0:0:0:0:
256,192,49123,1,8,0:0:0:0:
256,192,49288,1,8,0:0:0:0:
256,192,49453,1,0,0:0:0:0:
256,192,49618,1,0,0:0:0:0:
256,192,49700,1,0,0:0:0:0:
256,192,49782,1,8,0:0:0:0:
256,192,49947,1,0,0:0:0:0:
256,192,50112,1,8,0:0:0:0:
256,192,50194,1,0,0:0:0:0:
256,192,50277,1,0,0:0:0:0:
256,192,50359,1,8,0:0:0:0:
256,192,50442,1,0,0:0:0:0:
256,192,50607,1,8,0:0:0:0:
256,192,50771,1,0,0:0:0:0:
256,192,50936,1,0,0:0:0:0:
256,192,51019,1,8,0:0:0:0:
256,192,51101,1,0,0:0:0:0:
256,192,51266,1,8,0:0:0:0:
256,192,51431,1,0,0:0:0:0:
256,192,51513,1,0,0:0:0:0:
256,192,51595,1,8,0:0:0:0:
256,192,51677,1,8,0:0:0:0:
224,192,51760,1,0,0:0:0:0:
256,192,51925,1,8,0:0:0:0:
256,192,52090,1,0,0:0:0:0:
256,192,52255,1,0,0:0:0:0:
256,160,52337,1,0,0:0:0:0:
256,192,52420,1,8,0:0:0:0:
256,192,52585,1,0,0:0:0:0:
256,192,52749,1,8,0:0:0:0:
256,192,52832,1,8,0:0:0:0:
256,192,52914,1,0,0:0:0:0:
256,192,52997,1,8,0:0:0:0:
245,189,53079,1,0,0:0:0:0:
245,189,53244,1,8,0:0:0:0:
256,192,53409,1,0,0:0:0:0:
256,192,53574,1,0,0:0:0:0:
224,192,53656,1,8,0:0:0:0:
256,192,53738,1,0,0:0:0:0:
224,192,53903,1,8,0:0:0:0:
256,192,54068,1,0,0:0:0:0:
256,192,54151,1,0,0:0:0:0:
256,192,54233,1,8,0:0:0:0:
256,192,54315,1,8,0:0:0:0:
256,192,54398,1,0,0:0:0:0:
256,192,54563,1,0,0:0:0:0:
256,192,54727,1,8,0:0:0:0:
256,192,54892,1,0,0:0:0:0:
256,192,54975,1,0,0:0:0:0:
256,192,55057,1,8,0:0:0:0:
256,192,55222,1,0,0:0:0:0:
256,192,55387,1,8,0:0:0:0:
256,192,55469,1,8,0:0:0:0:
256,192,55552,1,0,0:0:0:0:
256,192,55634,1,0,0:0:0:0:
256,192,55716,1,8,0:0:0:0:
256,192,55799,1,0,0:0:0:0:
256,192,55881,1,8,0:0:0:0:
256,192,55964,1,8,0:0:0:0:
256,192,56046,1,4,0:0:0:0:
288,192,56211,1,0,0:0:0:0:
256,192,56293,1,0,0:0:0:0:
256,192,56376,1,8,0:0:0:0:
256,192,56541,1,0,0:0:0:0:
256,192,56705,1,0,0:0:0:0:
256,192,56788,1,8,0:0:0:0:
256,192,56870,1,0,0:0:0:0:
256,192,56953,1,0,0:0:0:0:
256,192,57035,1,8,0:0:0:0:
256,192,57200,1,8,0:0:0:0:
256,192,57365,1,0,0:0:0:0:
256,192,57530,1,8,0:0:0:0:
256,192,57612,1,8,0:0:0:0:
256,192,57694,1,0,0:0:0:0:
256,192,57859,1,0,0:0:0:0:
256,192,58024,1,8,0:0:0:0:
224,192,58189,1,0,0:0:0:0:
256,192,58271,1,0,0:0:0:0:
256,192,58354,1,8,0:0:0:0:
256,192,58436,1,0,0:0:0:0:
256,192,58519,1,8,0:0:0:0:
256,192,58601,1,8,0:0:0:0:
256,192,58683,1,0,0:0:0:0:
256,192,58848,1,0,0:0:0:0:
256,192,58931,1,0,0:0:0:0:
256,192,59013,1,8,0:0:0:0:
256,192,59178,1,0,0:0:0:0:
263,191,59343,1,8,0:0:0:0:
256,192,59425,1,8,0:0:0:0:
256,192,59508,1,0,0:0:0:0:
257,202,59590,1,0,0:0:0:0:
263,191,59672,1,8,0:0:0:0:
256,192,59837,1,8,0:0:0:0:
256,192,60002,1,0,0:0:0:0:
256,192,60167,5,0,0:0:0:0:
256,192,60249,1,8,0:0:0:0:
256,192,60332,1,0,0:0:0:0:
256,192,60497,1,0,0:0:0:0:
256,192,60662,1,8,0:0:0:0:
256,192,60826,1,0,0:0:0:0:
256,192,60909,1,0,0:0:0:0:
256,192,60991,1,8,0:0:0:0:
256,192,61074,1,8,0:0:0:0:
256,192,61156,1,0,0:0:0:0:
256,192,61238,1,8,0:0:0:0:
256,192,61321,1,0,0:0:0:0:
256,192,61486,1,0,0:0:0:0:
264,185,61568,1,0,0:0:0:0:
256,192,61651,1,8,0:0:0:0:
256,192,61815,1,0,0:0:0:0:
256,192,62145,5,0,0:0:0:0:
256,192,62310,1,8,0:0:0:0:
256,192,62475,1,0,0:0:0:0:
256,192,62640,1,8,0:0:0:0:
256,192,62722,1,8,0:0:0:0:
256,192,62804,1,0,0:0:0:0:
256,192,62887,1,8,0:0:0:0:
256,192,62969,1,0,0:0:0:0:
256,192,63134,1,0,0:0:0:0:
256,192,63299,1,8,0:0:0:0:
256,192,63464,1,0,0:1:0:0:
256,192,63546,1,8,0:0:0:0:
255,173,63629,1,0,0:0:0:0:
256,192,63711,1,0,0:0:0:0:
256,192,63793,1,8,0:0:0:0:
256,192,63958,1,0,0:0:0:0:
256,192,64123,1,0,0:0:0:0:
256,192,64205,1,0,0:0:0:0:
256,192,64288,1,8,0:0:0:0:
256,192,64453,1,0,0:0:0:0:
256,192,64618,1,8,0:0:0:0:
256,192,64700,1,8,0:0:0:0:
256,192,64782,1,0,0:0:0:0:
256,192,64865,1,0,0:0:0:0:
256,192,64947,1,8,0:0:0:0:
256,192,65112,1,8,0:0:0:0:
256,192,65277,1,0,0:0:0:0:
256,192,65442,1,8,0:0:0:0:
256,192,65524,1,8,0:0:0:0:
256,192,65607,1,0,0:0:0:0:
256,192,65771,5,0,0:0:0:0:
256,192,65936,1,8,0:0:0:0:
256,192,66019,1,8,0:0:0:0:
256,192,66101,1,0,0:0:0:0:
256,192,66183,1,0,0:0:0:0:
262,189,66266,5,8,0:0:0:0:
261,189,66348,1,8,0:0:0:0:
244,189,66431,1,8,0:0:0:0:
256,192,66513,1,8,0:0:0:0:
256,192,66596,1,0,0:0:0:0:
256,192,66843,1,0,0:0:0:0:
256,192,66925,1,0,0:0:0:0:
256,192,67090,1,0,0:0:0:0:
256,192,67255,1,8,0:0:0:0:
244,189,67420,1,0,0:0:0:0:
256,192,67585,1,8,0:0:0:0:
256,192,67914,1,0,0:0:0:0:
256,192,68162,1,8,0:0:0:0:
256,192,68244,1,0,0:0:0:0:
256,192,68409,1,0,0:0:0:0:
256,192,68574,1,8,0:0:0:0:
256,192,68738,1,0,0:0:0:0:
256,192,68903,1,8,0:0:0:0:
256,192,69233,1,0,0:0:0:0:
256,192,69480,1,0,0:0:0:0:
256,192,69563,1,0,0:0:0:0:
256,192,69727,1,0,0:0:0:0:
256,192,69892,1,8,0:0:0:0:
256,192,70057,1,8,0:0:0:0:
256,192,70222,1,0,0:0:0:0:
256,192,70552,1,8,0:0:0:0:
256,192,70716,1,0,0:0:0:0:
256,160,70799,1,0,0:0:0:0:
256,192,70881,1,8,0:0:0:0:
256,192,70964,1,8,0:0:0:0:
256,192,71046,1,0,0:0:0:0:
256,192,71211,1,8,0:0:0:0:
256,192,71376,1,0,0:0:0:0:
256,192,71458,1,0,0:0:0:0:
256,192,71541,1,8,0:0:0:0:
256,192,71870,1,0,0:0:0:0:
256,192,72118,1,0,0:0:0:0:
256,192,72200,1,0,0:0:0:0:
256,192,72365,1,0,0:0:0:0:
256,192,72530,1,8,0:0:0:0:
256,192,72694,1,0,0:0:0:0:
256,192,72859,1,8,0:0:0:0:
256,192,73189,1,0,0:0:0:0:
256,192,73436,1,8,0:0:0:0:
256,192,73519,1,0,0:0:0:0:
256,192,73683,1,0,0:0:0:0:
256,192,73848,1,8,0:0:0:0:
256,192,74013,1,0,0:0:0:0:
256,192,74178,1,8,0:0:0:0:
256,192,74508,1,0,0:0:0:0:
256,192,74755,1,0,0:0:0:0:
256,192,74837,1,0,0:0:0:0:
256,192,75002,1,0,0:0:0:0:
256,192,75167,1,8,0:0:0:0:
256,192,75332,1,8,0:0:0:0:
256,192,75497,1,0,0:0:0:0:
256,192,75826,1,8,0:0:0:0:
256,192,75991,1,8,0:0:0:0:
256,192,76074,1,8,0:0:0:0:
256,192,76156,1,0,0:0:0:0:
256,192,76321,1,8,0:0:0:0:
256,192,76486,1,0,0:0:0:0:
256,192,76651,1,0,0:0:0:0:
256,192,76733,1,0,0:0:0:0:
256,192,76815,1,8,0:0:0:0:
256,192,77145,1,0,0:0:0:0:
256,192,77392,1,0,0:0:0:0:
256,192,77475,1,0,0:0:0:0:
256,192,77640,1,0,0:0:0:0:
256,192,77804,1,8,0:0:0:0:
256,192,77969,1,0,0:0:0:0:
256,192,78134,1,8,0:0:0:0:
256,192,78299,1,8,0:0:0:0:
256,192,78464,1,0,0:0:0:0:
256,192,78711,1,8,0:0:0:0:
256,192,78793,1,0,0:0:0:0:
256,192,78958,1,0,0:0:0:0:
256,192,79123,1,8,0:0:0:0:
256,192,79288,1,0,0:0:0:0:
256,192,79453,1,8,0:0:0:0:
256,192,79618,1,8,0:0:0:0:
256,192,79782,1,0,0:0:0:0:
256,192,80030,1,0,0:0:0:0:
256,192,80112,1,0,0:0:0:0:
256,192,80277,1,0,0:0:0:0:
256,192,80442,1,8,0:0:0:0:
256,192,80607,1,8,0:0:0:0:
256,192,80771,1,0,0:0:0:0:
256,192,80936,1,0,0:0:0:0:
256,192,81101,1,8,0:0:0:0:
256,192,81266,1,0,0:0:0:0:
256,192,81348,1,0,0:0:0:0:
256,192,81431,1,8,0:0:0:0:
256,192,81513,1,8,0:0:0:0:
256,192,81596,1,0,0:0:0:0:
256,192,81760,1,8,0:0:0:0:
256,192,81925,1,0,0:0:0:0:
256,192,82008,1,0,0:0:0:0:
256,192,82090,1,8,0:0:0:0:
256,192,82420,1,0,0:0:0:0:
256,192,82667,1,0,0:0:0:0:
256,192,82749,1,0,0:0:0:0:
256,192,82914,1,0,0:0:0:0:
256,192,83079,1,8,0:0:0:0:
256,192,83244,1,0,0:0:0:0:
256,192,83409,1,8,0:0:0:0:
256,192,83738,1,0,0:0:0:0:
256,192,83986,1,8,0:0:0:0:
256,192,84068,1,0,0:0:0:0:
256,192,84233,1,0,0:0:0:0:
256,192,84398,1,8,0:0:0:0:
256,192,84563,1,0,0:0:0:0:
256,192,84727,1,8,0:0:0:0:
256,192,85057,1,0,0:0:0:0:
256,192,85304,1,0,0:0:0:0:
256,192,85387,1,0,0:0:0:0:
256,192,85552,1,0,0:0:0:0:
256,192,85716,1,8,0:0:0:0:
256,192,85881,1,8,0:0:0:0:
256,192,86046,1,0,0:0:0:0:
256,192,86376,1,8,0:0:0:0:
256,192,86541,1,8,0:0:0:0:
256,224,86623,1,8,0:0:0:0:
256,192,86705,1,0,0:0:0:0:
256,192,86870,1,8,0:0:0:0:
256,192,87035,1,0,0:0:0:0:
256,192,87200,1,0,0:0:0:0:
256,192,87282,1,0,0:0:0:0:
256,192,87365,1,8,0:0:0:0:
256,192,87530,1,8,0:0:0:0:
256,192,87859,12,0,89178,0:0:0:0:
