osu file format v14

[General]
AudioFilename: audio.mp3
AudioLeadIn: 0
PreviewTime: 764
Countdown: 1
SampleSet: Soft
StackLeniency: 0.7
Mode: 0
LetterboxInBreaks: 0
WidescreenStoryboard: 1

[Editor]
DistanceSpacing: 1.3
BeatDivisor: 4
GridSize: 16
TimelineZoom: 1.1

[Metadata]
Title:Rightfully (TV Size)
TitleUnicode:Rightfully (TV Size)
Artist:Mili
ArtistUnicode:Mili
Creator:AlexTroIIPsy
Version:Hard
Source:ゴブリンスレイヤー
Tags:
BeatmapID:1838220
BeatmapSetID:878596

[Difficulty]
HPDrainRate:5
CircleSize:3
OverallDifficulty:6
ApproachRate:7
SliderMultiplier:1
SliderTickRate:0.5

[Events]
//Background and Video events
0,0,"Bg slayer.png",0,0
//Break Periods
//Storyboard Layer 0 (Background)
//Storyboard Layer 1 (Fail)
//Storyboard Layer 2 (Pass)
//Storyboard Layer 3 (Foreground)
//Storyboard Sound Samples

[TimingPoints]
800,1311.47540983607,4,2,0,10,1,0
3253,-100,4,2,0,5,0,0
3422,-100,4,2,0,10,0,0
5875,-100,4,2,0,5,0,0
6045,-100,4,2,0,10,0,0
8498,-100,4,2,0,5,0,0
8668,-100,4,2,0,10,0,0
11121,-100,4,2,0,5,0,0
11291,-100,4,2,0,10,0,0
13744,-100,4,2,0,5,0,0
13914,-100,4,2,0,10,0,0
16367,-100,4,2,0,5,0,0
16537,-66.6666666666667,4,2,0,10,0,0
18990,-66.6666666666667,4,2,0,5,0,0
19160,-33.3333333333333,4,2,0,10,0,0
21783,659.340659340659,4,2,0,30,1,0
32332,-100,4,2,0,50,0,0
32991,-66.6666666666667,4,2,0,50,0,0
33486,-66.6666666666667,4,2,0,5,0,0
33651,-100,4,2,0,50,0,0
34310,-66.6666666666667,4,2,0,50,0,0
34804,-66.6666666666667,4,2,0,5,0,0
34969,-100,4,2,0,30,0,0
38266,-80,4,2,0,30,0,0
38925,-100,4,2,0,30,0,0
39585,-80,4,2,0,30,0,0
40244,1324.50331125828,4,2,0,30,1,0
41886,-25,4,2,0,15,0,0
42215,-25,4,2,0,30,0,0
42544,-25,4,2,0,45,0,0
42893,329.67032967033,4,2,0,60,1,0
42893,-66.6666666666667,4,2,0,60,0,0
47838,-66.6666666666667,4,2,0,100,0,0
47920,-66.6666666666667,4,2,0,60,0,0
66629,-100,4,2,0,50,0,0
77178,-100,4,2,0,55,0,0
87068,348.837209302326,4,2,0,45,1,0
87242,413.793103448276,4,2,0,35,1,0
87759,461.538461538462,4,2,0,25,1,0
89374,-100,4,2,0,5,0,0

[Colours]
Combo1 : 106,106,106
Combo2 : 0,150,0
Combo3 : 175,0,0
Combo4 : 0,200,57
Combo5 : 255,0,0
Combo6 : 0,200,200
Combo7 : 0,120,200
Combo8 : 212,212,212

[HitObjects]
41,317,21783,102,0,L|107:333,1,50
187,306,22442,1,0,0:0:0:0:
164,208,22772,1,0,0:0:0:0:
236,139,23101,6,0,L|302:155,1,50
382,128,23760,1,0,0:0:0:0:
359,31,24090,1,0,0:0:0:0:
261,53,24420,102,0,L|195:37,1,50
114,19,25079,2,0,L|48:3,1,50
6,88,25739,2,0,P|51:122|68:214,1,150
62,309,27057,5,0,0:0:0:0:
256,359,27717,1,0,0:0:0:0:
450,309,28376,1,0,0:0:0:0:
391,227,28706,1,0,0:0:0:0:
443,142,29035,1,0,0:0:0:0:
255,213,29695,101,0,0:0:0:0:
84,109,30354,1,0,0:0:0:0:
256,8,31013,1,0,0:0:0:0:
344,54,31343,2,0,L|407:54,2,50
272,123,32332,85,0,0:0:0:0:
326,206,32662,1,0,0:0:0:0:
208,298,32991,2,0,L|83:289,1,112.500004291535
45,286,33651,5,0,0:0:0:0:
0,203,33981,1,0,0:0:0:0:
109,111,34310,2,0,L|234:120,1,112.500004291535
271,122,34969,5,0,0:0:0:0:
465,292,36288,6,0,P|474:340|508:376,2,100
485,194,37936,1,0,0:0:0:0:
395,106,38266,2,0,L|262:130,1,125
209,206,39255,1,0,0:0:0:0:
183,305,39585,2,0,L|307:283,1,125
33,29,42893,6,0,L|27:120,1,75.0000028610231
108,158,43222,2,0,L|102:249,1,75.0000028610231
98,330,43552,2,0,P|160:307|261:334,1,150.000005722046
324,371,44046,1,0,0:0:0:0:
391,300,44211,22,0,L|405:216,1,75.0000028610231
340,150,44541,2,0,L|354:66,1,75.0000028610231
442,36,44871,2,0,L|428:120,1,75.0000028610231
493,186,45200,2,0,L|479:270,1,75.0000028610231
417,339,45530,86,0,P|344:360|258:323,1,150.000005722046
194,284,46024,2,0,L|109:306,2,75.0000028610231
288,257,46519,1,0,0:0:0:0:
208,199,46684,1,0,0:0:0:0:
217,101,46849,1,0,0:0:0:0:
2,366,47508,53,0,0:0:0:0:
7,328,47590,1,0,0:0:0:0:
13,291,47672,1,0,0:0:0:0:
19,254,47755,1,0,0:0:0:0:
25,217,47837,1,0,0:0:0:0:
189,55,48167,54,0,P|249:78|351:44,1,150.000005722046
421,23,48662,1,0,0:0:0:0:
496,85,48827,2,0,P|455:111|435:154,1,75.0000028610231
445,230,49156,2,0,P|422:259|390:277,1,75.0000028610231
293,258,49486,22,0,B|166:329|170:220|56:277,1,225.000008583069
101,173,50145,2,0,L|88:113,2,37.5000014305115
209,189,50475,2,0,L|196:129,2,37.5000014305115
293,258,50805,86,0,P|374:211|356:73,1,225.000008583069
287,44,51464,2,0,P|247:98|211:110,1,75.0000028610231,0|0,3:0|3:0,3:0:0:0:
169,167,51794,2,0,P|142:105|149:68,1,75.0000028610231,0|0,3:0|3:0,3:0:0:0:
69,34,52123,22,0,L|34:110,1,75.0000028610231
28,199,52453,1,0,0:0:0:0:
31,236,52535,1,0,0:0:0:0:
34,273,52617,1,0,0:0:0:0:
108,338,52783,2,0,L|143:262,1,75.0000028610231
149,173,53113,1,0,0:0:0:0:
145,135,53195,1,0,0:0:0:0:
141,98,53277,1,0,0:0:0:0:
217,36,53442,86,0,P|262:62|311:66,1,75.0000028610231
257,160,53772,2,0,P|308:160|353:138,1,75.0000028610231,0|0,3:0|3:0,3:0:0:0:
354,247,54101,2,0,P|399:221|426:180,1,75.0000028610231,0|0,3:0|3:0,3:0:0:0:
482,274,54431,2,0,P|507:228|511:180,1,75.0000028610231,0|0,3:0|3:0,3:0:0:0:
491,104,54761,21,0,0:0:0:0:
454,97,54843,1,0,0:0:0:0:
417,91,54925,1,0,0:0:0:0:
369,176,55090,2,0,L|383:236,2,37.5000014305115
289,118,55420,54,0,L|192:119,1,75.0000028610231
165,127,55667,1,0,0:0:0:0:
116,134,55750,2,0,L|52:137,3,37.5000014305115
86,187,56079,70,0,P|100:257|47:336,2,150.000005722046
55,94,56903,1,0,0:0:0:0:
149,119,57068,1,0,0:0:0:0:
223,56,57233,1,0,0:0:0:0:
285,130,57398,86,0,L|246:223,1,75.0000028610231
312,279,57728,2,0,L|368:139,1,150.000005722046
456,98,58222,1,0,0:0:0:0:
436,193,58387,2,0,L|408:263,1,75.0000028610231
355,345,58717,22,0,P|301:326|200:350,1,150.000005722046
120,308,59211,1,0,0:0:0:0:
28,273,59376,2,0,L|58:195,1,75.0000028610231
9,116,59706,2,0,L|91:102,1,75.0000028610231
179,87,60035,85,0,0:0:0:0:
184,184,60200,1,0,0:0:0:0:
275,218,60365,1,0,0:0:0:0:
255,23,60695,1,0,0:0:0:0:
427,112,61024,2,0,L|411:201,1,75.0000028610231
463,270,61354,22,0,P|395:274|333:331,1,150.000005722046
237,334,61849,1,0,0:0:0:0:
272,243,62013,2,0,P|281:180|276:139,1,75.0000028610231
218,92,62343,1,0,0:0:0:0:
218,92,62508,1,0,0:0:0:0:
120,82,62673,86,0,L|63:152,1,75.0000028610231
97,232,63002,1,0,0:0:0:0:
29,302,63167,1,0,0:0:0:0:
117,342,63332,2,0,L|221:351,1,75.0000028610231
282,311,63662,1,0,0:0:0:0:
373,345,63827,1,0,0:0:0:0:
467,322,63991,22,0,P|445:273|466:171,1,150.000005722046
342,23,64651,2,0,P|302:52|251:57,1,75.0000028610231
261,154,64980,2,0,P|215:133|186:92,1,75.0000028610231
144,34,65310,86,0,L|50:67,1,75.0000028610231
7,132,65640,2,0,L|101:165,1,75.0000028610231
144,228,65969,1,0,0:0:0:0:
23,381,66299,1,0,0:0:0:0:
146,339,66629,38,0,L|235:363,2,75
98,250,67288,1,0,0:0:0:0:
292,298,67618,1,0,0:0:0:0:
158,149,67947,6,0,L|69:125,2,75
206,238,68606,1,0,0:0:0:0:
13,190,68936,1,0,0:0:0:0:
146,339,69266,102,0,L|235:363,2,75
98,250,69925,1,0,0:0:0:0:
292,298,70255,1,0,0:0:0:0:
364,111,70585,6,0,L|351:174,1,50
441,207,70914,2,0,L|454:270,1,50
427,353,71244,1,0,0:0:0:0:
273,224,71574,1,0,0:0:0:0:
147,68,71903,102,0,L|236:44,2,75
99,157,72562,1,0,0:0:0:0:
293,109,72892,1,0,0:0:0:0:
159,258,73221,6,0,L|70:282,2,75
207,169,73880,1,0,0:0:0:0:
14,217,74210,1,0,0:0:0:0:
147,68,74540,102,0,L|236:44,2,75
99,157,75199,1,0,0:0:0:0:
293,109,75529,1,0,0:0:0:0:
365,296,75859,6,0,P|342:245|397:160,1,150
291,124,76519,2,0,P|328:83|435:79,1,150
458,163,77178,102,0,L|474:258,2,75
373,217,77838,2,0,L|388:339,1,100
267,154,78497,6,0,L|278:245,2,75
189,227,79156,2,0,L|200:295,1,50
119,340,79486,2,0,L|107:271,1,50
43,215,79816,102,0,P|14:157|16:130,2,75
111,141,80475,2,0,P|102:94|63:56,1,100
263,22,81134,6,0,L|303:74,1,50
392,44,81464,2,0,L|400:109,1,50
499,91,81794,2,0,L|453:200,1,100
293,293,82453,101,0,0:0:0:0:
441,275,82700,1,0,0:0:0:0:
308,204,82947,1,0,0:0:0:0:
215,241,83112,1,0,0:0:0:0:
38,146,83442,1,0,0:0:0:0:
193,20,83772,5,0,0:0:0:0:
45,38,84019,1,0,0:0:0:0:
178,109,84266,1,0,0:0:0:0:
271,72,84431,1,0,0:0:0:0:
448,167,84761,1,0,0:0:0:0:
347,339,85090,101,0,0:0:0:0:
362,189,85338,1,0,0:0:0:0:
267,304,85585,1,0,0:0:0:0:
279,204,85750,1,0,0:0:0:0:
82,237,86079,1,0,0:0:0:0:
125,41,86409,6,0,L|145:129,1,75
165,262,86903,1,0,0:0:0:0:
231,328,87068,1,0,0:0:0:0:
314,340,87242,6,0,L|367:338,2,50
256,192,87759,12,0,89374,0:0:0:0:
