osu file format v14

[General]
AudioFilename: audio.mp3
AudioLeadIn: 0
PreviewTime: 41221
Countdown: 0
SampleSet: Normal
StackLeniency: 0.7
Mode: 3
LetterboxInBreaks: 0
SpecialStyle: 0
WidescreenStoryboard: 0

[Editor]
DistanceSpacing: 1
BeatDivisor: 4
GridSize: 32
TimelineZoom: 1.6

[Metadata]
Title:Rightfully (TV Size)
TitleUnicode:Rightfully (TV Size)
Artist:Mili
ArtistUnicode:Mili
Creator:[Ping]
Version:Slayer
Source:ゴブリンスレイヤー
Tags:goblin slayer opening yamato kasai momocashew
BeatmapID:1808892
BeatmapSetID:865039

[Difficulty]
HPDrainRate:8
CircleSize:4
OverallDifficulty:8
ApproachRate:5
SliderMultiplier:1.4
SliderTickRate:1

[Events]
//Background and Video events
0,0,"Goblin Slayer.jpg",0,0
//Break Periods
//Storyboard Layer 0 (Background)
//Storyboard Layer 1 (Fail)
//Storyboard Layer 2 (Pass)
//Storyboard Layer 3 (Foreground)
//Storyboard Sound Samples

[TimingPoints]
21112,329.67032967033,4,1,1,100,1,0
41221,-100,4,2,0,15,0,0
42210,-100,4,2,0,20,0,1
46166,-100,4,2,0,20,0,0
47485,-100,4,2,0,20,0,1
65947,-100,4,1,1,100,0,0

[HitObjects]
64,192,21111,5,0,0:0:0:70:kick.wav
320,192,21111,128,0,21194:0:0:0:0:
64,192,21441,1,0,0:0:0:70:kick.wav
320,192,21441,128,0,21551:0:0:0:0:
448,192,22101,128,0,22265:0:0:0:30:kick.wav
320,192,22265,128,0,22430:0:0:0:0:
64,192,22430,128,0,22540:0:0:0:70:kick.wav
192,192,22430,1,0,0:0:0:0:
64,192,22760,128,0,22842:0:0:0:70:kick.wav
192,192,22760,1,0,0:0:0:70:LR_Tom Hit.wav
448,192,23090,1,0,0:0:0:70:LR_HiHat SClick 2.wav
192,192,23419,128,0,23584:0:0:0:0:
320,192,23584,128,0,23749:0:0:0:0:
64,192,23749,1,0,0:0:0:70:kick.wav
448,192,23749,128,0,23831:0:0:0:0:
64,192,24079,128,0,24161:0:0:0:0:
320,192,24408,1,0,0:0:0:70:kick.wav
448,192,24408,128,8,24518:0:2:0:40:LR_Clap kick.wav
192,192,24738,128,0,24820:0:0:0:0:
64,192,25068,128,0,25232:0:0:0:70:kick.wav
448,192,25068,1,0,0:0:0:0:
192,192,25232,128,0,25397:0:0:0:0:
448,192,25397,128,0,25562:0:0:0:0:
64,192,25562,128,0,25727:0:0:0:0:
192,192,25727,1,0,0:0:0:0:
448,192,25727,128,0,25892:0:0:0:0:
320,192,25892,128,0,26057:0:0:0:0:
192,192,26057,128,0,26221:0:0:0:0:
64,192,26221,128,0,26386:0:0:0:0:
320,192,26386,128,0,27046:0:0:0:0:
192,192,26386,1,0,0:0:0:0:
448,192,27046,128,0,27375:0:0:0:0:
64,192,27046,1,0,0:0:0:0:
192,192,27375,128,0,27540:0:0:0:0:
320,192,27540,128,0,27705:0:0:0:0:
64,192,27705,128,0,29024:0:0:0:70:LR_Tom Hit.wav
448,192,27705,1,0,0:0:0:0:
192,192,28035,1,0,0:0:0:70:kick.wav
320,192,28364,128,0,29024:0:0:0:70:LR_HiHat SClick 2.wav
192,192,29024,1,0,0:0:0:70:kick.wav
448,192,29024,128,0,30013:0:0:0:0:
64,192,29683,1,0,0:0:0:20:LR_DS - Snare Wet High.wav
192,192,29683,1,0,0:0:0:0:
320,192,30013,128,0,30177:0:0:0:0:
192,192,30177,128,0,30342:0:0:0:0:
64,192,30342,128,0,31661:0:0:0:70:kick.wav
448,192,30342,1,0,0:0:0:0:
192,192,30672,1,0,0:0:0:70:kick.wav
320,192,30837,1,0,0:0:0:70:kick.wav
448,192,31002,128,0,31331:0:0:0:0:
192,192,31331,128,0,31661:0:0:0:0:
320,192,31661,128,0,31743:0:0:0:70:kick.wav
448,192,31661,1,0,0:0:0:0:
64,192,31991,128,0,32073:0:0:0:70:kick.wav
192,192,31991,1,0,0:0:0:0:
192,192,32320,128,0,32650:0:0:0:20:LR2_HatO.WAV
448,192,32320,128,0,32815:0:0:0:0:
320,192,32815,128,0,32897:0:0:0:0:
192,192,32897,128,0,32980:0:0:0:0:
64,192,32980,128,0,33062:0:0:0:70:LR_Tom Hit.wav
448,192,32980,1,0,0:0:0:0:
192,192,33309,1,0,0:0:0:70:kick.wav
320,192,33309,128,0,33392:0:0:0:0:
64,192,33639,128,0,33969:0:0:0:70:LR_HiHat SClick 2.wav
448,192,33639,1,0,0:0:0:0:
192,192,33969,128,0,34051:0:0:0:0:
320,192,34051,128,0,34133:0:0:0:0:
448,192,34133,128,0,34216:0:0:0:0:
192,192,34216,128,0,34298:0:0:0:0:
64,192,34298,1,0,0:0:0:70:kick.wav
320,192,34298,128,0,34381:0:0:0:0:
448,192,35617,128,0,36936:0:0:0:0:
64,192,36276,128,0,36936:0:0:0:0:
320,192,36936,128,0,37018:0:0:0:0:
320,192,37265,128,0,37348:0:0:0:0:
192,192,37595,128,0,38090:0:0:0:0:
448,192,38090,128,0,38172:0:0:0:0:
320,192,38172,128,0,38254:0:0:0:0:
64,192,38254,128,0,38337:0:0:0:0:
64,192,38584,128,0,38666:0:0:0:0:
448,192,38914,128,0,39243:0:0:0:0:
192,192,39243,128,0,39326:0:0:0:0:
64,192,39326,128,0,39408:0:0:0:0:
320,192,39408,128,0,39491:0:0:0:0:
448,192,39491,128,0,39573:0:0:0:0:
192,192,39573,128,0,39655:0:0:0:0:
320,192,41221,1,0,0:0:0:0:
192,192,41304,1,0,0:0:0:0:
320,192,41386,1,0,0:0:0:0:
192,192,41469,1,0,0:0:0:0:
448,192,41551,1,0,0:0:0:0:
64,192,41633,1,0,0:0:0:0:
448,192,41716,1,0,0:0:0:0:
64,192,41798,1,0,0:0:0:0:
448,192,41881,1,0,0:0:0:0:
64,192,41963,1,0,0:0:0:0:
192,192,41963,1,0,0:0:0:0:
320,192,42046,1,0,0:0:0:0:
448,192,42046,1,0,0:0:0:0:
64,192,42128,1,0,0:0:0:0:
192,192,42128,1,0,0:0:0:0:
320,192,42210,1,0,0:0:0:70:kick.wav
448,192,42210,128,0,42293:0:0:0:0:
64,192,42375,128,0,42458:0:0:0:0:
192,192,42458,1,0,0:0:0:0:
320,192,42540,1,0,0:0:0:70:kick.wav
448,192,42540,1,0,0:0:0:0:
64,192,42622,1,0,0:0:0:0:
448,192,42705,1,0,0:0:0:0:
320,192,42787,1,0,0:0:0:0:
64,192,42870,1,0,0:0:0:70:kick.wav
192,192,42870,1,0,0:0:0:0:
320,192,42952,1,0,0:0:0:0:
448,192,43035,128,0,43117:0:0:0:0:
64,192,43117,1,0,0:0:0:0:
192,192,43199,128,0,43282:0:0:0:70:kick.wav
448,192,43199,1,0,0:0:0:0:
64,192,43364,1,0,0:0:0:0:
320,192,43364,128,0,43447:0:0:0:0:
192,192,43447,1,0,0:0:0:0:
64,192,43529,128,0,43611:0:0:0:70:kick.wav
448,192,43529,1,0,0:0:0:0:
320,192,43694,128,0,43776:0:0:0:0:
64,192,43859,1,0,0:0:0:70:kick.wav
448,192,43859,1,0,0:0:0:0:
192,192,43941,1,0,0:0:0:0:
320,192,44024,1,0,0:0:0:0:
448,192,44106,1,0,0:0:0:0:
64,192,44188,1,0,0:0:0:70:kick.wav
192,192,44188,1,0,0:0:0:0:
448,192,44271,1,0,0:0:0:0:
320,192,44353,128,0,44436:0:0:0:0:
192,192,44436,1,0,0:0:0:0:
64,192,44518,128,0,44601:0:0:0:70:kick.wav
448,192,44518,1,0,0:0:0:0:
320,192,44601,1,0,0:0:0:0:
192,192,44683,128,0,44765:0:0:0:0:
64,192,44765,1,0,0:0:0:0:
320,192,44848,1,0,0:0:0:70:kick.wav
448,192,44848,128,0,44930:0:0:0:0:
192,192,45013,128,0,45095:0:0:0:0:
320,192,45095,1,0,0:0:0:0:
64,192,45177,1,0,0:0:0:70:kick.wav
448,192,45177,1,0,0:0:0:0:
192,192,45260,1,0,0:0:0:0:
448,192,45342,1,0,0:0:0:0:
64,192,45425,1,0,0:0:0:0:
192,192,45507,1,0,0:0:0:70:kick.wav
320,192,45507,1,0,0:0:0:0:
448,192,45590,1,0,0:0:0:0:
192,192,45672,128,0,45754:0:0:0:0:
64,192,45837,1,0,0:0:0:70:kick.wav
448,192,45837,128,0,45919:0:0:0:0:
192,192,46002,128,0,46496:0:0:0:0:
320,192,46084,1,0,0:0:0:0:
64,192,46166,128,0,46496:0:0:0:70:kick.wav
448,192,46166,1,0,0:0:0:0:
320,192,46496,1,0,0:0:0:20:kick.wav
64,192,46826,1,0,0:0:0:0:
448,192,46826,1,0,0:0:0:0:
320,192,46908,1,0,0:0:0:0:
64,192,46991,1,0,0:0:0:0:
448,192,46991,1,0,0:0:0:0:
192,192,47073,1,0,0:0:0:0:
64,192,47155,1,0,0:0:0:50:LR_CymbalG.wav
320,192,47155,128,0,47320:0:0:0:0:
448,192,47155,1,0,0:0:0:0:
192,192,47320,128,0,47485:0:0:0:0:
64,192,47485,128,0,48804:0:0:0:70:kick.wav
448,192,47485,1,0,0:0:0:0:
192,192,47650,1,0,0:0:0:0:
320,192,47732,1,0,0:0:0:0:
192,192,47815,1,0,0:0:0:70:kick.wav
448,192,47815,1,0,0:0:0:0:
320,192,47897,1,0,0:0:0:0:
448,192,47980,1,0,0:0:0:0:
192,192,48062,1,0,0:0:0:0:
320,192,48144,1,0,0:0:0:70:kick.wav
448,192,48144,1,0,0:0:0:0:
192,192,48227,1,0,0:0:0:0:
320,192,48309,1,0,0:0:0:0:
448,192,48392,1,0,0:0:0:0:
192,192,48474,1,0,0:0:0:70:kick.wav
320,192,48474,1,0,0:0:0:0:
448,192,48639,1,0,0:0:0:0:
192,192,48721,1,0,0:0:0:0:
320,192,48804,1,0,0:0:0:70:kick.wav
448,192,48804,128,0,50122:0:0:0:0:
64,192,48969,1,0,0:0:0:0:
192,192,49051,1,0,0:0:0:0:
64,192,49133,1,0,0:0:0:70:kick.wav
320,192,49133,1,0,0:0:0:0:
192,192,49216,1,0,0:0:0:0:
320,192,49298,1,0,0:0:0:0:
64,192,49381,1,0,0:0:0:0:
192,192,49463,1,0,0:0:0:70:kick.wav
320,192,49463,1,0,0:0:0:0:
64,192,49546,1,0,0:0:0:0:
192,192,49628,1,0,0:0:0:0:
320,192,49710,1,0,0:0:0:0:
64,192,49793,1,0,0:0:0:70:kick.wav
192,192,49793,1,0,0:0:0:0:
320,192,49875,1,0,0:0:0:0:
192,192,49958,1,0,0:0:0:0:
64,192,50040,1,0,0:0:0:0:
192,192,50122,128,0,51441:0:0:0:70:kick.wav
320,192,50122,1,0,0:0:0:0:
448,192,50287,1,0,0:0:0:0:
320,192,50370,1,0,0:0:0:0:
64,192,50452,1,0,0:0:0:70:kick.wav
448,192,50452,1,0,0:0:0:0:
320,192,50535,1,0,0:0:0:0:
64,192,50617,1,0,0:0:0:0:
448,192,50699,1,0,0:0:0:0:
64,192,50782,1,0,0:0:0:70:kick.wav
320,192,50782,1,0,0:0:0:0:
448,192,50864,1,0,0:0:0:0:
320,192,50947,1,0,0:0:0:0:
64,192,51029,1,0,0:0:0:0:
320,192,51112,1,0,0:0:0:70:kick.wav
448,192,51112,1,0,0:0:0:0:
64,192,51276,1,0,0:0:0:0:
448,192,51359,1,0,0:0:0:0:
64,192,51441,1,0,0:0:0:70:kick.wav
320,192,51441,128,0,52760:0:0:0:0:
192,192,51606,1,0,0:0:0:0:
448,192,51688,1,0,0:0:0:0:
64,192,51771,1,0,0:0:0:70:kick.wav
192,192,51771,1,0,0:0:0:0:
448,192,51853,1,0,0:0:0:0:
64,192,51936,1,0,0:0:0:0:
192,192,52018,1,0,0:0:0:0:
64,192,52101,1,0,0:0:0:70:kick.wav
448,192,52101,1,0,0:0:0:0:
192,192,52183,1,0,0:0:0:0:
448,192,52265,1,0,0:0:0:0:
64,192,52348,1,0,0:0:0:0:
192,192,52430,1,0,0:0:0:70:kick.wav
448,192,52430,1,0,0:0:0:0:
64,192,52513,1,0,0:0:0:0:
192,192,52595,1,0,0:0:0:0:
448,192,52677,1,0,0:0:0:0:
64,192,52760,128,0,54079:0:0:0:70:kick.wav
192,192,52760,1,0,0:0:0:0:
448,192,52925,1,0,0:0:0:0:
320,192,53007,1,0,0:0:0:0:
192,192,53090,1,0,0:0:0:70:kick.wav
448,192,53090,1,0,0:0:0:0:
320,192,53172,1,0,0:0:0:0:
192,192,53254,1,0,0:0:0:0:
448,192,53337,1,0,0:0:0:0:
192,192,53419,1,0,0:0:0:70:kick.wav
320,192,53419,1,0,0:0:0:0:
448,192,53502,1,0,0:0:0:0:
320,192,53584,1,0,0:0:0:0:
192,192,53666,1,0,0:0:0:0:
320,192,53749,1,0,0:0:0:70:kick.wav
448,192,53749,1,0,0:0:0:0:
192,192,53914,1,0,0:0:0:0:
320,192,53996,1,0,0:0:0:0:
192,192,54079,1,0,0:0:0:70:kick.wav
448,192,54079,128,0,54738:0:0:0:0:
320,192,54161,1,0,0:0:0:0:
64,192,54243,1,0,0:0:0:0:
192,192,54326,1,0,0:0:0:0:
64,192,54408,1,0,0:0:0:70:kick.wav
320,192,54408,1,0,0:0:0:0:
192,192,54491,1,0,0:0:0:0:
320,192,54573,1,0,0:0:0:0:
64,192,54655,1,0,0:0:0:0:
192,192,54738,1,0,0:0:0:70:LR_DS - Snare Wet High.wav
320,192,54738,1,0,0:0:0:100:LR_Kick Hard Fast.wav
64,192,54903,1,0,0:0:0:100:LR_Kick Hard Fast.wav
448,192,54903,1,0,0:0:0:0:
320,192,55068,1,0,0:0:0:100:LR_Kick Hard Fast.wav
448,192,55068,1,0,0:0:0:0:
64,192,55150,1,0,0:0:0:100:LR_Kick Hard Fast.wav
192,192,55150,1,0,0:0:0:0:
320,192,55232,1,0,0:0:0:100:LR_Kick Hard Fast.wav
448,192,55232,1,0,0:0:0:0:
64,192,55315,1,0,0:0:0:100:LR_Kick Hard Fast.wav
192,192,55315,1,0,0:0:0:0:
320,192,55397,1,0,0:0:0:50:LR_CymbalG.wav
448,192,55397,1,0,0:0:0:0:
64,192,55727,1,0,0:0:0:70:LR_Snare Hit Hard.wav
448,192,55727,1,0,0:0:0:0:
320,192,55974,1,0,0:0:0:0:
64,192,56057,1,0,0:0:0:70:LR_Kick Hard Fast.wav
192,192,56057,1,0,0:0:0:0:
320,192,56221,1,0,0:0:0:70:LR_Snare Hit Hard.wav
448,192,56221,1,0,0:0:0:0:
64,192,56386,1,0,0:0:0:70:LR_Kick Hard Fast.wav
448,192,56386,1,0,0:0:0:0:
192,192,56551,1,0,0:0:0:70:LR_Kick Hard Fast.wav
320,192,56551,1,0,0:0:0:0:
64,192,56716,1,0,0:0:0:70:LR_Tom Hit.wav
192,192,56716,1,0,0:0:0:0:
320,192,56881,1,0,0:0:0:70:LR_Kick Hard Fast.wav
448,192,56881,1,0,0:0:0:0:
64,192,57046,1,0,0:0:0:70:LR_Snare Hit Hard.wav
448,192,57046,1,0,0:0:0:0:
192,192,57210,128,0,57375:0:0:0:0:
320,192,57375,1,0,0:0:0:70:LR_Snare Hit Hard.wav
448,192,57375,1,0,0:0:0:0:
64,192,57458,1,0,0:0:0:70:LR_Snare Hit Hard.wav
192,192,57540,1,0,0:0:0:70:LR_Kick Hard Fast.wav
448,192,57540,1,0,0:0:0:0:
64,192,57705,1,0,0:0:0:70:LR_Snare Hit Hard.wav
320,192,57705,1,0,0:0:0:0:
448,192,57870,128,0,58035:0:0:0:0:
64,192,58035,1,0,0:0:0:70:LR_Kick Hard Fast.wav
192,192,58035,1,0,0:0:0:0:
320,192,58199,1,0,0:0:0:0:
64,192,58364,1,0,0:0:0:70:LR_Snare Hit Hard.wav
448,192,58364,1,0,0:0:0:0:
192,192,58529,1,0,0:0:0:0:
320,192,58584,1,0,0:0:0:0:
64,192,58694,1,0,0:0:0:70:LR_Kick Hard Fast.wav
448,192,58694,1,0,0:0:0:0:
192,192,58859,1,0,0:0:0:70:LR_Snare Hit Hard.wav
320,192,58859,1,0,0:0:0:0:
320,192,59024,1,0,0:0:0:70:LR_Kick Hard Fast.wav
448,192,59024,1,0,0:0:0:0:
64,192,59188,1,0,0:0:0:70:LR_Kick Hard Fast.wav
192,192,59188,1,0,0:0:0:0:
320,192,59353,1,0,0:0:0:70:LR_Tom Hit.wav
448,192,59353,1,0,0:0:0:0:
64,192,59518,1,0,0:0:0:70:LR_Kick Hard Fast.wav
320,192,59518,1,0,0:0:0:0:
192,192,59683,1,0,0:0:0:70:LR_Snare Hit Hard.wav
448,192,59683,1,0,0:0:0:0:
320,192,59848,128,0,60013:0:0:0:0:
64,192,60013,1,0,0:0:0:70:LR_Snare Hit Hard.wav
448,192,60013,1,0,0:0:0:0:
192,192,60095,1,0,0:0:0:70:LR_Snare Hit Hard.wav
320,192,60177,1,0,0:0:0:70:LR_Kick Hard Fast.wav
448,192,60177,1,0,0:0:0:0:
64,192,60342,1,0,0:0:0:70:LR_Snare Hit Hard.wav
448,192,60342,1,0,0:0:0:0:
320,192,60425,1,0,0:0:0:70:LR_Snare Hit Hard.wav
64,192,60507,1,0,0:0:0:70:LR_Snare Hit Hard.wav
192,192,60507,1,0,0:0:0:0:
448,192,60590,1,0,0:0:0:70:LR_Snare Hit Hard.wav
192,192,60672,1,0,0:0:0:70:LR_Kick Hard Fast.wav
320,192,60672,1,0,0:0:0:0:
64,192,61002,1,0,0:0:0:70:LR_Snare Hit Hard.wav
448,192,61002,1,0,0:0:0:0:
192,192,61249,128,0,61331:0:0:0:0:
320,192,61331,1,0,0:0:0:70:LR_Kick Hard Fast.wav
448,192,61331,1,0,0:0:0:0:
64,192,61496,1,0,0:0:0:70:LR_Snare Hit Hard.wav
192,192,61496,1,0,0:0:0:0:
64,192,61661,1,0,0:0:0:70:LR_Kick Hard Fast.wav
448,192,61661,1,0,0:0:0:0:
192,192,61826,1,0,0:0:0:70:LR_Kick Hard Fast.wav
320,192,61826,1,0,0:0:0:0:
64,192,61991,1,0,0:0:0:70:LR_Snare Hit Hard.wav
448,192,61991,1,0,0:0:0:0:
192,192,62155,1,0,0:0:0:70:LR_Kick Hard Fast.wav
448,192,62155,1,0,0:0:0:0:
64,192,62320,1,0,0:0:0:70:LR_Snare Hit Hard.wav
320,192,62320,1,0,0:0:0:0:
192,192,62403,1,0,0:0:0:70:LR_Snare Hit Hard.wav
320,192,62485,1,0,0:0:0:70:LR_Kick Hard Fast.wav
448,192,62485,1,0,0:0:0:0:
64,192,62568,1,0,0:0:0:50:LR_Kick Hard Fast.wav
192,192,62650,1,0,0:0:0:70:LR_Snare Hit Hard.wav
448,192,62650,1,0,0:0:0:0:
320,192,62815,128,0,62980:0:0:0:0:
192,192,62897,1,0,0:0:0:70:LR_Snare Hit Hard.wav
64,192,62980,1,0,0:0:0:70:LR_Snare Hit Hard.wav
448,192,62980,1,0,0:0:0:0:
64,192,63144,1,0,0:0:0:70:LR_Snare Hit Hard.wav
192,192,63144,1,0,0:0:0:0:
320,192,63309,1,0,0:0:0:70:LR_Kick Hard Fast.wav
448,192,63309,1,0,0:0:0:0:
64,192,63474,128,0,63557:0:0:0:0:
192,192,63639,1,0,0:0:0:70:LR_Snare Hit Hard.wav
448,192,63639,1,0,0:0:0:0:
64,192,63969,1,0,0:0:0:70:LR_Kick Hard Fast.wav
320,192,63969,1,0,0:0:0:0:
320,192,64133,1,0,0:0:0:70:LR_Snare Hit Hard.wav
448,192,64133,1,0,0:0:0:0:
64,192,64298,1,0,0:0:0:70:LR_Kick Hard Fast.wav
192,192,64298,1,0,0:0:0:0:
64,192,64463,1,0,0:0:0:70:LR_Kick Hard Fast.wav
448,192,64463,1,0,0:0:0:0:
192,192,64628,1,0,0:0:0:70:LR_Tom Hit.wav
320,192,64628,1,0,0:0:0:0:
64,192,64793,1,0,0:0:0:70:LR_Kick Hard Fast.wav
192,192,64793,1,0,0:0:0:0:
320,192,64958,1,0,0:0:0:70:LR_Snare Hit Hard.wav
448,192,64958,1,0,0:0:0:0:
64,192,65122,1,0,0:0:0:0:
192,192,65287,1,0,0:0:0:70:LR_Snare Hit Hard.wav
448,192,65287,1,0,0:0:0:0:
320,192,65370,1,0,0:0:0:70:LR_Snare Hit Hard.wav
64,192,65452,1,0,0:0:0:70:LR_Kick Hard Fast.wav
192,192,65452,1,0,0:0:0:0:
320,192,65617,1,0,0:0:0:70:LR_Snare Hit Hard.wav
448,192,65617,1,0,0:0:0:0:
192,192,65782,1,0,0:0:0:70:LR_Snare Hit Hard.wav
320,192,65782,1,0,0:0:0:0:
64,192,65947,128,0,68254:0:0:0:60:kick.wav
448,192,65947,128,0,66194:0:0:0:0:
320,192,66194,128,0,66441:0:0:0:0:
448,192,66441,128,0,66606:0:0:0:0:
192,192,66606,1,0,0:0:0:30:LR_Clap kick.wav
320,192,66606,128,0,66936:0:0:0:0:
448,192,66936,128,0,67265:0:0:0:0:
192,192,67265,1,0,0:0:0:50:kick.wav
320,192,67265,128,0,67513:0:0:0:0:
448,192,67513,128,0,67760:0:0:0:0:
320,192,67760,128,0,67925:0:0:0:0:
192,192,67925,1,0,0:0:0:30:LR_DS - Snare Wet High.wav
448,192,67925,128,0,68254:0:0:0:0:
192,192,68254,128,0,68584:0:0:0:0:
64,192,68584,128,0,69903:0:0:0:50:kick.wav
320,192,68584,128,0,68831:0:0:0:0:
192,192,68831,128,0,69079:0:0:0:0:
320,192,69079,128,0,69243:0:0:0:0:
192,192,69243,128,0,69573:0:0:0:30:LR_Clap kick.wav
448,192,69243,1,0,0:0:0:0:
320,192,69573,128,0,69903:0:0:0:0:
192,192,69903,128,0,70068:0:0:0:50:kick.wav
448,192,69903,128,0,71221:0:0:0:0:
64,192,70068,128,0,70232:0:0:0:0:
192,192,70232,128,0,70397:0:0:0:0:
320,192,70397,128,0,70562:0:0:0:0:
64,192,70562,128,0,70727:0:0:0:30:LR_DS - Snare Wet High.wav
192,192,70562,1,0,0:0:0:0:
320,192,70727,128,0,70809:0:0:0:0:
192,192,70809,128,0,70892:0:0:0:0:
64,192,70892,128,0,71221:0:0:0:0:
320,192,71221,1,0,0:0:0:0:
192,192,71221,1,0,0:0:0:0:
448,192,71469,128,0,71716:0:0:0:0:
192,192,71551,1,0,0:0:0:0:
320,192,71716,128,0,71881:0:0:0:0:
64,192,71881,128,0,72210:0:0:0:30:LR_Clap kick.wav
448,192,71963,1,0,0:0:0:0:
320,192,72210,128,0,72540:0:0:0:0:
192,192,72540,128,0,72787:0:0:0:50:kick.wav
64,192,72540,1,0,0:0:0:0:
448,192,72787,128,0,73035:0:0:0:0:
320,192,72870,1,0,0:0:0:0:
192,192,73035,128,0,73199:0:0:0:0:
320,192,73199,128,0,73529:0:0:0:0:
64,192,73199,1,0,0:0:0:0:
448,192,73529,128,0,73859:0:0:0:0:
64,192,73859,128,0,74106:0:0:0:50:kick.wav
320,192,74024,1,0,0:0:0:0:
448,192,74106,128,0,74353:0:0:0:0:
64,192,74353,128,0,74518:0:0:0:0:
192,192,74518,1,0,0:0:0:30:LR_Clap kick.wav
320,192,74518,128,0,74848:0:0:0:0:
64,192,74848,128,0,75177:0:0:0:0:
192,192,75177,1,0,0:0:0:50:kick.wav
448,192,75177,128,0,75672:0:0:0:0:
320,192,75425,1,0,0:0:0:0:
192,192,75507,1,0,0:0:0:0:
64,192,75672,128,0,75837:0:0:0:0:
320,192,75837,1,0,0:0:0:30:LR_DS - Snare Wet High.wav
448,192,75837,128,0,76496:0:0:0:0:
64,192,76496,128,0,76743:0:0:0:50:kick.wav
320,192,76496,1,0,0:0:0:0:
192,192,76743,128,0,76991:0:0:0:0:
320,192,76826,1,0,0:0:0:0:
448,192,76991,128,0,77155:0:0:0:0:
64,192,77155,128,0,77485:0:0:0:30:LR_Clap kick.wav
320,192,77155,1,0,0:0:0:0:
192,192,77320,128,0,77485:0:0:0:0:
320,192,77485,128,0,77815:0:0:0:0:
448,192,77485,1,0,0:0:0:0:
64,192,77815,128,0,78144:0:0:0:50:kick.wav
192,192,77815,1,0,0:0:0:0:
448,192,77980,1,0,0:0:0:0:
192,192,78062,1,0,0:0:0:0:
448,192,78144,128,0,78309:0:0:0:0:
192,192,78309,128,0,78639:0:0:0:0:
64,192,78474,1,0,0:0:0:30:LR_DS - Snare Wet High.wav
320,192,78474,128,0,78639:0:0:0:0:
448,192,78639,128,0,78804:0:0:0:0:
64,192,78804,128,0,78969:0:0:0:0:
192,192,78804,1,0,0:0:0:0:
320,192,78969,128,0,79133:0:0:0:0:
192,192,79133,128,0,79298:0:0:0:50:kick.wav
448,192,79133,1,0,0:0:0:0:
320,192,79298,128,0,79463:0:0:0:0:
64,192,79381,1,0,0:0:0:0:
448,192,79463,128,0,79628:0:0:0:0:
64,192,79628,128,0,79958:0:0:0:0:
192,192,79793,1,0,0:0:0:30:LR_Clap kick.wav
320,192,79793,128,0,79958:0:0:0:0:
448,192,79958,128,0,80122:0:0:0:0:
64,192,80122,1,0,0:0:0:0:
192,192,80122,128,0,80452:0:0:0:0:
320,192,80452,1,0,0:0:0:0:
448,192,80452,128,0,80617:0:0:0:0:
64,192,80617,128,0,80782:0:0:0:0:
320,192,80699,1,0,0:0:0:0:
192,192,80782,128,0,80947:0:0:0:0:
320,192,80947,128,0,81112:0:0:0:0:
64,192,81112,128,0,81441:0:0:0:30:LR_DS - Snare Wet High.wav
192,192,81112,1,0,0:0:0:0:
448,192,81441,128,0,81771:0:0:0:0:
192,192,81771,128,0,82018:0:0:0:50:kick.wav
64,192,81771,1,0,0:0:0:0:
448,192,82018,128,0,82265:0:0:0:0:
320,192,82101,1,0,0:0:0:0:
192,192,82265,128,0,82430:0:0:0:0:
320,192,82430,128,0,82760:0:0:0:0:
64,192,82430,1,0,0:0:0:0:
192,192,82760,128,0,83090:0:0:0:0:
64,192,83090,1,0,0:0:0:50:kick.wav
448,192,83090,128,0,83337:0:0:0:0:
320,192,83337,128,0,83584:0:0:0:0:
64,192,83419,1,0,0:0:0:0:
192,192,83584,128,0,83749:0:0:0:0:
64,192,83749,128,0,84079:0:0:0:30:LR_DS - Snare Wet High.wav
448,192,83749,1,0,0:0:0:0:
192,192,84079,128,0,84408:0:0:0:0:
320,192,84408,128,0,84655:0:0:0:50:kick.wav
448,192,84408,1,0,0:0:0:0:
64,192,84655,128,0,84903:0:0:0:0:
448,192,84738,1,0,0:0:0:0:
192,192,84903,128,0,85068:0:0:0:0:
320,192,85068,1,0,0:0:0:30:LR_Clap kick.wav
448,192,85068,128,0,85397:0:0:0:0:
64,192,85397,128,0,85727:0:0:0:0:
192,192,85727,1,0,0:0:0:50:kick.wav
320,192,85727,128,0,85974:0:0:0:0:
192,192,85974,128,0,86221:0:0:0:0:
448,192,86057,1,0,0:0:0:0:
64,192,86221,128,0,86386:0:0:0:0:
320,192,86386,1,0,0:0:0:30:LR_DS - Snare Wet High.wav
448,192,86386,128,0,86551:0:0:0:0:
192,192,86551,128,0,86716:0:0:0:0:
320,192,86716,128,0,86881:0:0:0:0:
192,192,86881,128,0,87046:0:0:0:0:
64,192,87046,128,0,88364:0:0:0:0:
448,192,87293,128,0,88364:0:0:0:0:
320,192,87705,128,0,88364:0:0:0:0:
