osu file format v14

[General]
AudioFilename: audio.mp3
AudioLeadIn: 0
PreviewTime: 148211
Countdown: 1
SampleSet: Soft
StackLeniency: 0.7
Mode: 0
LetterboxInBreaks: 0
WidescreenStoryboard: 1

[Editor]
DistanceSpacing: 1.4
BeatDivisor: 4
GridSize: 32
TimelineZoom: 0.6999999

[Metadata]
Title:RTRT
TitleUnicode:RTRT
Artist:Mili
ArtistUnicode:Mili
Creator:SMOKELIND
Version:Hard
Source:
Tags:Momocashew Cassie Wei ProjectMili Yamato Kasai HAMO English Miracle Milk
BeatmapID:2047637
BeatmapSetID:978481

[Difficulty]
HPDrainRate:4
CircleSize:3.3
OverallDifficulty:5.7
ApproachRate:7.7
SliderMultiplier:1.57
SliderTickRate:1

[Events]
//Background and Video events
0,0,"RTRT.jpg",0,0
//Break Periods
2,29547,30371
2,31366,32189
2,33184,34007
2,35002,35825
2,36820,37643
2,38638,39462
2,40457,41280
2,42275,43098
2,89547,95825
2,103639,117643
//Storyboard Layer 0 (Background)
//Storyboard Layer 1 (Fail)
//Storyboard Layer 2 (Pass)
//Storyboard Layer 3 (Foreground)
//Storyboard Layer 4 (Overlay)
//Storyboard Sound Samples

[TimingPoints]
257,454.545454545455,4,2,77,27,1,0
257,-212.765957446809,4,2,77,37,0,0
7529,-212.765957446809,4,2,77,37,0,0
9347,-212.765957446809,4,2,77,47,0,0
11166,-212.765957446809,4,2,77,57,0,0
12984,-212.765957446809,4,2,77,67,0,0
14234,-212.765957446809,4,2,77,67,0,0
14688,-212.765957446809,4,2,77,7,0,0
14802,-103.092783505155,4,2,77,77,0,0
28893,-270.27027027027,4,2,77,77,0,0
29234,-270.27027027027,4,2,77,7,0,0
29347,-129.87012987013,4,2,77,47,0,0
43893,-129.87012987013,4,2,77,57,0,0
45143,-129.87012987013,4,2,77,7,0,0
45257,-129.87012987013,4,2,77,57,0,0
45598,-129.87012987013,4,2,77,7,0,0
45711,-129.87012987013,4,2,77,57,0,0
46961,-129.87012987013,4,2,77,7,0,0
47075,-129.87012987013,4,2,77,57,0,0
47416,-129.87012987013,4,2,77,7,0,0
47529,-129.87012987013,4,2,77,57,0,0
48779,-129.87012987013,4,2,77,7,0,0
48893,-129.87012987013,4,2,77,57,0,0
49234,-129.87012987013,4,2,77,7,0,0
49347,-129.87012987013,4,2,77,57,0,0
49688,-129.87012987013,4,2,77,7,0,0
49802,-129.87012987013,4,2,77,57,0,0
50143,-129.87012987013,4,2,77,7,0,0
50256,-129.87012987013,4,2,77,57,0,0
52870,-129.87012987013,4,2,77,7,0,0
52984,-129.87012987013,4,2,77,57,0,0
54234,-129.87012987013,4,2,77,7,0,0
54348,-129.87012987013,4,2,77,57,0,0
54689,-129.87012987013,4,2,77,7,0,0
54802,-129.87012987013,4,2,77,57,0,0
56961,-129.87012987013,4,2,77,7,0,0
57075,-129.87012987013,4,2,77,57,0,0
57416,-129.87012987013,4,2,77,7,0,0
57530,-129.87012987013,4,2,77,57,0,0
57870,-129.87012987013,4,2,77,7,0,0
57984,-129.87012987013,4,2,77,57,0,0
58893,-129.87012987013,4,2,77,77,0,0
60257,-93.4579439252336,4,2,7,97,0,1
74347,-93.4579439252336,4,2,7,97,0,0
74802,-93.4579439252336,4,2,7,97,0,1
89347,-129.87012987013,4,2,77,47,0,0
96620,-129.87012987013,4,2,77,57,0,0
103438,-370.370370370373,4,2,77,57,0,0
103779,-370.370370370373,4,2,77,7,0,0
103893,-129.87012987013,4,2,77,47,0,0
118438,-129.87012987013,4,2,77,57,0,0
119347,-129.87012987013,4,2,77,57,0,0
119688,-129.87012987013,4,2,77,7,0,0
119802,-129.87012987013,4,2,77,57,0,0
120143,-129.87012987013,4,2,77,7,0,0
120257,-129.87012987013,4,2,77,57,0,0
121507,-129.87012987013,4,2,77,7,0,0
121621,-129.87012987013,4,2,77,57,0,0
121961,-129.87012987013,4,2,77,7,0,0
122075,-129.87012987013,4,2,77,57,0,0
123325,-129.87012987013,4,2,77,7,0,0
123439,-129.87012987013,4,2,77,57,0,0
126961,-129.87012987013,4,2,77,7,0,0
127075,-129.87012987013,4,2,77,57,0,0
127416,-129.87012987013,4,2,77,7,0,0
127530,-129.87012987013,4,2,77,57,0,0
128779,-129.87012987013,4,2,77,7,0,0
128893,-129.87012987013,4,2,77,57,0,0
129234,-129.87012987013,4,2,77,7,0,0
129348,-129.87012987013,4,2,77,57,0,0
130597,-129.87012987013,4,2,77,7,0,0
130711,-129.87012987013,4,2,77,57,0,0
131052,-129.87012987013,4,2,77,7,0,0
131166,-129.87012987013,4,2,77,57,0,0
133893,454.545454545455,4,2,7,37,1,0
133893,-212.765957446809,4,2,7,37,0,0
135256,-212.765957446809,4,2,77,37,0,0
147983,-370.370370370372,4,2,77,37,0,0
148324,-370.370370370372,4,2,77,7,0,0
148438,-212.765957446809,4,2,7,37,0,0
149801,-212.765957446809,4,2,77,37,0,0
162529,-175.438596491228,4,2,77,37,0,0
163211,-175.438596491228,4,2,7,47,0,0
163893,-129.87012987013,4,2,7,67,0,0
164802,-129.87012987013,4,2,7,77,0,0
165143,-129.87012987013,4,2,7,7,0,0
165256,-93.4579439252336,4,2,7,97,0,1
178893,-93.4579439252336,4,2,7,97,0,0
179347,-93.4579439252336,4,2,7,97,0,1
193438,-93.4579439252336,4,2,77,57,0,0
193893,-114.942528735633,4,2,77,67,0,0
207870,-588.235294117668,4,2,77,67,0,0
207983,-588.235294117668,4,2,77,27,0,0
208438,-588.23529411765,4,2,7,7,0,0

[Colours]
Combo1 : 255,206,206
Combo2 : 227,114,0
Combo3 : 227,0,0
Combo4 : 255,188,121
Combo5 : 255,121,121
Combo6 : 255,231,206

[HitObjects]
4,109,257,70,0,P|59:133|122:140,1,110.684998311081,2|0,0:0|0:0,0:0:0:0:
130,111,1166,2,0,P|185:86|248:79,1,110.684998311081,2|0,0:0|0:0,0:0:0:0:
251,112,2075,6,0,P|300:135|355:143,1,110.684998311081,2|0,0:0|0:0,0:0:0:0:
385,122,2984,2,0,P|361:175|351:241,1,110.684998311081,2|0,0:0|0:0,0:0:0:0:
386,238,3893,70,0,P|343:268|271:290,1,110.684998311081,2|0,0:0|0:0,0:0:0:0:
267,317,4802,2,0,P|224:287|152:265,1,110.684998311081,2|0,0:0|0:0,0:0:0:0:
162,304,5711,6,0,P|126:266|97:201,1,110.684998311081,2|0,0:0|0:0,0:0:0:0:
126,188,6620,1,2,0:0:0:0:
63,38,7529,70,0,L|77:124,1,73.789998874054,2|0,1:0|1:0,0:0:0:0:
155,176,8438,2,0,L|166:103,1,73.789998874054,0|0,1:0|1:0,0:0:0:0:
250,42,9347,2,0,L|264:128,1,73.789998874054,2|0,1:0|1:0,0:0:0:0:
342,180,10256,2,0,L|353:107,1,73.789998874054,0|0,1:0|1:0,0:0:0:0:
422,29,11166,5,2,1:0:0:0:
492,104,11620,1,0,1:0:0:0:
471,205,12075,1,0,1:0:0:0:
391,271,12529,1,0,1:0:0:0:
342,180,12984,2,0,P|304:186|263:209,1,73.789998874054,2|0,1:0|1:0,0:0:0:0:
226,294,13893,1,0,1:0:0:0:
75,70,14802,38,0,P|115:79|173:80,1,76.1450018009148,6|0,1:0|0:0,0:0:0:0:
184,119,15143,1,2,0:0:0:0:
184,119,15257,2,0,P|223:110|259:111,1,76.1450018009148,10|2,0:0|0:0,0:0:0:0:
347,51,15711,2,0,P|347:91|357:149,1,76.1450018009148,2|2,1:0|0:0,0:0:0:0:
395,158,16052,1,2,0:0:0:0:
395,158,16166,2,0,P|392:197|387:233,1,76.1450018009148,10|2,0:0|0:0,0:0:0:0:
421,334,16620,6,0,P|386:311|328:294,1,76.1450018009148,2|2,1:0|0:0,0:0:0:0:
306,323,16961,1,2,0:0:0:0:
306,323,17075,2,0,P|265:342|218:347,1,76.1450018009148,10|2,0:0|0:0,0:0:0:0:
130,325,17529,2,0,P|124:285|109:241,1,76.1450018009148,2|2,1:0|0:0,0:0:0:0:
67,222,17870,1,2,0:0:0:0:
67,222,17984,2,0,P|82:174|87:132,1,76.1450018009148,10|2,0:0|0:0,0:0:0:0:
75,42,18438,70,0,P|112:61|153:69,1,76.1450018009148,6|2,1:0|0:0,0:0:0:0:
193,44,18779,1,2,0:0:0:0:
193,44,18893,2,0,P|174:81|166:122,1,76.1450018009148,10|2,0:0|0:0,0:0:0:0:
261,162,19347,2,0,P|280:199|288:240,1,76.1450018009148,2|2,1:0|0:0,0:0:0:0:
254,274,19688,1,2,0:0:0:0:
254,274,19802,2,0,P|217:282|183:300,1,76.1450018009148,10|2,0:0|0:0,0:0:0:0:
106,375,20257,6,0,P|68:324|59:291,1,76.1450018009148,2|2,1:0|0:0,0:0:0:0:
107,215,20711,2,0,P|128:170|134:130,1,76.1450018009148,10|2,0:0|0:0,0:0:0:0:
98,43,21166,2,0,P|131:59|182:68,1,76.1450018009148,2|2,1:0|0:0,0:0:0:0:
207,29,21507,1,2,0:0:0:0:
207,29,21620,1,10,0:0:0:0:
306,65,21847,1,10,0:0:0:0:
250,156,22075,70,0,P|258:199|279:248,1,76.1450018009148,6|2,1:0|0:0,0:0:0:0:
315,255,22416,1,2,0:0:0:0:
315,255,22529,2,0,P|350:242|388:235,1,76.1450018009148,10|2,0:0|0:0,0:0:0:0:
475,297,22984,2,0,P|483:243|502:202,1,76.1450018009148,2|2,1:0|0:0,0:0:0:0:
489,169,23325,1,2,0:0:0:0:
489,169,23438,2,0,P|484:131|472:95,1,76.1450018009148,10|2,0:0|0:0,0:0:0:0:
376,47,23893,6,0,P|349:74|305:90,1,76.1450018009148,2|2,1:0|0:0,0:0:0:0:
265,67,24234,1,2,0:0:0:0:
265,67,24347,2,0,P|238:40|194:24,1,76.1450018009148,10|2,0:0|0:0,0:0:0:0:
101,57,24802,2,0,P|127:91|142:136,1,76.1450018009148,2|2,1:0|0:0,0:0:0:0:
112,168,25143,1,2,0:0:0:0:
112,168,25257,2,0,P|86:202|71:247,1,76.1450018009148,10|2,0:0|0:0,0:0:0:0:
90,338,25711,70,0,P|146:302|184:293,1,76.1450018009148,6|2,1:0|0:0,0:0:0:0:
206,311,26052,1,2,0:0:0:0:
206,311,26166,2,0,P|262:347|300:356,1,76.1450018009148,10|2,0:0|0:0,0:0:0:0:
361,293,26620,2,0,P|369:245|385:197,1,76.1450018009148,2|2,1:0|0:0,0:0:0:0:
415,181,26961,1,2,0:0:0:0:
415,181,27075,2,0,P|409:143|399:106,1,76.1450018009148,10|2,0:0|0:0,0:0:0:0:
313,44,27529,6,0,B|248:75|291:107|193:144,1,152.29000360183,2|10,1:0|0:0,0:0:0:0:
113,78,28211,1,2,0:0:0:0:
125,183,28438,2,0,P|129:197|133:220,3,38.0725009004574,2|2|2|2,1:0|0:0|0:0|0:0,0:0:0:0:
190,50,29347,5,6,1:0:0:0:
448,146,31166,5,2,1:0:0:0:
220,358,32984,85,6,1:0:0:0:
60,99,34802,69,2,1:0:0:0:
348,109,36620,5,6,1:0:0:0:
190,50,38438,85,2,1:0:0:0:
190,50,40257,69,6,1:0:0:0:
190,50,42075,85,2,1:0:0:0:
58,68,43893,6,0,B|133:74|92:100|178:104,1,120.889997601975,2|8,1:0|0:0,0:0:0:0:
247,67,44575,1,2,3:0:0:0:
247,67,44802,2,0,P|205:116|190:195,1,120.889997601975,2|10,1:0|0:0,0:0:0:0:
190,338,45711,70,0,P|236:311|322:311,1,120.889997601975,2|8,1:0|0:0,0:0:0:0:
370,356,46393,1,2,3:0:0:0:
370,356,46620,2,0,P|400:298|414:238,1,120.889997601975,2|10,1:0|0:0,0:0:0:0:
391,76,47529,6,0,P|349:103|316:170,1,120.889997601975,2|8,1:0|0:0,0:0:0:0:
355,240,48211,1,2,3:0:0:0:
355,240,48438,2,0,P|309:281|245:288,1,120.889997601975,2|10,1:0|0:0,0:0:0:0:
186,235,49120,69,2,3:0:0:0:
186,235,49347,2,0,P|205:280|213:358,1,120.889997601975,2|10,1:0|0:0,0:0:0:0:
91,232,50257,1,2,1:0:0:0:
91,232,50484,1,8,0:0:0:0:
137,161,50711,2,0,P|144:123|143:79,1,60.4449988009873,10|0,0:0|3:0,0:0:0:0:
208,44,51166,6,0,P|251:68|334:87,1,120.889997601975,2|8,1:0|0:0,0:0:0:0:
389,37,51847,1,2,3:0:0:0:
389,37,52075,2,0,P|363:92|348:159,1,120.889997601975,2|10,1:0|0:0,0:0:0:0:
436,295,52984,70,0,P|398:267|309:232,1,120.889997601975,2|8,1:0|0:0,0:0:0:0:
253,271,53666,1,2,3:0:0:0:
253,271,53893,2,0,P|197:296|129:296,1,120.889997601975,2|10,1:0|0:0,0:0:0:0:
15,181,54802,6,0,P|43:213|71:301,1,120.889997601975,2|8,1:0|0:0,0:0:0:0:
152,266,55484,1,2,3:0:0:0:
152,266,55711,2,0,P|162:228|177:201,2,60.4449988009873,2|2|10,1:0|3:0|0:0,0:0:0:0:
210,327,56393,69,2,3:0:0:0:
210,327,56620,2,0,B|276:328|249:358|331:356,1,120.889997601975,2|10,1:0|0:0,0:0:0:0:
435,227,57529,2,0,B|369:228|396:258|314:256,1,120.889997601975,2|2,1:0|1:0,0:0:0:0:
261,194,58211,1,8,0:0:0:0:
261,194,58438,2,0,P|247:154|243:128,1,60.4449988009873,2|8,0:0|3:0,0:0:0:0:
303,76,58893,2,0,P|262:47|174:60,1,120.889997601975,0|0,1:0|1:0,0:0:0:0:
164,128,59575,1,8,0:0:0:0:
164,128,59802,1,8,0:0:0:0:
366,32,60257,38,0,P|342:74|329:133,1,83.9949974366761,6|0,1:0|0:0,0:0:0:0:
413,192,60711,1,10,0:0:0:0:
367,300,60938,2,0,P|329:280|275:267,1,83.9949974366761,2|0,0:0|1:0,0:0:0:0:
209,182,61393,2,0,P|190:201|163:213,1,41.9974987183381,2|0,0:0|0:0,0:0:0:0:
105,241,61620,2,0,P|90:225|72:214,1,41.9974987183381,10|0,0:0|0:0,0:0:0:0:
4,175,61847,2,0,P|10:155|22:137,1,41.9974987183381,2|0,0:0|0:0,0:0:0:0:
85,88,62075,70,0,P|123:105|172:104,1,83.9949974366761,6|0,1:0|0:0,0:0:0:0:
255,29,62529,1,10,0:0:0:0:
372,32,62757,2,0,L|336:135,1,83.9949974366761,2|0,0:0|1:0,0:0:0:0:
271,203,63211,2,0,P|281:226|289:257,1,41.9974987183381,2|0,0:0|0:0,0:0:0:0:
265,317,63438,2,0,P|288:328|319:334,1,41.9974987183381,10|0,0:0|0:0,0:0:0:0:
368,278,63666,2,0,P|386:268|406:262,1,41.9974987183381,2|0,0:0|0:0,0:0:0:0:
479,308,63893,6,0,P|485:254|496:188,1,83.9949974366761,6|0,1:0|0:0,0:0:0:0:
459,111,64347,1,8,0:0:0:0:
362,43,64575,2,0,P|321:70|275:80,1,83.9949974366761,2|0,0:0|1:0,0:0:0:0:
180,30,65029,2,0,P|163:46|151:71,1,41.9974987183381,2|0,0:0|0:0,0:0:0:0:
199,128,65257,2,0,P|207:147|209:167,1,41.9974987183381,10|0,0:0|0:0,0:0:0:0:
262,229,65484,2,0,P|253:248|251:268,1,41.9974987183381,2|0,0:0|0:0,0:0:0:0:
208,337,65711,69,6,1:0:0:0:
208,337,65938,1,2,0:0:0:0:
157,230,66166,1,10,0:0:0:0:
157,230,66393,1,2,0:0:0:0:
88,325,66620,2,0,P|79:283|63:229,1,83.9949974366761,2|2,1:0|0:0,0:0:0:0:
10,140,67075,1,10,0:0:0:0:
10,140,67302,1,10,0:0:0:0:
81,46,67529,6,0,P|128:70|177:79,1,83.9949974366761,6|0,1:0|0:0,0:0:0:0:
261,21,67984,1,10,0:0:0:0:
250,137,68211,2,0,P|227:185|211:239,1,83.9949974366761,2|0,0:0|1:0,0:0:0:0:
240,329,68666,2,0,P|211:315|170:306,1,41.9974987183381,2|0,0:0|0:0,0:0:0:0:
145,255,68893,2,0,P|126:264|106:272,1,41.9974987183381,10|0,0:0|0:0,0:0:0:0:
30,296,69120,2,0,P|22:276|12:257,1,41.9974987183381,2|0,0:0|0:0,0:0:0:0:
6,175,69347,70,0,P|29:131|45:78,1,83.9949974366761,6|0,1:0|0:0,0:0:0:0:
140,36,69802,1,10,0:0:0:0:
217,125,70029,2,0,P|254:153|327:160,1,83.9949974366761,2|0,0:0|1:0,0:0:0:0:
395,111,70484,2,0,P|383:136|374:169,1,41.9974987183381,2|0,0:0|0:0,0:0:0:0:
434,208,70711,2,0,P|442:227|449:246,1,41.9974987183381,10|0,0:0|0:0,0:0:0:0:
384,296,70938,2,0,P|375:315|368:334,1,41.9974987183381,2|0,0:0|0:0,0:0:0:0:
294,372,71166,6,0,P|286:326|272:274,1,83.9949974366761,6|0,1:0|0:0,0:0:0:0:
227,183,71620,1,10,0:0:0:0:
151,273,71847,2,0,P|100:275|47:257,1,83.9949974366761,2|0,0:0|1:0,0:0:0:0:
37,153,72302,2,0,P|50:125|56:104,1,41.9974987183381,2|0,0:0|0:0,0:0:0:0:
40,37,72529,2,0,P|58:20|89:10,1,41.9974987183381,10|0,0:0|0:0,0:0:0:0:
140,54,72757,2,0,P|158:64|178:68,1,41.9974987183381,2|0,0:0|0:0,0:0:0:0:
250,24,72984,69,6,1:0:0:0:
250,24,73211,1,2,0:0:0:0:
236,140,73438,1,10,0:0:0:0:
236,140,73665,1,2,0:0:0:0:
337,80,73893,2,0,P|385:53|435:47,1,83.9949974366761,2|2,1:0|0:0,0:0:0:0:
467,70,74234,1,2,0:0:0:0:
467,70,74347,2,0,P|453:106|440:154,1,83.9949974366761,10|4,0:0|1:0,0:0:0:0:
466,202,74688,5,0,3:0:0:0:
466,202,74802,2,0,P|420:255|389:266,1,83.9949974366761,6|0,1:0|0:0,0:0:0:0:
326,176,75257,1,10,0:0:0:0:
225,236,75484,2,0,P|244:272|257:321,1,83.9949974366761,2|0,0:0|1:0,0:0:0:0:
363,360,75938,2,0,P|371:325|382:297,1,41.9974987183381,2|0,0:0|0:0,0:0:0:0:
434,265,76166,2,0,P|425:230|415:202,1,41.9974987183381,10|0,0:0|0:0,0:0:0:0:
358,177,76393,2,0,P|366:142|377:114,1,41.9974987183381,2|0,0:0|0:0,0:0:0:0:
385,60,76620,70,0,P|346:88|272:94,1,83.9949974366761,6|0,1:0|0:0,0:0:0:0:
209,37,77075,1,10,0:0:0:0:
94,61,77302,2,0,P|111:101|122:149,1,83.9949974366761,2|0,0:0|1:0,0:0:0:0:
54,238,77757,2,0,P|79:231|109:226,1,41.9974987183381,2|0,0:0|0:0,0:0:0:0:
167,260,77984,2,0,P|187:264|207:269,1,41.9974987183381,10|0,0:0|0:0,0:0:0:0:
276,229,78211,2,0,P|296:224|316:219,1,41.9974987183381,2|0,0:0|0:0,0:0:0:0:
393,200,78438,6,0,P|376:238|365:278,1,83.9949974366761,6|0,1:0|0:0,0:0:0:0:
302,378,78893,1,10,0:0:0:0:
279,262,79120,2,0,P|236:234|183:219,1,83.9949974366761,2|0,0:0|1:0,0:0:0:0:
95,266,79575,2,0,P|86:239|81:213,1,41.9974987183381,2|0,0:0|0:0,0:0:0:0:
44,158,79802,2,0,P|48:137|55:117,1,41.9974987183381,10|0,0:0|0:0,0:0:0:0:
102,53,80029,2,0,P|122:57|142:64,1,41.9974987183381,2|0,0:0|0:0,0:0:0:0:
196,130,80257,69,6,1:0:0:0:
196,130,80484,1,2,0:0:0:0:
177,246,80711,1,10,0:0:0:0:
177,246,80938,1,2,0:0:0:0:
285,200,81166,2,0,P|322:205|367:235,1,83.9949974366761,2|2,1:0|0:0,0:0:0:0:
406,337,81620,1,10,0:0:0:0:
406,337,81847,1,10,0:0:0:0:
465,235,82075,6,0,P|477:179|493:125,1,83.9949974366761,6|0,1:0|0:0,0:0:0:0:
423,52,82529,1,10,0:0:0:0:
354,147,82757,2,0,P|311:171|255:168,1,83.9949974366761,2|0,0:0|1:0,0:0:0:0:
205,80,83211,2,0,P|179:67|152:59,1,41.9974987183381,2|0,0:0|0:0,0:0:0:0:
97,27,83438,2,0,P|77:34|58:43,1,41.9974987183381,10|0,0:0|0:0,0:0:0:0:
24,113,83666,2,0,P|33:131|40:151,1,41.9974987183381,2|0,0:0|0:0,0:0:0:0:
105,199,83893,70,0,P|85:242|78:284,1,83.9949974366761,6|0,1:0|0:0,0:0:0:0:
166,355,84347,1,10,0:0:0:0:
234,259,84575,2,0,P|295:233|325:235,1,83.9949974366761,2|0,0:0|1:0,0:0:0:0:
385,324,85029,2,0,P|400:295|412:268,1,41.9974987183381,2|0,0:0|0:0,0:0:0:0:
386,210,85257,2,0,P|377:178|373:149,1,41.9974987183381,10|0,0:0|0:0,0:0:0:0:
438,117,85484,2,0,P|446:85|450:56,1,41.9974987183381,2|0,0:0|0:0,0:0:0:0:
404,6,85711,6,0,P|357:40|308:50,1,83.9949974366761,6|0,1:0|0:0,0:0:0:0:
218,20,86166,1,10,0:0:0:0:
137,105,86393,2,0,P|166:157|192:180,1,83.9949974366761,2|0,0:0|1:0,0:0:0:0:
298,149,86847,2,0,P|321:141|359:131,1,41.9974987183381,2|0,0:0|0:0,0:0:0:0:
410,169,87075,2,0,P|402:192|392:230,1,41.9974987183381,10|0,0:0|0:0,0:0:0:0:
332,257,87302,2,0,P|338:276|344:297,1,41.9974987183381,2|0,0:0|0:0,0:0:0:0:
325,377,87529,70,0,P|271:349|224:342,1,83.9949974366761,6|0,1:0|0:0,0:0:0:0:
131,359,87984,1,10,0:0:0:0:
31,295,88211,2,0,P|26:246|17:196,1,83.9949974366761,2|0,0:0|1:0,0:0:0:0:
58,100,88666,1,2,0:0:0:0:
58,100,88893,1,10,0:0:0:0:
144,178,89120,1,2,0:0:0:0:
144,178,89347,1,6,1:0:0:0:
458,42,96620,70,0,P|430:61|377:74,1,60.4449988009873,6|0,1:0|3:0,0:0:0:0:
324,44,97075,1,8,0:0:0:0:
324,44,97529,70,0,P|305:72|292:125,1,60.4449988009873,2|0,1:0|3:0,0:0:0:0:
322,178,97984,1,8,0:0:0:0:
322,178,98438,6,0,P|341:206|354:259,1,60.4449988009873,2|0,1:0|3:0,0:0:0:0:
324,312,98893,1,10,0:0:0:0:
324,312,99347,70,0,P|296:293|243:280,1,60.4449988009873,2|0,1:0|3:0,0:0:0:0:
190,310,99802,1,8,0:0:0:0:
190,310,100257,6,0,P|171:282|158:229,1,60.4449988009873,2|0,1:0|3:0,0:0:0:0:
188,176,100712,1,10,0:0:0:0:
188,176,101166,70,0,P|160:157|107:144,1,60.4449988009873,2|0,1:0|3:0,0:0:0:0:
54,174,101621,1,10,0:0:0:0:
54,174,102075,6,0,P|35:146|22:93,1,60.4449988009873,2|0,1:0|3:0,0:0:0:0:
52,40,102530,1,10,0:0:0:0:
52,40,102984,70,0,P|80:59|133:72,1,60.4449988009873,2|0,1:0|3:0,0:0:0:0:
186,42,103439,1,8,0:0:0:0:
417,97,118438,6,0,P|425:67|436:40,2,60.4449988009873,2|0|8,1:0|3:0|0:0,0:0:0:0:
336,113,119120,1,2,3:0:0:0:
336,113,119347,2,0,L|245:101,1,60.4449988009873,2|0,1:0|0:0,0:0:0:0:
201,63,119802,2,0,L|141:70,1,60.4449988009873,10|0,0:0|0:0,0:0:0:0:
73,122,120257,70,0,P|44:110|18:96,2,60.4449988009873,2|0|8,1:0|3:0|0:0,0:0:0:0:
151,154,120938,1,2,3:0:0:0:
151,154,121166,2,0,L|134:234,1,60.4449988009873,2|0,1:0|0:0,0:0:0:0:
215,247,121620,2,0,L|227:306,1,60.4449988009873,10|0,0:0|0:0,0:0:0:0:
297,354,122075,6,0,P|329:357|376:368,2,60.4449988009873,2|0|8,1:0|3:0|0:0,0:0:0:0:
216,327,122757,1,2,3:0:0:0:
216,327,122984,2,0,L|136:349,1,60.4449988009873,2|0,1:0|0:0,0:0:0:0:
119,267,123438,1,10,0:0:0:0:
119,267,123666,1,2,3:0:0:0:
152,189,123893,70,0,L|234:205,1,60.4449988009873,2|0,1:0|0:0,0:0:0:0:
273,258,124347,2,0,L|332:246,1,60.4449988009873,10|0,0:0|0:0,0:0:0:0:
391,185,124802,1,2,1:0:0:0:
391,185,125029,1,10,0:0:0:0:
334,121,125257,2,0,L|274:109,1,60.4449988009873,10|0,0:0|0:0,0:0:0:0:
200,68,125711,6,0,P|185:33|178:-3,2,60.4449988009873,2|0|8,1:0|3:0|0:0,0:0:0:0:
248,137,126393,1,2,3:0:0:0:
248,137,126620,2,0,L|231:208,1,60.4449988009873,2|0,1:0|0:0,0:0:0:0:
157,232,127075,2,0,L|174:303,1,60.4449988009873,10|0,0:0|0:0,0:0:0:0:
228,352,127529,70,0,P|197:369|140:373,2,60.4449988009873,2|0|8,1:0|3:0|0:0,0:0:0:0:
275,281,128211,1,2,3:0:0:0:
275,281,128438,2,0,L|384:301,1,60.4449988009873,2|0,1:0|0:0,0:0:0:0:
352,208,128893,2,0,L|411:197,1,60.4449988009873,10|0,0:0|0:0,0:0:0:0:
489,165,129347,6,0,P|498:128|510:96,1,60.4449988009873,2|0,1:0|3:0,0:0:0:0:
445,46,129802,1,10,0:0:0:0:
445,46,130029,1,2,3:0:0:0:
374,93,130257,2,0,P|345:83|316:76,1,60.4449988009873,2|0,1:0|0:0,0:0:0:0:
235,102,130711,1,10,0:0:0:0:
235,102,130938,1,0,0:0:0:0:
180,166,131166,70,0,B|108:169|137:124|47:132,3,120.889997601975,2|10|2|2,1:0|0:0|1:0|1:0,0:0:0:0:
14,197,132757,1,8,0:0:0:0:
198,16,133893,6,0,B|222:56|296:56|280:48|342:25|389:75|389:75|342:94|333:148,1,295.159995496216,4|0,1:0|0:0,0:0:0:0:
482,304,136847,2,0,L|489:257,2,36.894999437027,2|2|2,0:0|0:0|0:0,0:0:0:0:
450,335,137529,69,2,1:0:0:0:
362,320,137983,1,2,0:0:0:0:
362,320,138211,2,0,L|279:330,1,73.789998874054,2|2,0:0|0:0,0:0:0:0:
166,380,139347,2,0,B|158:315|182:277|182:277|159:297|137:301,1,147.579997748108,2|2,0:0|0:0,0:0:0:0:
32,163,141165,2,0,B|-6:152|-13:116|32:88|122:101|98:125|165:126|209:103|199:72|188:57,1,258.264996059189,2|2,1:0|0:0,0:0:0:0:
184,23,142983,1,2,0:0:0:0:
175,288,144347,5,2,0:0:0:0:
258,318,144802,2,0,B|257:283|257:283|285:251|320:246|320:246|345:272|355:317|355:317|330:340,1,221.369996622162,2|0,1:0|0:0,0:0:0:0:
332,384,146393,1,2,0:0:0:0:
332,384,146620,1,2,1:0:0:0:
445,49,148438,86,0,B|366:59|334:136|334:136|293:68|191:69,1,295.159995496216,4|2,1:0|0:0,0:0:0:0:
348,40,151847,69,2,1:0:0:0:
348,40,152074,2,0,P|311:117|270:338,1,295.159995496216,2|2,1:0|0:0,0:0:0:0:
64,40,155711,86,0,P|101:117|142:338,1,295.159995496216,2|2,1:0|0:0,0:0:0:0:
388,57,159120,5,2,1:0:0:0:
388,57,159347,2,0,B|365:121|287:140|287:140|301:227|218:272,1,295.159995496216,2|2,1:0|1:0,0:0:0:0:
210,49,162529,70,0,P|198:83|187:132,1,67.1174991806946
169,135,162983,2,0,P|143:133|108:137,2,44.7449994537964,0|8|12,0:0|3:0|1:2,0:0:0:0:
259,222,163893,54,0,L|302:233,1,30.2224994004936,0|8,1:0|0:0,0:0:0:0:
336,160,164233,2,0,L|365:152,1,30.2224994004936,8|0,0:0|1:0,0:0:0:0:
437,197,164574,1,8,0:0:0:0:
307,24,165256,53,6,1:0:0:0:
416,65,165483,2,0,P|394:105|378:160,1,83.9949974366761,2|0,0:0|1:0,0:0:0:0:
471,221,165938,2,0,L|405:241,1,41.9974987183381,2|0,0:0|0:0,0:0:0:0:
384,300,166165,2,0,L|343:287,1,41.9974987183381,10|0,0:0|0:0,0:0:0:0:
282,237,166393,2,0,L|241:249,1,41.9974987183381,2|0,0:0|0:0,0:0:0:0:
185,306,166620,6,0,P|160:261|119:221,1,83.9949974366761,6|0,1:0|0:0,0:0:0:0:
58,150,167074,1,8,0:0:0:0:
126,54,167302,2,0,P|170:35|240:30,1,83.9949974366761,2|0,0:0|1:0,0:0:0:0:
314,75,167756,2,0,P|298:102|284:143,1,41.9974987183381,2|0,0:0|0:0,0:0:0:0:
286,190,167983,2,0,P|302:217|316:258,1,41.9974987183381,10|0,0:0|0:0,0:0:0:0:
377,267,168211,2,0,P|361:294|347:335,1,41.9974987183381,2|0,0:0|0:0,0:0:0:0:
374,381,168438,70,0,P|342:355|262:338,1,83.9949974366761,6|0,1:0|0:0,0:0:0:0:
207,269,168893,1,10,0:0:0:0:
143,367,169120,2,0,P|93:346|62:303,1,83.9949974366761,2|0,0:0|1:0,0:0:0:0:
64,208,169574,2,0,P|82:189|109:174,1,41.9974987183381,2|0,0:0|0:0,0:0:0:0:
167,210,169802,2,0,P|187:205|206:197,1,41.9974987183381,10|0,0:0|0:0,0:0:0:0:
245,127,170029,2,0,P|265:131|284:139,1,41.9974987183381,2|0,0:0|0:0,0:0:0:0:
340,198,170256,5,6,1:0:0:0:
340,198,170483,1,2,0:0:0:0:
251,275,170711,1,10,0:0:0:0:
251,275,170938,1,2,0:0:0:0:
354,220,171165,2,0,P|400:232|444:259,1,83.9949974366761,2|2,1:0|0:0,0:0:0:0:
496,348,171620,1,10,0:0:0:0:
496,348,171847,1,10,0:0:0:0:
463,235,172074,70,0,P|475:194|494:157,1,83.9949974366761,6|0,1:0|0:0,0:0:0:0:
399,86,172529,1,10,0:0:0:0:
290,129,172756,2,0,P|249:117|212:97,1,83.9949974366761,2|0,0:0|1:0,0:0:0:0:
106,45,173211,2,0,P|115:69|127:116,1,41.9974987183381,2|0,0:0|0:0,0:0:0:0:
76,150,173438,2,0,P|66:174|55:221,1,41.9974987183381,10|0,0:0|0:0,0:0:0:0:
113,248,173665,2,0,P|122:272|134:319,1,41.9974987183381,2|0,0:0|0:0,0:0:0:0:
87,358,173893,6,0,P|141:324|194:318,1,83.9949974366761,6|0,1:0|0:0,0:0:0:0:
247,241,174347,1,10,0:0:0:0:
304,343,174574,2,0,P|337:368|376:381,1,83.9949974366761,2|0,0:0|1:0,0:0:0:0:
442,283,175029,2,0,P|447:252|453:233,1,41.9974987183381,2|0,0:0|0:0,0:0:0:0:
494,176,175256,2,0,P|488:145|483:126,1,41.9974987183381,10|0,0:0|0:0,0:0:0:0:
409,111,175483,2,0,P|414:80|420:61,1,41.9974987183381,2|0,0:0|0:0,0:0:0:0:
358,16,175711,70,0,P|317:46|271:56,1,83.9949974366761,6|0,1:0|0:0,0:0:0:0:
173,19,176165,1,10,0:0:0:0:
58,48,176393,2,0,P|74:88|85:136,1,83.9949974366761,2|0,0:0|1:0,0:0:0:0:
10,219,176847,2,0,P|26:211|54:209,1,41.9974987183381,2|0,0:0|0:0,0:0:0:0:
106,263,177074,2,0,P|122:270|150:273,1,41.9974987183381,10|0,0:0|0:0,0:0:0:0:
193,207,177302,2,0,P|209:199|237:197,1,41.9974987183381,2|0,0:0|0:0,0:0:0:0:
293,253,177529,5,6,1:0:0:0:
293,253,177756,1,2,0:0:0:0:
377,170,177983,1,10,0:0:0:0:
377,170,178210,1,2,0:0:0:0:
301,79,178438,2,0,P|251:63|201:60,1,83.9949974366761,2|2,1:0|0:0,0:0:0:0:
171,93,178779,1,2,0:0:0:0:
171,93,178893,2,0,P|129:123|85:135,1,83.9949974366761,10|4,0:0|1:0,0:0:0:0:
43,113,179233,69,0,3:0:0:0:
43,113,179347,2,0,P|65:160|70:212,1,83.9949974366761,6|0,1:0|0:0,0:0:0:0:
58,308,179802,1,10,0:0:0:0:
144,228,180029,2,0,P|203:213|234:219,1,83.9949974366761,2|0,0:0|1:0,0:0:0:0:
312,294,180483,2,0,P|334:272|351:252,1,41.9974987183381,2|0,0:0|0:0,0:0:0:0:
348,183,180711,2,0,P|349:151|356:126,1,41.9974987183381,10|0,0:0|0:0,0:0:0:0:
391,70,180938,2,0,P|369:51|336:39,1,41.9974987183381,2|0,0:0|0:0,0:0:0:0:
287,86,181165,6,0,P|248:106|202:111,1,83.9949974366761,6|0,1:0|0:0,0:0:0:0:
103,57,181620,1,10,0:0:0:0:
12,131,181847,2,0,P|33:166|46:226,1,83.9949974366761,2|0,0:0|1:0,0:0:0:0:
27,324,182302,2,0,P|54:315|86:311,1,41.9974987183381,2|0,0:0|0:0,0:0:0:0:
130,360,182529,2,0,P|149:366|170:371,1,41.9974987183381,10|0,0:0|0:0,0:0:0:0:
231,320,182756,2,0,P|250:313|271:308,1,41.9974987183381,2|0,0:0|0:0,0:0:0:0:
341,349,182983,70,0,P|354:298|372:256,1,83.9949974366761,6|0,1:0|0:0,0:0:0:0:
446,182,183438,1,10,0:0:0:0:
388,79,183665,2,0,P|360:115|308:140,1,83.9949974366761,2|0,0:0|1:0,0:0:0:0:
219,87,184120,2,0,P|191:70|146:62,1,41.9974987183381,2|0,0:0|0:0,0:0:0:0:
105,94,184347,2,0,P|93:111|84:130,1,41.9974987183381,10|0,0:0|0:0,0:0:0:0:
143,186,184574,2,0,P|154:203|163:222,1,41.9974987183381,2|0,0:0|0:0,0:0:0:0:
225,285,184802,5,6,1:0:0:0:
225,285,185029,1,2,0:0:0:0:
274,178,185256,1,10,0:0:0:0:
274,178,185483,1,2,0:0:0:0:
340,275,185711,2,0,P|379:302|429:308,1,83.9949974366761,2|2,1:0|0:0,0:0:0:0:
481,212,186165,1,10,0:0:0:0:
481,212,186393,1,10,0:0:0:0:
414,115,186620,70,0,P|378:165|368:205,1,83.9949974366761,6|0,1:0|0:0,0:0:0:0:
293,273,187074,1,10,0:0:0:0:
215,184,187302,2,0,P|172:164|98:157,1,83.9949974366761,2|0,0:0|1:0,0:0:0:0:
40,224,187756,2,0,P|35:191|29:165,1,41.9974987183381,2|0,0:0|0:0,0:0:0:0:
0,108,187983,2,0,P|4:75|11:49,1,41.9974987183381,10|0,0:0|0:0,0:0:0:0:
73,18,188211,2,0,P|92:24|113:29,1,41.9974987183381,2|0,0:0|0:0,0:0:0:0:
180,80,188438,6,0,P|237:54|294:44,1,83.9949974366761,6|0,1:0|0:0,0:0:0:0:
374,64,188893,1,10,0:0:0:0:
372,181,189120,2,0,P|331:168|294:149,1,83.9949974366761,2|0,0:0|1:0,0:0:0:0:
207,70,189574,2,0,P|196:95|183:123,1,41.9974987183381,2|0,0:0|0:0,0:0:0:0:
131,164,189802,2,0,P|141:189|155:217,1,41.9974987183381,10|0,0:0|0:0,0:0:0:0:
211,250,190029,2,0,P|200:275|187:303,1,41.9974987183381,2|0,0:0|0:0,0:0:0:0:
137,347,190256,70,0,P|189:332|256:337,1,83.9949974366761,6|0,1:0|0:0,0:0:0:0:
334,352,190711,1,10,0:0:0:0:
444,297,190938,2,0,P|456:247|473:193,1,83.9949974366761,2|0,0:0|1:0,0:0:0:0:
422,105,191393,2,0,P|401:120|367:131,1,41.9974987183381,2|0,0:0|0:0,0:0:0:0:
327,66,191620,2,0,P|306:51|272:40,1,41.9974987183381,10|0,0:0|0:0,0:0:0:0:
225,91,191847,2,0,P|204:106|170:117,1,41.9974987183381,2|0,0:0|0:0,0:0:0:0:
111,83,192074,6,0,P|92:128|72:198,1,83.9949974366761,6|0,1:0|0:0,0:0:0:0:
132,267,192529,1,10,0:0:0:0:
211,171,192756,2,0,P|264:150|316:157,1,83.9949974366761,2|0,0:0|1:0,0:0:0:0:
374,232,193211,1,0,0:0:0:0:
450,143,193438,1,14,0:0:0:0:
450,143,193665,1,2,0:0:0:0:
377,80,193893,22,0,P|327:101|292:109,1,68.2950005731545,6|0,1:0|0:0,0:0:0:0:
237,46,194347,2,0,P|203:33|151:28,1,68.2950005731545,10|2,0:0|0:0,0:0:0:0:
92,82,194802,2,0,P|111:116|121:152,1,68.2950005731545,2|2,1:0|0:0,0:0:0:0:
159,170,195143,1,2,0:0:0:0:
159,170,195256,2,0,P|140:204|130:240,1,68.2950005731545,10|2,0:0|0:0,0:0:0:0:
175,317,195711,70,0,P|225:291|255:286,1,68.2950005731545,2|2,1:0|0:0,0:0:0:0:
293,211,196165,2,0,P|321:229|354:239,1,68.2950005731545,10|2,0:0|0:0,0:0:0:0:
440,197,196620,2,0,P|457:158|464:106,1,68.2950005731545,2|2,1:0|0:0,0:0:0:0:
445,88,196961,1,2,0:0:0:0:
445,88,197074,2,0,P|405:106|362:110,1,68.2950005731545,10|2,0:0|0:0,0:0:0:0:
297,62,197529,6,0,P|258:48|213:41,1,68.2950005731545,2|2,1:0|0:0,0:0:0:0:
137,57,197983,2,0,P|151:96|158:141,1,68.2950005731545,10|2,0:0|0:0,0:0:0:0:
243,161,198438,2,0,P|229:200|222:245,1,68.2950005731545,2|2,1:0|0:0,0:0:0:0:
235,272,198779,1,2,0:0:0:0:
235,272,198893,2,0,P|186:292|147:300,1,68.2950005731545,10|2,0:0|0:0,0:0:0:0:
80,265,199347,70,0,P|68:205|56:170,1,68.2950005731545,2|2,1:0|0:0,0:0:0:0:
156,166,199802,2,0,P|161:132|170:99,1,68.2950005731545,10|2,0:0|0:0,0:0:0:0:
220,18,200256,2,0,P|256:42|299:57,1,68.2950005731545,2|2,1:0|0:0,0:0:0:0:
326,59,200597,1,2,0:0:0:0:
326,59,200711,1,10,0:0:0:0:
293,148,200938,1,10,0:0:0:0:
366,208,201165,6,0,P|382:244|394:291,1,68.2950005731545,2|2,1:0|0:0,0:0:0:0:
351,359,201620,2,0,P|309:331|260:327,1,68.2950005731545,10|2,0:0|0:0,0:0:0:0:
197,338,202074,2,0,P|155:366|106:370,1,68.2950005731545,2|2,1:0|0:0,0:0:0:0:
100,341,202415,1,2,0:0:0:0:
100,341,202529,2,0,P|88:294|74:246,1,68.2950005731545,10|2,0:0|0:0,0:0:0:0:
30,195,202983,70,0,P|82:156|113:151,1,68.2950005731545,2|2,1:0|0:0,0:0:0:0:
156,218,203438,2,0,P|208:257|239:262,1,68.2950005731545,10|2,0:0|0:0,0:0:0:0:
277,189,203893,2,0,P|300:164|331:149,1,68.2950005731545,2|2,1:0|0:0,0:0:0:0:
376,163,204233,1,2,0:0:0:0:
376,163,204347,2,0,P|403:120|416:77,1,68.2950005731545,10|2,0:0|0:0,0:0:0:0:
484,44,204802,6,0,P|493:93|507:132,1,68.2950005731545,2|2,1:0|0:0,0:0:0:0:
467,201,205256,2,0,P|458:250|444:289,1,68.2950005731545,10|2,0:0|0:0,0:0:0:0:
387,338,205711,2,0,P|357:325|319:318,1,68.2950005731545,2|2,1:0|0:0,0:0:0:0:
285,349,206052,1,2,0:0:0:0:
285,349,206165,2,0,P|255:362|217:369,1,68.2950005731545,10|2,0:0|0:0,0:0:0:0:
150,302,206620,70,0,P|166:261|173:218,1,68.2950005731545,2|2,1:0|0:0,0:0:0:0:
155,191,206961,1,2,0:0:0:0:
155,191,207074,2,0,P|178:156|213:132,1,68.2950005731545,10|2,0:0|0:0,0:0:0:0:
281,186,207529,2,0,P|298:190|326:195,3,34.1475002865772,2|2|2|2,1:0|0:0|0:0|0:0,0:0:0:0:
256,192,207983,12,0,210711,0:0:0:0:
