osu file format v14

[General]
AudioFilename: audio.mp3
AudioLeadIn: 0
PreviewTime: 334
Countdown: 0
SampleSet: Soft
StackLeniency: 1
Mode: 0
LetterboxInBreaks: 0
WidescreenStoryboard: 1

[Editor]
Bookmarks: 9532,17315,23117,32174,36702,41230,50287,63872,76325,88777,100098,109155,118211,122740,127268,131796,139579,149909,160098,173683,187268,196325,204108
DistanceSpacing: 1
BeatDivisor: 4
GridSize: 32
TimelineZoom: 1.7

[Metadata]
Title:Paper Bouquet
TitleUnicode:Paper Bouquet
Artist:Mili
ArtistUnicode:Mili
Creator:fedora-
Version:subahibi's Normal
Source:処刑少女の生きる道
Tags:subahibi impurepug バージンロード Shokei Shoujo no Ikiru Michi Virgin Road anime op 1 #1 first the executioner and her way of life full version theme オープニング・テーマ opening english pop
BeatmapID:3574915
BeatmapSetID:1736854

[Difficulty]
HPDrainRate:4
CircleSize:3
OverallDifficulty:4
ApproachRate:5
SliderMultiplier:0.999999999999999
SliderTickRate:1

[Events]
//Background and Video events
0,0,"bg big.jpg",0,0
//Break Periods
2,77657,83049
2,100298,107955
2,139779,148002
//Storyboard Layer 0 (Background)
//Storyboard Layer 1 (Fail)
//Storyboard Layer 2 (Pass)
//Storyboard Layer 3 (Foreground)
//Storyboard Layer 4 (Overlay)
//Storyboard Sound Samples

[TimingPoints]
476,283.018867924528,4,2,1,40,1,0
9532,-100,4,2,1,65,0,0
18589,-100,4,2,1,30,0,0
20853,-100,4,2,1,50,0,0
23117,-100,4,2,1,60,0,0
32174,-100,4,2,1,40,0,0
36560,-100,4,2,1,35,0,0
36702,-100,4,2,1,35,0,0
37692,-100,4,2,1,40,0,0
38825,-100,4,2,1,45,0,0
39957,-100,4,2,1,50,0,0
41230,-100,4,2,1,55,0,0
43494,-100,4,2,1,65,0,0
46891,-100,4,2,1,75,0,0
50287,-100,4,2,1,85,0,0
63872,-100,4,2,1,75,0,0
86513,-100,4,2,1,30,0,0
88777,-100,4,2,1,50,0,0
91042,-100,4,2,1,60,0,0
100098,-100,4,2,1,50,0,0
106891,-100,4,2,1,30,0,0
107174,-100,4,2,1,35,0,0
107457,-100,4,2,1,40,0,0
107740,-100,4,2,1,45,0,0
108023,-100,4,2,1,50,0,0
108306,-100,4,2,1,55,0,0
108589,-100,4,2,1,60,0,0
108872,-100,4,2,1,65,0,0
109155,-100,4,2,1,50,0,0
122740,-100,4,2,1,40,0,0
127126,-100,4,2,1,35,0,0
127268,-100,4,2,1,35,0,0
128259,-100,4,2,1,40,0,0
129391,-100,4,2,1,45,0,0
130523,-100,4,2,1,50,0,0
131796,-100,4,2,1,55,0,0
134060,-100,4,2,1,65,0,0
138589,-100,4,2,1,65,0,0
149202,-100,4,2,1,50,0,0
149343,-100,4,2,1,80,0,0
149909,-100,4,2,1,85,0,0
154438,-100,4,2,1,75,0,0
156702,-100,4,2,1,80,0,0
157834,-100,4,2,1,85,0,0
158683,-100,4,2,1,90,0,0
160098,-100,4,2,1,85,0,0
173683,-100,4,2,1,75,0,0
187268,-100,4,2,1,45,0,0

[Colours]
Combo1 : 198,200,200
Combo2 : 242,237,174
Combo3 : 173,226,226
Combo4 : 248,118,137

[HitObjects]
15,357,9532,6,0,L|111:331,1,99.9999999999999,4|2,3:1|2:0,2:0:0:0:
188,266,10098,1,2,3:2:0:0:
186,166,10381,2,0,B|155:168|128:183|128:183|92:143|35:138,1,150,2|0,2:0|1:0,0:0:0:0:
1,145,10947,1,2,3:2:0:0:
47,247,11230,1,2,2:0:0:0:
47,247,11372,2,0,P|63:292|69:351,1,99.9999999999999,0|0,1:0|2:0,2:0:0:0:
67,344,11796,6,0,B|118:347|145:384|145:384|209:367,1,150,6|0,3:2|1:0,2:0:0:0:
250,355,12362,2,0,L|361:322,1,99.9999999999999,2|2,2:0|2:0,2:0:0:0:
393,311,12787,1,4,3:2:0:0:
420,214,13070,1,2,1:2:0:0:
325,182,13353,1,0,0:0:0:0:
245,242,13636,2,0,P|196:225|135:210,1,99.9999999999999,0|0,2:0|2:0,2:0:0:0:
149,213,14060,6,0,B|140:177|152:142|152:142|149:100|118:72,1,150,4|0,3:1|1:0,2:0:0:0:
131,24,14626,2,0,P|184:15|234:-5,1,99.9999999999999,0|2,3:0|2:0,2:0:0:0:
275,9,15051,1,6,3:2:0:0:
294,111,15334,5,0,1:0:0:0:
294,111,15475,2,0,P|318:119|348:124,1,50,2|0,3:2|1:0,2:0:0:0:
392,112,15759,2,0,P|417:104|449:102,1,50,0|0,1:0|1:0,0:0:0:0:
488,117,16042,1,2,3:2:0:0:
511,214,16325,6,0,B|448:256|374:240|374:240|371:296|317:334,1,250,4|8,3:1|2:3,2:0:0:0:
279,239,17315,2,0,B|196:125|54:175|54:175|118:210|123:257,1,350,4|0,3:2|0:0,2:0:0:0:
24,274,18589,1,2,2:0:0:0:
24,274,19579,1,2,2:0:0:0:
241,166,20853,6,0,L|143:141,1,99.9999999999999,2|0,1:2|1:0,2:0:0:0:
103,111,21277,2,0,L|81:14,1,99.9999999999999,2|2,3:2|3:2,0:0:0:0:
180,0,21843,1,6,3:2:0:0:
273,34,22126,1,2,1:2:0:0:
334,120,22409,1,0,3:2:0:0:
334,120,22551,2,0,P|385:131|453:141,1,99.9999999999999,0|0,1:0|2:0,0:0:0:0:
437,237,23117,6,0,B|398:238|356:231|356:231|334:289|273:313,1,200,6|0,3:2|1:0,2:0:0:0:
251,215,23966,1,0,0:0:0:0:
251,215,24108,2,0,P|211:155|49:160,1,250,2|2,3:2|1:2,2:0:0:0:
7,251,25098,1,8,2:0:0:0:
41,350,25381,5,2,3:2:0:0:
41,350,25523,2,0,P|110:327|195:313,1,150,2|0,2:0|1:0,0:0:0:0:
272,374,26230,5,2,2:0:0:0:
272,374,26371,1,0,3:2:0:0:
373,352,26655,1,0,1:0:0:0:
373,352,26796,1,2,3:2:0:0:
413,260,27079,1,2,1:2:0:0:
341,190,27362,1,2,2:0:0:0:
241,202,27645,2,0,P|197:217|141:230,1,99.9999999999999,6|2,3:2|3:2,2:0:0:0:
72,160,28211,1,2,1:2:0:0:
12,241,28494,1,2,2:0:0:0:
12,241,28636,6,0,P|18:294|46:341,1,99.9999999999999,2|2,3:2|1:2,2:0:0:0:
131,375,29202,2,0,B|164:374|197:354|197:354|236:357|236:357|275:343,1,150,2|10,2:0|2:0,0:0:0:0:
362,296,29909,2,0,P|385:248|387:200,1,99.9999999999999,2|0,3:2|3:0,2:0:0:0:
367,155,30334,2,0,P|307:111|234:119,1,150,0|2,0:0|2:0,0:0:0:0:
156,180,31042,6,0,P|161:204|173:226,1,50,2|0,2:0|1:0,0:0:0:0:
259,277,31466,2,0,P|254:301|242:323,1,50,0|0,1:0|1:0,0:0:0:0:
221,371,31749,1,0,1:0:0:0:
221,371,31891,1,0,3:0:0:0:
122,351,32174,6,0,P|40:295|-2:205,1,200,4|0,3:2|1:0,2:0:0:0:
17,111,33023,1,0,2:0:0:0:
17,111,33164,2,0,B|57:113|93:153|93:153|120:138|151:136,1,150,2|0,3:2|3:2,2:0:0:0:
247,107,33872,2,0,P|238:155|222:213,1,99.9999999999999,0|0,1:0|0:0,0:0:0:0:
179,293,34438,6,0,B|116:299|71:266|71:266|22:265|-9:327,1,200,2|0,3:2|1:0,2:0:0:0:
72,379,35287,1,2,2:0:0:0:
171,383,35570,2,0,P|241:373|318:343,1,150,0|0,2:0|0:0,0:0:0:0:
357,319,36136,1,4,1:2:0:0:
479,160,36702,5,2,1:2:0:0:
369,57,37126,2,0,P|347:45|320:44,1,50,2|10,0:2|1:2,0:0:0:0:
177,83,37692,2,0,P|178:107|189:131,1,50,10|2,0:2|1:2,0:0:0:0:
293,238,38259,2,0,P|313:224|328:202,1,50,2|10,0:2|1:2,0:0:0:0:
350,54,38825,6,0,P|325:55|302:67,1,50,10|2,0:2|1:2,0:0:0:0:
228,196,39391,2,0,P|205:207|180:209,1,50,2|2,0:2|1:2,0:0:0:0:
57,123,39957,2,0,P|58:98|69:75,1,50,10|2,0:2|1:2,0:0:0:0:
204,7,40523,1,0,0:0:0:0:
204,7,40664,1,4,3:3:0:0:
268,195,41230,6,0,B|229:253|167:259|167:259|159:294|144:346,1,200,6|0,3:2|3:0,2:0:0:0:
72,267,42079,2,0,P|85:218|110:166,1,99.9999999999999,2|2,3:2|3:2,2:0:0:0:
179,106,42645,5,0,3:0:0:0:
278,98,42928,1,2,3:2:0:0:
355,160,43211,2,0,P|359:207|330:264,1,99.9999999999999,0|6,3:0|3:2,0:0:0:0:
290,342,43777,5,2,3:2:0:0:
199,299,44060,1,2,3:2:0:0:
132,373,44343,1,2,3:2:0:0:
45,323,44626,2,0,P|18:266|20:211,1,99.9999999999999,2|0,3:2|3:0,2:0:0:0:
30,130,45192,2,0,B|70:132|106:172|106:172|133:157|164:155,1,150,2|0,3:2|3:0,2:0:0:0:
214,158,45759,5,6,1:2:0:0:
289,92,46042,1,0,2:0:0:0:
362,159,46325,1,0,3:2:0:0:
297,235,46608,1,2,1:2:0:0:
201,265,46891,6,0,P|153:248|99:237,1,99.9999999999999,2|0,1:2|1:2,2:0:0:0:
25,177,47457,2,0,P|8:129|-1:80,1,99.9999999999999,2|0,1:2|1:2,2:0:0:0:
96,99,48023,6,0,B|167:116|235:93|235:93|320:99|376:160,1,300,6|0,1:2|3:0,2:0:0:0:
405,198,49013,1,6,1:2:0:0:
216,362,49721,1,2,1:2:0:0:
155,282,50004,1,2,1:2:0:0:
212,199,50287,6,0,P|225:141|153:16,1,200,4|0,3:1|3:0,2:0:0:0:
62,22,51136,2,0,P|21:64|21:208,1,200,2|0,1:2|1:2,0:0:0:0:
63,287,51985,1,2,3:2:0:0:
151,239,52268,1,2,1:2:0:0:
198,151,52551,6,0,P|238:103|312:82,1,99.9999999999999,6|0,3:2|1:0,2:0:0:0:
317,104,52975,2,0,P|338:162|319:237,1,99.9999999999999,2|0,2:0|3:0,0:0:0:0:
305,239,53400,2,0,B|243:251|213:315|213:315|171:335|115:333,1,200,2|2,1:2|1:2,0:0:0:0:
15,176,54532,5,2,1:2:0:0:
47,81,54815,2,0,B|148:6|257:31|257:31|294:8|294:8|330:9,1,300,2|2,3:2|1:2,2:0:0:0:
344,55,55806,2,0,L|389:228,1,150,2|0,3:2|1:2,2:0:0:0:
456,266,56513,1,2,3:2:0:0:
407,353,56796,1,2,1:2:0:0:
308,333,57079,2,0,B|220:322|220:322|182:369|94:385,1,200,6|0,3:2|1:3,2:0:0:0:
35,341,57928,1,0,1:2:0:0:
35,341,58070,6,0,P|14:271|64:158,1,200,4|0,3:1|2:0,2:0:0:0:
111,147,58777,1,2,3:2:0:0:
176,222,59060,1,0,1:0:0:0:
271,192,59343,6,0,B|332:168|355:112|355:112|405:149|484:127,1,250,4|0,3:1|3:0,2:0:0:0:
464,80,60192,2,0,P|427:32|282:15,1,200,2|0,1:2|1:0,0:0:0:0:
227,82,61042,5,2,3:2:0:0:
193,176,61325,1,2,1:2:0:0:
224,271,61608,2,0,L|320:297,1,99.9999999999999,6|0,3:2|1:0,2:0:0:0:
359,266,62032,1,2,2:0:0:0:
339,172,62315,1,0,3:0:0:0:
339,172,62457,6,0,P|351:120|395:87,1,99.9999999999999,2|0,1:2|0:0,0:0:0:0:
478,53,63023,1,2,1:2:0:0:
504,149,63306,1,2,3:2:0:0:
462,239,63589,1,2,1:2:0:0:
367,272,63872,6,0,B|292:287|230:241|230:241|142:225|52:309,1,300,4|0,3:1|0:0,2:0:0:0:
146,360,65004,1,2,3:2:0:0:
244,342,65287,1,0,1:2:0:0:
272,246,65570,2,0,P|287:198|300:139,1,99.9999999999999,0|2,3:0|1:2,2:0:0:0:
311,50,66136,6,0,B|247:51|208:107|208:107|175:73|133:69,1,200,6|4,3:2|3:1,2:0:0:0:
315,169,67268,2,0,B|380:171|417:226|417:226|451:192|493:188,1,200,6|2,3:2|3:2,2:0:0:0:
314,294,68400,6,0,P|215:264|78:234,1,200,4|0,3:1|3:0,2:0:0:0:
160,100,69391,1,0,1:0:0:0:
160,100,69532,6,0,P|207:91|263:72,1,99.9999999999999,2|0,3:2|1:0,2:0:0:0:
335,13,70098,1,0,3:0:0:0:
432,35,70381,1,2,1:2:0:0:
451,133,70664,6,0,P|466:183|477:233,1,99.9999999999999,6|0,3:2|1:0,2:0:0:0:
406,300,71230,2,0,P|354:288|305:273,1,99.9999999999999,4|2,3:1|1:2,2:0:0:0:
278,178,71796,2,0,P|313:139|351:104,1,99.9999999999999,6|0,3:2|1:0,2:0:0:0:
443,134,72362,6,0,P|468:190|493:328,1,200,2|4,3:2|3:1,2:0:0:0:
406,376,73211,2,0,B|350:374|307:353|307:353|283:372|247:375,1,150,2|0,1:2|1:0,2:0:0:0:
229,278,73919,2,0,P|205:269|160:265,1,50,0|2,1:0|3:2,0:0:0:0:
86,296,74343,1,0,1:2:0:0:
34,210,74626,2,0,L|48:156,1,50,0|0,0:0|1:2,0:0:0:0:
79,124,74909,2,0,L|112:7,1,99.9999999999999,2|2,2:0|3:2,0:0:0:0:
192,78,75475,5,4,1:2:0:0:
290,57,75759,1,0,1:0:0:0:
377,116,76042,1,2,1:2:0:0:
377,116,76183,1,6,3:2:0:0:
135,268,77457,1,0,3:0:0:0:
99,49,84249,6,0,B|174:73|226:139|226:139|319:145|423:89,1,350,4|4,3:1|3:2,0:0:0:0:
427,284,86513,1,2,2:0:0:0:
427,284,87504,1,2,2:0:0:0:
303,122,88777,5,2,1:2:0:0:
303,122,88919,2,0,L|255:110,1,50,0|0,3:0|1:0,0:0:0:0:
205,100,89202,1,2,3:2:0:0:
130,167,89485,1,2,3:2:0:0:
165,260,89768,2,0,L|302:293,1,99.9999999999999,6|2,3:2|1:2,2:0:0:0:
331,212,90334,6,0,B|370:243|372:293|372:293|401:308|441:304,1,150,0|0,3:2|2:0,0:0:0:0:
507,245,91042,2,0,P|491:197|481:148,1,99.9999999999999,6|0,3:2|2:0,2:0:0:0:
436,59,91608,1,0,1:0:0:0:
353,109,91891,1,0,0:0:0:0:
353,109,92032,6,0,B|288:103|244:153|244:153|200:139|162:157,1,200,2|0,3:2|0:0,2:0:0:0:
129,186,92740,2,0,P|108:235|106:301,1,99.9999999999999,2|8,1:2|2:0,0:0:0:0:
185,339,93306,5,2,3:2:0:0:
282,362,93589,1,0,3:0:0:0:
380,342,93872,2,0,B|399:260|399:260|371:227|373:190,1,150,0|0,1:0|3:2,2:0:0:0:
312,128,94579,5,0,1:0:0:0:
312,128,94721,1,2,3:2:0:0:
217,161,95004,1,2,1:2:0:0:
218,260,95287,1,2,2:0:0:0:
118,268,95570,2,0,P|72:244|80:98,1,200,6|2,3:2|1:2,2:0:0:0:
135,37,96419,1,2,2:0:0:0:
135,37,96560,6,0,P|182:27|273:1,1,99.9999999999999,2|2,3:2|1:2,2:0:0:0:
326,46,97126,2,0,P|374:58|423:68,1,99.9999999999999,0|0,0:0|2:0,0:0:0:0:
471,81,97551,1,10,2:0:0:0:
461,180,97834,2,0,P|423:261|408:326,1,150,2|0,3:2|0:0,2:0:0:0:
361,335,98400,6,0,B|268:340|178:382|178:382|81:266|-37:260,1,400,0|6,1:0|1:2,2:0:0:0:
206,255,100098,1,4,3:1:0:0:
256,192,109155,5,4,3:1:0:0:
256,192,110004,5,0,3:2:0:0:
331,127,110287,1,0,2:0:0:0:
301,32,110570,1,0,3:0:0:0:
205,2,110853,1,0,1:0:0:0:
134,73,111136,1,0,2:0:0:0:
160,170,111419,1,0,3:0:0:0:
119,365,111985,5,0,1:0:0:0:
20,381,112268,2,0,B|15:329|49:288|49:288|24:191,1,200,4|0,3:2|3:0,2:0:0:0:
28,91,113117,1,0,1:0:0:0:
123,62,113400,1,0,2:0:0:0:
187,141,113683,2,0,B|234:153|278:132|278:132|341:132|366:180,1,200,0|0,3:0|1:0,2:0:0:0:
432,255,114532,5,0,3:0:0:0:
367,331,114815,2,0,P|321:315|257:300,1,99.9999999999999,0|0,2:0|3:0,0:0:0:0:
180,345,115381,1,0,1:2:0:0:
80,331,115664,1,0,2:0:0:0:
13,256,115947,6,0,B|10:209|38:167|38:167|8:120|7:64,1,200,0|0,3:0|1:0,2:0:0:0:
103,94,116796,1,0,3:0:0:0:
187,148,117079,2,0,P|253:174|397:190,1,200,0|4,0:0|1:0,0:0:0:0:
256,192,118211,12,4,122174,2:3:0:0:
256,192,122740,6,0,B|207:126|115:121|115:121|128:173,1,200,4|0,3:1|1:0,2:0:0:0:
146,258,123589,1,0,2:0:0:0:
146,258,123730,2,0,L|174:371,1,99.9999999999999,2|0,3:2|1:0,2:0:0:0:
217,371,124155,1,0,3:2:0:0:
308,329,124438,6,0,L|361:136,1,200,0|2,1:0|3:2,2:0:0:0:
294,61,125287,1,0,3:0:0:0:
204,104,125570,1,0,1:0:0:0:
132,33,125853,1,0,0:0:0:0:
44,80,126136,2,0,P|0:125|16:265,1,200,0|4,0:0|1:2,0:0:0:0:
186,342,127268,5,2,1:2:0:0:
288,232,127692,2,0,L|274:178,1,50,2|2,0:2|1:2,0:0:0:0:
129,147,128259,2,0,L|89:185,1,50,10|2,0:2|1:2,0:0:0:0:
130,327,128825,2,0,L|182:342,1,50,2|2,0:2|1:2,0:0:0:0:
328,338,129391,6,0,L|376:324,1,50,10|2,0:2|1:2,0:0:0:0:
408,177,129957,2,0,L|372:142,1,50,2|2,0:2|1:2,0:0:0:0:
228,185,130523,2,0,L|215:233,1,50,10|2,0:2|1:2,0:0:0:0:
191,384,131089,1,0,0:0:0:0:
191,384,131230,1,4,3:3:0:0:
324,234,131796,6,0,B|393:238|429:289|429:289|503:269,1,200,6|0,3:2|3:0,0:0:0:0:
451,184,132645,1,2,3:2:0:0:
412,91,132928,2,0,P|379:71|316:72,1,99.9999999999999,2|0,3:2|3:0,2:0:0:0:
245,140,133494,1,2,3:2:0:0:
231,239,133777,2,0,L|131:266,1,99.9999999999999,0|6,3:0|3:2,0:0:0:0:
46,217,134343,5,2,3:2:0:0:
57,117,134626,1,2,3:2:0:0:
152,87,134909,1,2,3:2:0:0:
237,139,135192,2,0,B|305:157|326:216|326:216|356:197|408:190,1,200,2|2,3:2|3:2,2:0:0:0:
206,247,136325,6,0,P|157:231|84:216,1,99.9999999999999,6|0,1:2|2:0,2:0:0:0:
45,143,136891,2,0,P|56:94|71:46,1,99.9999999999999,0|2,3:2|1:2,2:0:0:0:
166,17,137457,5,2,1:2:0:0:
208,107,137740,1,0,1:2:0:0:
291,51,138023,1,2,1:2:0:0:
350,131,138306,1,0,1:2:0:0:
333,229,138589,6,0,B|260:239|195:210|195:210|109:209|49:264,1,300,6|0,1:2|3:0,2:0:0:0:
23,305,139579,1,6,1:2:0:0:
49,264,149202,5,0,3:0:0:0:
49,264,149343,2,0,B|92:269|123:305|123:305|149:284|178:277,1,150,4|0,1:2|0:0,2:0:0:0:
179,277,149909,2,0,L|119:63,1,200,4|0,3:1|3:0,2:0:0:0:
225,73,150759,2,0,P|304:111|331:229,1,200,2|0,1:2|1:0,0:0:0:0:
264,284,151608,1,2,3:2:0:0:
165,265,151891,1,2,1:2:0:0:
99,340,152174,6,0,P|48:327|6:284,1,99.9999999999999,6|0,3:2|1:0,2:0:0:0:
0,247,152598,2,0,P|13:196|56:154,1,99.9999999999999,2|0,2:0|3:0,0:0:0:0:
93,155,153023,6,0,L|119:59,1,99.9999999999999,2|0,1:2|0:0,0:0:0:0:
215,33,153589,2,0,B|226:64|226:64|219:94|219:94|264:164|256:228,1,200,2|2,1:2|1:2,2:0:0:0:
276,318,154438,2,0,P|420:241|512:228,1,250,4|0,3:1|3:0,2:0:0:0:
502,132,155428,1,0,1:2:0:0:
502,132,155570,6,0,P|403:114|309:79,1,200,2|0,3:2|3:0,2:0:0:0:
222,31,156419,1,2,1:2:0:0:
160,110,156702,1,6,3:2:0:0:
194,203,156985,2,0,P|194:252|168:294,1,99.9999999999999,8|6,3:2|3:2,0:0:0:0:
72,326,157551,1,8,3:2:0:0:
19,240,157834,5,2,3:2:0:0:
57,95,158259,1,2,3:2:0:0:
162,200,158683,1,4,3:1:0:0:
443,355,160098,6,0,L|381:121,1,200,4|0,3:1|3:0,2:0:0:0:
379,67,160947,1,2,1:2:0:0:
379,67,161089,2,0,B|342:74|342:74|322:91|322:91|268:88|214:127,1,150,4|0,3:2|1:2,2:0:0:0:
185,195,161796,1,2,3:2:0:0:
240,278,162079,1,2,1:2:0:0:
338,292,162362,2,0,P|381:253|385:121,1,150,6|2,3:2|2:0,2:0:0:0:
342,92,163070,1,0,3:0:0:0:
342,92,163211,6,0,P|284:92|195:191,1,150,2|0,1:2|3:0,0:0:0:0:
173,177,163777,2,0,L|145:280,1,99.9999999999999,2|0,1:2|3:2,2:0:0:0:
169,371,164343,5,2,1:2:0:0:
264,341,164626,2,0,B|307:336|338:300|338:300|422:345|511:326,1,250,2|0,3:2|3:2,2:0:0:0:
510,283,165475,1,2,1:2:0:0:
510,283,165617,6,0,P|473:218|397:140,1,150,2|0,3:2|1:2,2:0:0:0:
332,203,166325,2,0,P|284:187|235:178,1,99.9999999999999,2|2,3:2|1:2,0:0:0:0:
143,217,166891,2,0,B|131:185|131:185|140:143|140:143|74:74|99:-14,1,200,6|0,3:2|1:3,2:0:0:0:
192,64,167740,1,0,1:2:0:0:
192,64,167881,6,0,P|259:89|367:111,1,150,4|0,3:1|1:0,2:0:0:0:
419,160,168589,1,2,3:2:0:0:
390,255,168872,1,0,1:0:0:0:
291,265,169155,6,0,B|232:272|189:321|189:321|154:293|113:283,1,200,4|2,3:1|3:2,2:0:0:0:
53,360,170004,2,0,L|-1:159,1,200,2|0,1:2|1:0,0:0:0:0:
55,83,170853,1,2,3:2:0:0:
148,118,171136,1,2,1:2:0:0:
207,37,171419,2,0,L|310:62,1,99.9999999999999,6|0,3:2|1:0,2:0:0:0:
349,80,171843,2,0,L|404:170,1,99.9999999999999,2|0,2:0|3:0,0:0:0:0:
398,219,172268,1,2,1:2:0:0:
398,219,172409,6,0,L|422:319,1,99.9999999999999,4|0,3:1|3:0,2:0:0:0:
395,359,172834,2,0,P|306:304|201:323,1,200,2|2,1:2|1:2,2:0:0:0:
118,290,173683,6,0,B|160:226|236:215|236:215|310:164|314:41,1,300,4|0,3:1|0:0,2:0:0:0:
236,15,174815,2,0,P|184:22|139:43,1,99.9999999999999,2|0,3:2|1:2,2:0:0:0:
121,142,175381,1,0,3:0:0:0:
184,219,175664,1,2,1:2:0:0:
282,202,175947,6,0,L|382:177,1,99.9999999999999,6|2,3:2|1:2,2:0:0:0:
403,81,176513,2,0,L|330:6,1,99.9999999999999,4|0,3:1|1:0,2:0:0:0:
236,32,177079,2,0,L|207:131,1,99.9999999999999,6|0,3:2|1:0,2:0:0:0:
186,225,177645,1,2,3:2:0:0:
250,301,177928,1,2,1:2:0:0:
347,281,178211,2,0,P|361:208|298:101,1,200,4|0,3:1|3:0,2:0:0:0:
250,16,179060,1,0,0:0:0:0:
152,38,179343,2,0,L|52:64,1,99.9999999999999,2|0,3:2|1:0,2:0:0:0:
14,154,179909,2,0,L|40:253,1,99.9999999999999,0|2,3:0|1:2,0:0:0:0:
101,329,180475,6,0,B|136:300|146:247|146:247|248:213,1,200,6|4,3:2|3:1,2:0:0:0:
421,117,181608,1,6,3:2:0:0:
380,31,181891,1,0,1:0:0:0:
380,31,182032,2,0,L|322:16,1,50,0|2,1:0|3:2,0:0:0:0:
281,20,182315,2,0,L|232:32,1,50,0|2,3:0|1:2,0:0:0:0:
166,107,182740,6,0,B|102:267|267:327|267:327|283:259|361:244,1,400,4|2,3:1|3:2,2:0:0:0:
445,267,184155,1,0,1:2:0:0:
501,185,184438,2,0,L|486:129,1,50,0|0,0:0|1:2,0:0:0:0:
444,111,184721,2,0,L|458:55,1,50,2|0,2:0|1:0,0:0:0:0:
444,14,185004,6,0,L|244:71,1,200,2|0,3:2|1:0,2:0:0:0:
159,108,185853,1,2,1:2:0:0:
159,108,185994,1,6,3:2:0:0:
159,108,187268,6,0,B|145:157|145:157|148:164|148:164|135:212,1,99.9999999999999,0|2,3:2|3:2,2:0:0:0:
208,274,187834,2,0,L|344:236,1,99.9999999999999,2|2,1:2|3:2,2:0:0:0:
304,247,188259,2,0,B|292:206|292:206|294:201|294:201|278:150,1,99.9999999999999,2|0,1:2|3:0,2:0:0:0:
319,122,188683,2,0,L|334:64,1,50,2|0,1:2|0:0,0:0:0:0:
361,33,188966,1,0,0:0:0:0:
464,46,189249,6,0,L|479:103,1,50,0|0,2:0|3:2,0:0:0:0:
476,94,189532,2,0,B|464:142|464:142|467:150|467:150|456:199,1,99.9999999999999,2|0,3:2|1:0,2:0:0:0:
417,282,190098,1,2,1:2:0:0:
323,309,190381,1,2,3:2:0:0:
323,309,190523,6,0,B|270:297|270:297|266:300|266:300|209:288,1,99.9999999999999,2|0,1:2|3:2,2:0:0:0:
186,322,190947,2,0,L|89:347,1,99.9999999999999,2|0,1:2|0:0,0:0:0:0:
39,349,191372,1,2,1:2:0:0:
13,257,191655,1,0,3:0:0:0:
13,257,191796,6,0,B|24:212|24:212|28:207|28:207|44:147,1,99.9999999999999,0|2,3:0|1:2,2:0:0:0:
111,90,192362,1,2,1:2:0:0:
191,158,192645,1,2,3:2:0:0:
191,158,192787,6,0,B|243:146|243:146|247:149|247:149|304:137,1,99.9999999999999,2|0,1:2|3:0,2:0:0:0:
328,171,193211,2,0,L|424:196,1,99.9999999999999,2|0,1:2|0:0,0:0:0:0:
475,198,193636,1,0,1:0:0:0:
510,297,193919,5,0,2:0:0:0:
510,297,194060,1,2,3:2:0:0:
166,228,195051,1,4,3:2:0:0:
365,76,195759,2,0,L|382:7,2,50,0|2|2,1:2|1:2|1:2,0:0:0:0:
349,174,196325,5,0,3:2:0:0:
320,269,196608,1,2,2:0:0:0:
230,312,196891,1,2,2:0:0:0:
196,165,197315,2,0,P|179:98|148:2,1,150,2|2,1:2|3:2,2:0:0:0:
28,101,198164,1,0,1:0:0:0:
10,202,198447,5,0,2:0:0:0:
10,202,198589,1,2,3:2:0:0:
309,382,199579,2,0,P|332:311|350:224,1,150,2|2,1:2|3:2,2:0:0:0:
346,87,200428,1,2,1:2:0:0:
196,98,200853,5,0,3:0:0:0:
101,130,201136,1,2,2:0:0:0:
51,216,201419,1,2,2:0:0:0:
198,241,201843,6,0,P|241:300|237:373,1,150,2|2,1:2|3:2,2:0:0:0:
433,146,203117,1,2,3:2:0:0:
89,80,204108,1,4,3:2:0:0:
