osu file format v14

[General]
AudioFilename: Mili - Paper Bouquet.mp3
AudioLeadIn: 0
PreviewTime: 524
Countdown: 0
SampleSet: Soft
StackLeniency: 0.7
Mode: 0
LetterboxInBreaks: 0
WidescreenStoryboard: 1

[Editor]
Bookmarks: 9628,18685,23213,27741,32270,36798,41326,50383,77553
DistanceSpacing: 1
BeatDivisor: 2
GridSize: 32
TimelineZoom: 2.3

[Metadata]
Title:Paper Bouquet (TV Size)
TitleUnicode:Paper Bouquet (TV Size)
Artist:Mili
ArtistUnicode:Mili
Creator:frozz
Version:Normal
Source:処刑少女の生きる道
Tags:momocashew cassie wei projectmili yamato kasai hamo project conlang opening op バージンロード Shokei Shoujo no Ikiru Michi The Executioner and Her Way of Life Virgin Road female anime rock english vocal -keqing adinda
BeatmapID:3635947
BeatmapSetID:1775588

[Difficulty]
HPDrainRate:3.8
CircleSize:3.2
OverallDifficulty:5
ApproachRate:5.5
SliderMultiplier:1
SliderTickRate:1

[Events]
//Background and Video events
0,0,"Mili - Paper Bouquet.jpg",0,0
//Break Periods
//Storyboard Layer 0 (Background)
//Storyboard Layer 1 (Fail)
//Storyboard Layer 2 (Pass)
//Storyboard Layer 3 (Foreground)
//Storyboard Layer 4 (Overlay)
//Storyboard Sound Samples

[TimingPoints]
572,283.018867924528,4,2,1,40,1,0
9628,-100,4,2,1,70,0,0
18685,-100,4,2,1,50,0,0
20949,-100,4,2,1,65,0,0
32270,-100,4,2,1,55,0,0
36798,-100,4,2,1,40,0,0
41326,-100,4,2,1,50,0,0
43590,-100,4,2,1,60,0,0
45855,-100,4,2,1,70,0,0
48119,-100,4,2,1,80,0,0
50383,-100,4,2,1,85,0,0
77553,-100,4,2,1,50,0,0

[Colours]
Combo1 : 170,196,255
Combo2 : 255,170,170
Combo3 : 255,213,170
Combo4 : 198,170,255

[HitObjects]
456,218,572,5,0,1:2:0:0:
381,284,855,2,0,P|338:293|316:298,1,50,2|0,2:0|2:0,2:0:0:0:
283,282,1138,2,0,P|201:283|168:355,2,150,2|2|0,2:0|1:2|2:0,2:0:0:0:
332,195,2270,1,2,2:0:0:0:
258,127,2553,2,0,P|251:77|246:59,1,50,0|2,2:0|1:2,2:0:0:0:
230,31,2836,1,2,1:2:0:0:
151,93,3119,6,0,P|102:88|45:71,1,100,2|2,2:0|2:0,2:0:0:0:
18,110,3543,2,0,P|31:152|36:179,1,50,2|2,2:0|2:0,2:0:0:0:
38,207,3826,1,2,1:2:0:0:
103,341,4251,1,10,2:0:0:0:
200,308,4534,1,10,2:0:0:0:
200,308,4675,2,0,P|240:302|316:300,1,100,2|0,1:2|2:0,2:0:0:0:
345,318,5100,1,2,1:2:0:0:
444,305,5383,5,2,2:0:0:0:
428,206,5666,2,0,P|439:130|448:98,1,100,2|2,2:0|2:0,2:0:0:0:
423,62,6090,2,0,P|374:28|273:53,1,150,2|0,1:2|2:0,2:0:0:0:
193,63,6798,1,2,2:0:0:0:
193,63,6939,2,0,P|207:98|229:170,1,100,8|4,2:0|2:3,2:0:0:0:
227,207,7364,5,2,1:3:0:0:
189,351,7788,2,0,B|114:339|129:382|38:366,1,150,0|0,2:0|2:0,2:0:0:0:
20,321,8355,1,2,1:3:0:0:
20,321,9204,6,0,L|13:260,2,50,2|2|2,2:0|2:0|2:0,2:0:0:0:
42,366,9628,6,0,P|101:333|107:271,1,100,2|2,1:3|2:0,2:0:0:0:
109,259,10053,1,8,2:0:0:0:
109,259,10194,2,0,P|126:182|139:136,1,100,2|2,2:0|2:0,2:0:0:0:
112,115,10619,1,2,1:2:0:0:
184,46,10902,1,8,2:0:0:0:
184,46,11043,2,0,P|242:35|304:13,1,100,2|2,1:2|2:0,2:0:0:0:
371,65,11609,1,2,2:0:0:0:
453,8,11892,6,0,P|472:79|454:128,1,100,2|2,1:3|2:0,2:0:0:0:
450,153,12317,1,8,2:0:0:0:
450,153,12458,2,0,P|476:232|490:283,1,100,0|2,2:0|2:0,2:0:0:0:
474,297,12883,1,2,1:3:0:0:
387,343,13166,1,8,2:0:0:0:
387,343,13307,2,0,P|332:326|270:322,1,100,2|8,1:2|2:0,2:0:0:0:
256,284,13732,2,0,L|248:209,2,50,2|2|2,2:0|2:0|2:0,2:0:0:0:
210,304,14156,6,0,P|137:318|82:333,1,100,2|2,1:3|2:0,2:0:0:0:
35,260,14722,2,0,P|56:205|75:144,1,100,2|0,2:0|2:0,2:0:0:0:
66,115,15147,1,2,1:2:0:0:
155,66,15430,1,8,2:0:0:0:
155,66,15571,2,0,P|210:80|281:88,1,100,2|8,1:2|2:0,2:0:0:0:
299,104,15996,2,0,P|327:92|372:82,1,50,8|10,2:0|2:3,2:0:0:0:
430,32,16421,6,0,B|486:136|408:208|369:143|302:247|352:335,1,350,6|2,1:2|1:3,2:0:0:0:
351,334,18685,5,2,2:0:0:0:
351,334,19675,2,0,B|283:373|225:318|265:302|194:242|126:288,1,250,2|0,2:0|2:0,2:0:0:0:
90,316,20524,1,2,2:0:0:0:
13,186,20949,6,0,P|34:118|42:63,1,100,8|8,2:0|2:0,2:0:0:0:
36,39,21373,1,2,1:3:0:0:
132,14,21656,1,2,1:3:0:0:
207,79,21939,2,0,P|276:65|328:60,1,100,6|8,1:2|2:0,2:0:0:0:
352,79,22364,2,0,P|401:72|450:61,1,100,2|8,1:3|2:0,2:0:0:0:
483,98,22788,2,0,P|466:127|451:173,1,50,2|2,1:3|2:0,2:0:0:0:
486,238,23213,6,0,P|402:224|275:204,1,200,6|8,1:2|2:0,2:0:0:0:
213,149,24062,1,0,2:0:0:0:
213,149,24204,2,0,P|189:210|203:271,1,100,2|8,1:2|2:0,2:0:0:0:
225,279,24628,1,0,1:2:0:0:
235,378,24911,2,0,P|294:349|349:337,1,100,10|0,2:0|2:0,2:0:0:0:
423,315,25477,6,0,P|480:360|519:380,2,100,2|0|8,1:2|1:2|2:0,2:0:0:0:
364,241,26326,1,0,2:0:0:0:
364,241,26468,2,0,P|382:163|384:117,1,100,0|8,1:2|2:0,2:0:0:0:
373,94,26892,1,2,1:2:0:0:
282,51,27175,2,0,P|257:108|228:154,1,100,10|2,2:0|2:0,2:0:0:0:
141,166,27741,6,0,P|62:141|25:118,2,100,6|0|8,1:2|1:2|2:0,2:0:0:0:
194,256,28590,1,2,2:0:0:0:
194,256,28732,2,0,P|265:237|320:237,1,100,2|8,1:2|2:0,2:0:0:0:
374,290,29298,2,0,P|394:223|376:174,1,100,2|2,2:0|2:0,2:0:0:0:
360,153,29722,2,0,P|368:117|383:84,1,50,0|0,2:0|2:0,2:0:0:0:
412,74,30005,6,0,P|470:46|517:12,2,100,2|0|8,1:2|1:2|2:0,2:0:0:0:
321,31,30855,2,0,P|289:22|244:4,1,50,0|0,2:0|1:2,2:0:0:0:
230,42,31138,2,0,P|243:106|255:171,1,100,0|0,2:0|2:0,2:0:0:0:
199,226,31704,2,0,P|185:260|172:302,1,50,8|8,2:0|2:0,2:0:0:0:
169,321,31987,1,0,1:2:0:0:
70,339,32270,6,0,B|48:257|120:266|84:184,1,150,6|0,1:2|1:2,2:0:0:0:
54,159,32836,1,8,2:0:0:0:
96,70,33119,1,2,2:0:0:0:
96,70,33260,2,0,P|162:58|232:36,1,100,2|8,1:2|2:0,2:0:0:0:
238,26,33685,1,0,1:2:0:0:
298,105,33968,2,0,P|365:118|415:132,1,100,10|0,2:0|2:0,2:0:0:0:
494,139,34534,6,0,P|512:93|499:34,2,100,2|0|8,1:2|1:2|2:0,2:0:0:0:
436,220,35383,2,0,P|402:215|349:210,1,50,2|2,2:0|1:2,2:0:0:0:
342,237,35666,2,0,P|275:251|211:281,1,100,2|0,2:0|1:2,2:0:0:0:
201,255,36090,1,2,2:0:0:0:
201,255,36232,1,10,2:3:0:0:
15,180,36798,6,0,P|50:112|53:62,1,100,8|0,2:0|2:0,2:0:0:0:
49,44,37222,1,2,2:0:0:0:
49,44,37364,2,0,P|122:39|184:17,1,100,10|0,3:2|3:0,2:0:0:0:
236,78,37930,2,0,P|304:88|353:101,1,100,8|0,2:0|2:0,2:0:0:0:
369,138,38355,1,2,2:0:0:0:
369,138,38496,2,0,P|359:206|346:255,1,100,10|0,3:2|3:0,2:0:0:0:
331,334,39062,6,0,P|410:309|453:305,1,100,10|0,2:0|2:0,2:0:0:0:
480,319,39487,1,2,2:0:0:0:
480,319,39628,2,0,P|504:250|508:206,1,100,8|0,2:0|3:0,2:0:0:0:
452,140,40194,2,0,P|465:62|479:13,1,100,10|8,3:2|2:0,2:0:0:0:
428,24,40619,1,2,2:0:0:0:
428,24,40760,2,0,P|340:51|287:57,1,100,8|0,2:3|2:0,2:0:0:0:
278,136,41326,6,0,P|216:134|139:273,1,200,6|8,1:2|2:3,2:0:0:0:
82,318,42175,1,8,2:3:0:0:
165,372,42458,2,0,P|227:351|284:339,1,100,8|8,2:3|2:3,2:0:0:0:
357,367,43024,1,8,2:3:0:0:
428,296,43307,1,4,2:3:0:0:
363,219,43590,6,0,P|298:205|243:181,2,100,4|8|8,1:2|2:3|2:3,2:0:0:0:
436,151,44439,1,8,2:3:0:0:
383,65,44722,2,0,P|308:50|252:34,1,100,8|8,2:3|2:3,2:0:0:0:
240,37,45147,1,0,2:0:0:0:
240,37,45288,2,0,P|167:54|109:75,1,100,8|8,2:0|2:3,2:0:0:0:
48,93,45855,6,0,P|9:43|2:-5,2,100,6|8|8,1:2|2:3|2:3,2:0:0:0:
120,161,46704,1,8,2:3:0:0:
60,241,46987,2,0,P|79:306|98:367,1,100,8|8,2:3|2:3,2:0:0:0:
186,355,47553,2,0,P|251:336|312:317,1,100,8|8,2:3|2:3,2:0:0:0:
353,256,48119,5,14,2:0:0:0:
447,287,48402,2,0,P|457:251|472:213,1,50,8|8,2:0|2:0,2:0:0:0:
494,201,48685,2,0,L|478:67,1,100,8|4,2:3|2:3,2:0:0:0:
464,55,49109,1,14,2:0:0:0:
325,112,49534,1,8,1:2:0:0:
228,84,49817,2,0,P|187:75|143:69,1,50,8|8,1:2|2:0,2:0:0:0:
146,111,50100,2,0,P|137:152|131:196,1,50,8|8,1:2|2:0,2:0:0:0:
161,202,50383,6,0,P|245:220|298:238,2,100,6|8|0,1:2|2:0|1:2,2:0:0:0:
76,252,51232,1,8,2:0:0:0:
76,252,51373,2,0,P|45:194|50:134,1,100,2|0,1:3|1:2,2:0:0:0:
63,114,51798,1,8,2:0:0:0:
21,22,52081,2,0,P|88:8|112:6,1,50,2|0,1:2|1:2,2:0:0:0:
119,12,52364,1,10,2:0:0:0:
209,55,52647,6,0,P|272:69|334:74,1,100,2|8,1:3|2:0,2:0:0:0:
357,72,53071,2,0,P|406:78|455:89,1,100,2|0,2:0|1:2,2:0:0:0:
500,122,53496,1,10,2:0:0:0:
500,122,53638,2,0,B|517:200|459:184|483:285,1,150,2|10,1:3|2:0,2:0:0:0:
395,321,54345,2,0,P|360:327|310:342,1,50,0|0,1:2|1:2,2:0:0:0:
300,351,54628,1,10,2:0:0:0:
228,281,54911,6,0,L|246:164,2,100,2|8|0,1:3|2:0|2:0,2:0:0:0:
142,330,55760,1,8,2:0:0:0:
142,330,55902,2,0,P|129:268|117:221,1,100,2|0,1:3|1:2,2:0:0:0:
95,188,56326,1,8,2:0:0:0:
155,108,56609,2,0,P|209:92|243:78,1,50,2|0,1:2|1:2,2:0:0:0:
250,76,56892,1,10,2:0:0:0:
345,44,57175,6,0,L|328:167,1,100,2|12,1:2|2:0,2:0:0:0:
265,218,57741,2,0,P|278:253|297:309,1,50,8|0,2:0|1:2,2:0:0:0:
296,317,58024,1,8,2:0:0:0:
296,317,58166,2,0,P|374:289|396:245,1,100,6|0,1:2|1:2,2:0:0:0:
389,228,58590,1,8,2:0:0:0:
467,166,58873,2,0,P|477:120|488:80,1,50,0|8,1:2|2:0,2:0:0:0:
452,73,59156,2,0,P|406:63|366:52,1,50,8|8,1:2|2:0,2:0:0:0:
368,98,59439,6,0,P|322:124|252:139,2,100,6|8|0,1:2|2:0|1:2,2:0:0:0:
329,11,60288,1,8,2:0:0:0:
329,11,60430,2,0,P|281:24|237:49,1,100,2|0,1:3|1:2,2:0:0:0:
209,90,60855,1,8,2:0:0:0:
109,86,61138,2,0,P|99:128|91:165,1,50,2|0,1:2|1:2,2:0:0:0:
79,181,61421,1,10,2:0:0:0:
152,249,61704,6,0,P|206:260|248:304,1,100,2|8,1:3|2:0,2:0:0:0:
266,330,62128,2,0,P|342:319|384:281,1,100,2|2,2:0|1:2,2:0:0:0:
382,264,62553,1,10,2:0:0:0:
382,264,62694,2,0,P|361:202|349:150,1,100,2|0,1:3|1:2,2:0:0:0:
354,118,63119,1,10,2:0:0:0:
408,34,63402,2,0,P|441:44|474:48,1,50,2|0,1:2|1:2,2:0:0:0:
490,82,63685,1,10,2:0:0:0:
468,179,63968,6,0,P|482:238|500:294,1,100,6|8,1:2|2:0,2:0:0:0:
428,352,64534,1,0,1:2:0:0:
428,352,64675,2,0,P|355:328|292:324,1,100,0|10,1:2|2:0,2:0:0:0:
285,342,65100,2,0,P|199:362|143:372,1,100,2|8,1:2|2:0,2:0:0:0:
96,323,65666,2,0,P|105:268|112:238,1,50,0|0,1:2|1:2,2:0:0:0:
122,227,65949,1,10,2:0:0:0:
49,158,66232,6,0,L|24:39,1,100,2|10,1:3|2:0,2:0:0:0:
125,34,66798,2,0,L|244:9,1,100,2|8,1:3|2:0,2:0:0:0:
251,109,67364,2,0,L|276:228,1,100,2|10,1:3|2:0,2:0:0:0:
312,244,67788,1,8,2:0:0:0:
312,244,67930,2,0,P|361:218|380:161,1,100,2|10,1:2|2:0,2:0:0:0:
350,83,68496,6,0,P|406:62|463:29,1,100,6|8,1:2|2:0,2:0:0:0:
509,124,69062,1,0,1:2:0:0:
509,124,69204,2,0,P|493:181|485:229,1,100,0|8,1:2|2:0,2:0:0:0:
446,251,69628,2,0,P|462:315|478:363,1,100,0|8,1:2|2:0,2:0:0:0:
379,383,70194,2,0,P|332:366|297:343,1,50,0|0,1:2|1:2,2:0:0:0:
308,321,70477,1,10,2:0:0:0:
213,288,70760,6,0,L|99:253,1,100,2|8,1:3|2:0,2:0:0:0:
72,169,71326,2,0,L|159:87,1,100,2|8,1:3|2:0,2:0:0:0:
246,106,71892,2,0,L|272:222,1,100,2|8,1:3|2:0,2:0:0:0:
316,231,72317,1,8,2:0:0:0:
316,231,72458,2,0,P|365:193|366:138,1,100,2|10,1:2|2:0,2:0:0:0:
411,67,73024,6,0,P|348:51|294:32,1,100,6|8,1:2|2:0,2:0:0:0:
217,16,73590,2,0,P|181:28|128:39,1,50,0|8,1:2|2:0,2:0:0:0:
126,56,73873,1,0,1:2:0:0:
43,112,74156,2,0,P|17:57|18:6,2,100,0|8|0,1:2|2:0|2:0,2:0:0:0:
81,152,74864,1,8,2:0:0:0:
81,152,75005,2,0,P|66:195|59:242,1,50,2|0,2:0|2:0,2:0:0:0:
71,248,75288,6,0,P|130:266|195:292,1,100,2|12,1:2|2:0,2:0:0:0:
235,351,75855,2,0,P|284:341|329:335,1,50,8|4,2:0|2:3,2:0:0:0:
336,355,76138,1,8,2:0:0:0:
336,355,76279,2,0,P|419:316|410:227,1,150,2|0,1:3|2:0,2:0:0:0:
427,265,77553,5,2,1:3:0:0:
347,203,77836,2,0,P|356:154|365:122,1,50,2|0,2:0|2:0,2:0:0:0:
371,106,78119,2,0,P|306:68|244:60,1,100,2|2,2:0|2:0,2:0:0:0:
236,81,78543,1,10,2:0:0:0:
92,36,78968,2,0,P|77:87|69:159,1,100,2|2,1:2|2:0,2:0:0:0:
75,233,79534,2,0,P|95:278|108:317,1,50,0|0,2:0|2:0,2:0:0:0:
102,328,79817,1,0,1:2:0:0:
193,368,80100,6,0,P|246:349|303:342,1,100,2|2,2:0|2:0,2:0:0:0:
364,276,80666,1,0,0:0:0:0:
364,276,80807,2,0,P|278:249|195:217,2,150,10|2|10,2:0|1:2|2:0,2:0:0:0:
463,163,82081,1,2,1:2:0:0:
395,89,82364,6,0,P|342:99|310:103,1,50,2|0,2:0|2:0,2:0:0:0:
297,85,82647,2,0,P|230:68|170:63,1,100,2|0,2:0|2:0,2:0:0:0:
150,75,83071,1,10,2:0:0:0:
8,125,83496,2,0,P|31:191|45:239,1,100,2|2,1:2|2:0,2:0:0:0:
130,262,84062,2,0,P|183:247|219:242,1,50,0|0,2:0|2:0,2:0:0:0:
225,264,84345,1,2,1:2:0:0:
300,198,84628,6,0,P|343:210|385:221,1,50,2|0,2:0|2:0,2:0:0:0:
391,235,84911,2,0,P|400:288|421:353,1,100,2|0,2:0|2:0,2:0:0:0:
387,375,85336,1,4,1:2:0:0:
