osu file format v14

[General]
AudioFilename: Mili - Paper Bouquet.mp3
AudioLeadIn: 0
PreviewTime: 524
Countdown: 0
SampleSet: Soft
StackLeniency: 0.7
Mode: 0
LetterboxInBreaks: 0
WidescreenStoryboard: 0

[Editor]
Bookmarks: 9628,18685,23213,27741,32270,36798,41326,50383,77553
DistanceSpacing: 0.7
BeatDivisor: 4
GridSize: 32
TimelineZoom: 2.3

[Metadata]
Title:Paper Bouquet (TV Size)
TitleUnicode:Paper Bouquet (TV Size)
Artist:Mili
ArtistUnicode:Mili
Creator:frozz
Version:Dullun katre n'a sol solle flare-esta
Source:処刑少女の生きる道
Tags:momocashew cassie wei projectmili yamato kasai hamo project conlang opening op バージンロード Shokei Shoujo no Ikiru Michi The Executioner and Her Way of Life Virgin Road female anime rock english vocal -keqing adinda
BeatmapID:3635870
BeatmapSetID:1775588

[Difficulty]
HPDrainRate:6
CircleSize:4.2
OverallDifficulty:9
ApproachRate:9.4
SliderMultiplier:1.72
SliderTickRate:1

[Events]
//Background and Video events
0,0,"Mili - Paper Bouquet.jpg",0,0
//Break Periods
//Storyboard Layer 0 (Background)
//Storyboard Layer 1 (Fail)
//Storyboard Layer 2 (Pass)
//Storyboard Layer 3 (Foreground)
//Storyboard Layer 4 (Overlay)
//Storyboard Sound Samples

[TimingPoints]
572,283.018867924528,4,2,1,40,1,0
572,-142.857142857143,4,2,1,40,0,0
4180,-142.857142857143,4,2,1,5,0,0
4251,-142.857142857143,4,2,1,40,0,0
9628,-62.5,4,2,1,70,0,0
9840,-62.5,4,2,1,5,0,0
9911,-100,4,2,1,70,0,0
10619,-62.5,4,2,1,70,0,0
10831,-62.5,4,2,1,5,0,0
10902,-62.5,4,2,1,70,0,0
11255,-62.5,4,2,1,5,0,0
11326,-76.9230769230769,4,2,1,70,0,0
11609,-166.666666666667,4,2,1,70,0,0
11821,-166.666666666667,4,2,1,5,0,0
11892,-62.5,4,2,1,70,0,0
12105,-62.5,4,2,1,5,0,0
12175,-100,4,2,1,70,0,0
12883,-62.5,4,2,1,70,0,0
13095,-62.5,4,2,1,5,0,0
13166,-62.5,4,2,1,70,0,0
13307,-76.9230769230769,4,2,1,70,0,0
13520,-76.9230769230769,4,2,1,5,0,0
13590,-76.9230769230769,4,2,1,70,0,0
14156,-62.5,4,2,1,70,0,0
14369,-62.5,4,2,1,5,0,0
14439,-100,4,2,1,70,0,0
15147,-62.5,4,2,1,70,0,0
15359,-62.5,4,2,1,5,0,0
15430,-62.5,4,2,1,70,0,0
15571,-83.3333333333333,4,2,1,70,0,0
16138,-166.666666666667,4,2,1,70,0,0
16350,-166.666666666667,4,2,1,5,0,0
16421,-83.3333333333333,4,2,1,70,0,0
17411,-166.666666666667,4,2,1,70,0,0
18685,-142.857142857143,4,2,1,50,0,0
20949,-76.923076923077,4,2,1,65,0,0
21020,-76.923076923077,4,2,1,5,0,0
21090,-76.923076923077,4,2,1,65,0,0
21303,-76.923076923077,4,2,1,5,0,0
21373,-76.923076923077,4,2,1,65,0,0
21939,-62.5,4,2,1,65,0,0
22152,-62.5,4,2,1,5,0,0
22222,-62.5,4,2,1,65,0,0
22364,-76.9230769230769,4,2,1,65,0,0
22576,-76.9230769230769,4,2,1,5,0,0
22647,-76.9230769230769,4,2,1,65,0,0
22930,-250,4,2,1,65,0,0
23142,-250,4,2,1,5,0,0
23213,-100,4,2,1,65,0,0
24840,-100,4,2,1,5,0,0
24911,-100,4,2,1,65,0,0
25619,-100,4,2,1,5,0,0
25689,-100,4,2,1,65,0,0
25831,-100,4,2,1,5,0,0
25902,-100,4,2,1,65,0,0
26892,-200,4,2,1,65,0,0
27105,-200,4,2,1,5,0,0
27175,-100,4,2,1,65,0,0
27388,-100,4,2,1,5,0,0
27458,-100,4,2,1,65,0,0
27741,-83.3333333333333,4,2,1,65,0,0
27954,-83.3333333333333,4,2,1,5,0,0
28024,-83.3333333333333,4,2,1,65,0,0
28237,-83.3333333333333,4,2,1,5,0,0
28307,-166.666666666667,4,2,1,65,0,0
28732,-100,4,2,1,65,0,0
32270,-166.666666666667,4,2,1,55,0,0
33897,-166.666666666667,4,2,1,5,0,0
33968,-166.666666666667,4,2,1,55,0,0
34534,-125,4,2,1,55,0,0
36727,-125,4,2,1,5,0,0
36798,-166.666666666667,4,2,1,40,0,0
39840,-166.666666666667,4,2,1,5,0,0
39911,-166.666666666667,4,2,1,40,0,0
40760,-111.111111111111,4,2,1,40,0,0
41043,-111.111111111111,4,2,1,5,0,0
41114,-111.111111111111,4,2,1,40,0,0
41326,-111.111111111111,4,2,1,50,0,0
43590,-111.111111111111,4,2,1,60,0,0
45359,-111.111111111111,4,2,1,5,0,0
45430,-111.111111111111,4,2,1,60,0,0
45855,-200,4,2,1,70,0,0
46987,-133.333333333333,4,2,1,70,0,0
47553,-83.3333333333333,4,2,1,70,0,0
48119,-83.3333333333333,4,2,1,80,0,0
49463,-83.3333333333333,4,2,1,5,0,0
49534,-83.3333333333333,4,2,1,80,0,0
50383,-76.9230769230769,4,2,1,85,0,0
50595,-76.9230769230769,4,2,1,5,0,0
50666,-58.8235294117647,4,2,1,85,0,0
50878,-58.8235294117647,4,2,1,5,0,0
50949,-58.8235294117647,4,2,1,85,0,0
51232,-83.3333333333333,4,2,1,85,0,0
51303,-83.3333333333333,4,2,1,5,0,0
51373,-58.8235294117647,4,2,1,85,0,0
51586,-58.8235294117647,4,2,1,5,0,0
51656,-58.8235294117647,4,2,1,85,0,0
52010,-58.8235294117647,4,2,1,5,0,0
52081,-76.9230769230769,4,2,1,85,0,0
52364,-166.666666666667,4,2,1,85,0,0
52576,-166.666666666667,4,2,1,5,0,0
52647,-58.8235294117647,4,2,1,85,0,0
52859,-58.8235294117647,4,2,1,5,0,0
52930,-58.8235294117647,4,2,1,85,0,0
53071,-76.9230769230769,4,2,1,85,0,0
53425,-76.9230769230769,4,2,1,5,0,0
53496,-76.9230769230769,4,2,1,85,0,0
53567,-76.9230769230769,4,2,1,5,0,0
53638,-66.6666666666667,4,2,1,85,0,0
53850,-66.6666666666667,4,2,1,5,0,0
53921,-66.6666666666667,4,2,1,85,0,0
54274,-66.6666666666667,4,2,1,5,0,0
54345,-83.3333333333333,4,2,1,85,0,0
54628,-166.666666666667,4,2,1,85,0,0
54840,-166.666666666667,4,2,1,5,0,0
54911,-55.5555555555556,4,2,1,85,0,0
56326,-90.9090909090909,4,2,1,85,0,0
56892,-166.666666666667,4,2,1,85,0,0
57105,-166.666666666667,4,2,1,5,0,0
57175,-62.5,4,2,1,85,0,0
57388,-62.5,4,2,1,5,0,0
57458,-83.3333333333333,4,2,1,85,0,0
58166,-52.6315789473684,4,2,1,85,0,0
58378,-52.6315789473684,4,2,1,5,0,0
58449,-58.8235294117647,4,2,1,85,0,0
58520,-58.8235294117647,4,2,1,5,0,0
58590,-55.5555555555556,4,2,1,85,0,0
58803,-55.5555555555556,4,2,1,5,0,0
58873,-55.5555555555556,4,2,1,85,0,0
59439,-76.9230769230769,4,2,1,85,0,0
59652,-76.9230769230769,4,2,1,5,0,0
59722,-58.8235294117647,4,2,1,85,0,0
59935,-58.8235294117647,4,2,1,5,0,0
60005,-76.9230769230769,4,2,1,85,0,0
60359,-76.9230769230769,4,2,1,5,0,0
60430,-58.8235294117647,4,2,1,85,0,0
60642,-58.8235294117647,4,2,1,5,0,0
60713,-58.8235294117647,4,2,1,85,0,0
60855,-71.4285714285714,4,2,1,85,0,0
61067,-71.4285714285714,4,2,1,5,0,0
61138,-83.3333333333333,4,2,1,85,0,0
61421,-166.666666666667,4,2,1,85,0,0
61633,-166.666666666667,4,2,1,5,0,0
61704,-58.8235294117647,4,2,1,85,0,0
61916,-58.8235294117647,4,2,1,5,0,0
61987,-58.8235294117647,4,2,1,85,0,0
62411,-76.9230769230769,4,2,1,85,0,0
62482,-76.9230769230769,4,2,1,5,0,0
62553,-76.9230769230769,4,2,1,85,0,0
62623,-76.9230769230769,4,2,1,5,0,0
62694,-58.8235294117647,4,2,1,85,0,0
62906,-58.8235294117647,4,2,1,5,0,0
62977,-58.8235294117647,4,2,1,85,0,0
63119,-76.9230769230769,4,2,1,85,0,0
63331,-76.9230769230769,4,2,1,5,0,0
63402,-76.9230769230769,4,2,1,85,0,0
63685,-166.666666666667,4,2,1,85,0,0
63897,-166.666666666667,4,2,1,5,0,0
63968,-66.6666666666667,4,2,1,85,0,0
64675,-100,4,2,1,85,0,0
65312,-100,4,2,1,5,0,0
65383,-100,4,2,1,85,0,0
65595,-100,4,2,1,5,0,0
65666,-100,4,2,1,85,0,0
65949,-62.5,4,2,1,85,0,0
66161,-62.5,4,2,1,5,0,0
66232,-111.111111111111,4,2,1,85,0,0
66798,-166.666666666666,4,2,1,85,0,0
67010,-166.666666666666,4,2,1,5,0,0
67081,-66.6666666666666,4,2,1,85,0,0
67293,-66.6666666666666,4,2,1,5,0,0
67364,-100,4,2,1,85,0,0
68496,-66.6666666666667,4,2,1,85,0,0
69204,-100,4,2,1,85,0,0
69840,-100,4,2,1,5,0,0
69911,-100,4,2,1,85,0,0
70123,-100,4,2,1,5,0,0
70194,-100,4,2,1,85,0,0
70477,-62.5,4,2,1,85,0,0
70689,-62.5,4,2,1,5,0,0
70760,-100,4,2,1,85,0,0
71043,-58.8235294117647,4,2,1,85,0,0
71255,-58.8235294117647,4,2,1,5,0,0
71326,-100,4,2,1,85,0,0
71609,-55.5555555555556,4,2,1,85,0,0
71821,-55.5555555555556,4,2,1,5,0,0
71892,-100,4,2,1,85,0,0
73024,-90.9090909090909,4,2,1,85,0,0
74156,-76.9230769230769,4,2,1,85,0,0
75005,-100,4,2,1,85,0,0
75288,-83.3333333333333,4,2,1,85,0,0
77553,-142.857142857143,4,2,1,50,0,0
78048,-142.857142857143,4,2,1,5,0,0
78119,-142.857142857143,4,2,1,50,0,0
78331,-142.857142857143,4,2,1,5,0,0
78402,-142.857142857143,4,2,1,50,0,0

[Colours]
Combo1 : 170,196,255
Combo2 : 255,170,170
Combo3 : 255,213,170
Combo4 : 198,170,255

[HitObjects]
490,141,572,5,0,1:2:0:0:
490,141,855,2,0,P|475:188|468:220,1,60.1999981628419,2|0,0:0|0:0,0:0:0:0:
399,170,1138,2,0,P|384:217|377:249,1,60.1999981628419,2|0,0:0|0:0,0:0:0:0:
304,254,1421,1,2,0:0:0:0:
407,366,1562,2,0,P|337:346|215:319,1,180.599994488526,2|0,1:2|0:0,0:0:0:0:
43,195,2270,2,0,P|101:183|160:167,1,120.399996325684,2|0,0:0|0:0,0:0:0:0:
265,26,2694,1,2,1:2:0:0:
198,93,2836,1,2,1:2:0:0:
198,93,3119,6,0,P|242:104|276:114,1,60.1999981628419,2|0,0:0|0:0,0:0:0:0:
432,72,3402,1,2,0:0:0:0:
384,50,3543,1,2,0:0:0:0:
339,75,3685,1,2,0:0:0:0:
208,216,3826,2,0,P|185:284|157:381,1,150.499995407105,2|0,1:2|0:0,0:0:0:0:
150,364,4251,2,0,P|164:318|175:296,1,60.1999981628419,10|0,0:0|0:0,0:0:0:0:
324,234,4534,1,10,0:0:0:0:
275,164,4675,2,0,P|261:118|250:96,2,60.1999981628419,2|0|0,1:2|0:0|0:0,0:0:0:0:
174,90,5100,1,2,1:2:0:0:
174,90,5383,6,0,P|128:117|101:131,1,60.1999981628419,2|0,0:0|0:0,0:0:0:0:
31,96,5666,2,0,P|4:50|-10:23,1,60.1999981628419,2|0,0:0|0:0,0:0:0:0:
0,176,5949,1,2,0:0:0:0:
107,247,6090,2,0,P|171:268|283:310,1,180.599994488526,2|0,1:2|0:0,0:0:0:0:
471,144,6798,1,2,0:0:0:0:
415,196,6939,2,0,P|366:204|338:210,1,60.1999981628419,8|8,0:0|0:3,0:0:0:0:
189,146,7222,1,4,0:3:0:0:
261,184,7364,6,0,B|288:144|267:97|267:97|317:133|362:108,2,180.599994488526,2|0|0,1:3|0:0|0:0,0:0:0:0:
189,146,8355,1,2,1:3:0:0:
68,266,9204,5,2,0:0:0:0:
47,347,9345,1,2,0:0:0:0:
68,266,9487,1,2,0:0:0:0:
330,283,9628,6,0,B|268:256|222:311|256:320|202:370|129:332,1,206.4,2|0,1:3|0:0,0:0:0:0:
134,350,9911,2,0,P|182:358|229:346,1,86,2|8,0:0|0:0,0:0:0:0:
218,350,10123,1,0,0:0:0:0:
218,350,10194,1,2,0:0:0:0:
403,232,10336,5,0,0:0:0:0:
491,253,10477,1,2,0:0:0:0:
295,89,10619,6,0,B|282:30|368:10|400:72|385:137|298:175,1,206.4,2|0,1:2|0:0,0:0:0:0:
339,149,10902,1,8,0:0:0:0:
128,202,11043,6,0,B|113:151|56:140|56:140|118:141|140:68,1,206.4,2|0,1:2|0:0,0:0:0:0:
86,25,11326,2,0,P|145:48|178:-7,1,111.799994882202,2|8,0:0|0:0,0:0:0:0:
284,221,11609,6,0,P|233:234|190:250,1,77.3999976379395,2|0,0:0|0:0,0:0:0:0:
139,281,11892,6,0,P|250:305|394:341,1,206.4,2|0,1:3|0:0,0:0:0:0:
340,342,12175,2,0,P|256:321|176:301,1,86,2|8,0:0|0:0,0:0:0:0:
256,321,12388,1,0,0:0:0:0:
256,321,12458,1,0,0:0:0:0:
443,199,12600,5,2,0:0:0:0:
425,294,12741,1,2,0:0:0:0:
294,66,12883,6,0,B|267:128|322:174|331:140|381:194|343:267,1,206.4,2|0,1:3|0:0,0:0:0:0:
351,247,13166,1,8,0:0:0:0:
370,89,13307,6,0,B|378:48|408:15|465:18|481:90|428:101,1,167.699992323304,2|0,1:2|0:0,0:0:0:0:
440,98,13590,1,8,0:0:0:0:
223,163,13732,5,2,0:0:0:0:
150,131,13873,1,2,0:0:0:0:
153,49,14015,1,2,0:0:0:0:
0,235,14156,6,0,P|72:216|152:323,1,206.4,2|0,1:3|0:0,0:0:0:0:
141,322,14439,2,0,P|130:269|97:248,1,86,2|8,0:0|0:0,0:0:0:0:
106,251,14652,1,0,0:0:0:0:
106,251,14722,1,2,0:0:0:0:
326,347,14864,5,0,0:0:0:0:
214,371,15005,1,0,0:0:0:0:
342,213,15147,6,0,B|399:224|440:188|440:188|417:246|457:298,1,206.4,2|0,1:2|0:0,0:0:0:0:
448,285,15430,1,8,0:0:0:0:
371,131,15571,6,0,P|318:97|326:50,1,103.199996850586,2|8,1:2|0:0,0:0:0:0:
327,53,15784,1,8,0:0:0:0:
339,48,15855,1,8,0:0:0:0:
457,100,15996,1,8,0:0:0:0:
271,176,16138,6,0,P|223:190|176:211,1,77.3999976379395,10|0,0:3|0:0,0:0:0:0:
26,168,16421,6,0,B|84:167|113:119|113:119|86:180|134:231,1,206.399993701172,6|0,1:2|0:0,0:0:0:0:
184,296,16845,1,8,0:3:0:0:
182,302,16916,1,8,0:3:0:0:
180,309,16987,1,8,0:3:0:0:
253,350,17128,5,4,0:3:0:0:
118,371,17270,1,4,0:3:0:0:
348,302,17411,6,0,B|290:301|261:253|261:253|288:314|240:365,1,206.399993701172,2|0,1:3|0:0,0:0:0:0:
368,226,18119,5,2,0:0:0:0:
424,174,18260,1,2,0:0:0:0:
498,197,18402,1,2,0:0:0:0:
442,249,18543,1,2,0:0:0:0:
368,226,18685,1,2,0:0:0:0:
97,127,19675,6,0,B|160:131|189:63|189:63|169:155|240:176|240:176|240:145|199:128,1,300.999990814209,2|0,0:0|0:0,0:0:0:0:
121,221,20524,2,0,P|107:252|94:282,1,60.1999981628419,2|0,0:0|0:0,0:0:0:0:
25,309,20807,1,0,1:2:0:0:
190,274,20949,6,0,P|241:285|290:298,1,55.8999974411012,8|0,0:0|0:0,0:0:0:0:
381,383,21090,1,0,1:2:0:0:
431,310,21232,6,0,P|403:303|376:298,1,55.8999974411012,8|0,0:0|0:0,0:0:0:0:
196,356,21373,1,2,1:3:0:0:
480,196,21656,5,2,1:3:0:0:
250,13,21939,6,0,B|277:68|223:117|226:84|165:135|195:196,1,206.4,6|0,1:2|0:0,0:0:0:0:
194,193,22222,1,8,0:0:0:0:
100,62,22364,6,0,B|43:46|69:-28|151:-26|188:75,1,167.699992323304,2|0,1:3|0:0,0:0:0:0:
166,33,22647,1,8,0:0:0:0:
293,162,22788,5,2,1:3:0:0:
419,119,22930,2,0,P|373:126|361:128,1,51.6,2|0,0:0|0:0,0:0:0:0:
293,162,23213,6,0,B|337:168|367:127|367:127|346:171|376:226,2,172,6|0|8,1:2|0:0|0:0,0:0:0:0:
503,340,24062,5,0,0:0:0:0:
351,313,24204,2,0,P|408:301|458:279,1,86,2|0,1:2|0:0,0:0:0:0:
279,257,24487,1,8,0:0:0:0:
186,381,24628,2,0,P|204:312|148:286,1,129,0|0,1:2|0:0,0:0:0:0:
107,384,24911,2,0,B|86:349|59:319|59:319|82:275|93:219,1,172,10|0,0:0|0:0,0:0:0:0:
61,106,25336,5,2,0:0:0:0:
61,106,25406,1,2,0:0:0:0:
61,106,25477,2,0,P|115:99|142:59,1,86,2|0,1:2|0:0,0:0:0:0:
135,67,25689,2,0,P|166:29|228:38,1,86,2|0,0:0|0:0,0:0:0:0:
210,30,25902,1,2,0:0:0:0:
388,151,26043,2,0,P|309:131|217:112,1,172,8|0,0:0|0:0,0:0:0:0:
430,80,26468,6,0,P|481:65|525:42,1,86,0|0,1:2|0:0,0:0:0:0:
353,46,26751,1,8,0:0:0:0:
475,162,26892,2,0,P|456:201|446:234,1,64.5,2|0,1:2|0:0,0:0:0:0:
486,299,27175,2,0,P|503:241|434:232,1,129,10|0,0:0|0:0,0:0:0:0:
403,312,27458,2,0,L|295:330,1,86,2|0,0:0|0:0,0:0:0:0:
318,326,27671,1,0,0:0:0:0:
318,326,27741,6,0,P|243:306|157:288,1,154.799995275879,6|0,1:2|0:0,0:0:0:0:
165,298,28024,2,0,P|90:278|4:260,1,154.799995275879,0|0,1:2|0:0,0:0:0:0:
20,252,28307,2,0,P|70:262|119:273,1,51.599998425293,8|0,0:0|0:0,0:0:0:0:
134,380,28590,1,2,0:0:0:0:
199,201,28732,6,0,B|227:150|176:113|177:134|127:97|158:33,1,172,2|8,1:2|0:0,0:0:0:0:
336,113,29156,2,0,P|274:96|226:70,1,86,0|0,1:2|0:0,0:0:0:0:
98,176,29439,1,8,0:0:0:0:
199,201,29581,2,0,P|211:254|220:301,2,86,2|0|0,0:0|0:0|0:0,0:0:0:0:
14,261,30005,6,0,P|97:277|148:375,1,172,2|0,1:2|1:2,0:0:0:0:
367,297,30430,1,2,0:0:0:0:
291,324,30571,2,0,P|235:301|201:265,1,86,8|0,0:0|0:0,0:0:0:0:
411,223,30855,6,0,P|467:203|506:192,1,86,0|0,0:0|1:2,0:0:0:0:
335,97,31138,1,0,0:0:0:0:
309,176,31279,1,8,0:0:0:0:
335,97,31421,1,0,0:0:0:0:
217,169,31562,5,0,1:2:0:0:
218,179,31632,1,0,1:2:0:0:
220,190,31703,1,8,0:0:0:0:
15,139,31845,1,8,0:0:0:0:
132,211,31987,5,0,1:2:0:0:
103,118,32128,1,8,0:0:0:0:
132,211,32270,6,0,B|153:254|112:295|115:264|74:308|91:355,1,154.799995275879,6|0,1:2|1:2,0:0:0:0:
161,379,32836,1,8,0:0:0:0:
316,275,33119,1,2,0:0:0:0:
310,359,33260,2,0,P|365:340|403:290,1,103.199996850586,2|8,1:2|0:0,0:0:0:0:
496,228,33685,2,0,L|471:310,1,77.3999976379395,0|0,1:2|0:0,0:0:0:0:
473,302,33968,1,10,0:0:0:0:
362,171,34109,2,0,P|331:183|311:200,2,51.599998425293,2|0|0,0:0|0:0|0:0,0:0:0:0:
469,141,34534,6,0,P|400:129|335:103,2,137.6,2|0|8,1:2|1:2|0:0,0:0:0:0:
372,31,35241,1,2,0:0:0:0:
486,8,35383,1,2,0:0:0:0:
486,8,35524,1,2,1:2:0:0:
372,31,35666,2,0,P|321:22|287:12,1,68.8,2|8,0:0|0:0,0:0:0:0:
230,72,35949,1,0,1:2:0:0:
45,12,36090,1,2,0:0:0:0:
121,6,36232,2,0,P|142:74|177:253,1,240.8,10|0,0:3|0:0,0:0:0:0:
142,310,36798,6,0,P|87:321|70:374,1,103.199996850586,8|0,0:0|0:0,0:0:0:0:
68,360,37222,1,2,0:0:0:0:
208,380,37364,1,10,3:2:0:0:
211,367,37434,1,0,3:0:0:0:
214,355,37505,1,0,3:0:0:0:
217,342,37576,1,0,3:0:0:0:
220,330,37647,1,0,3:0:0:0:
337,277,37788,5,2,0:0:0:0:
410,227,37930,2,0,P|465:238|482:291,1,103.199996850586,8|0,0:0|0:0,0:0:0:0:
484,277,38354,1,2,0:0:0:0:
337,277,38496,1,10,3:2:0:0:
334,264,38566,1,0,3:0:0:0:
331,252,38637,1,0,3:0:0:0:
328,239,38708,1,0,3:0:0:0:
325,227,38779,1,0,3:0:0:0:
198,171,38921,5,2,0:0:0:0:
43,144,39062,2,0,P|90:133|159:102,1,103.199996850586,10|0,0:0|0:0,0:0:0:0:
270,125,39487,5,2,0:0:0:0:
382,72,39628,2,0,P|339:60|290:43,1,77.3999976379395,8|0,0:0|0:0,0:0:0:0:
199,17,39911,1,0,3:0:0:0:
201,29,39981,1,0,3:0:0:0:
203,42,40052,1,0,3:0:0:0:
206,55,40123,1,0,3:0:0:0:
208,67,40194,1,10,3:2:0:0:
449,192,40477,5,8,0:0:0:0:
318,234,40619,1,2,0:0:0:0:
390,259,40760,2,0,P|445:272|467:373,1,154.799995275879,8|0,0:3|0:0,0:0:0:0:
481,367,41114,2,0,P|484:351|486:324,1,38.6999988189698,2|2,0:0|0:0,0:0:0:0:
255,347,41326,5,6,1:2:0:0:
255,347,41892,5,8,0:3:0:0:
192,297,42175,1,8,0:3:0:0:
268,207,42458,1,8,0:3:0:0:
128,106,42741,1,8,0:3:0:0:
332,18,43024,1,8,0:3:0:0:
232,65,43307,5,4,0:3:0:0:
236,76,43378,1,4,0:3:0:0:
375,117,43520,5,4,0:3:0:0:
367,125,43591,1,4,1:2:0:0:
268,207,43873,5,8,0:3:0:0:
460,222,44156,1,8,0:3:0:0:
255,336,44439,1,8,0:3:0:0:
512,382,44722,1,8,0:3:0:0:
361,207,45005,1,8,0:3:0:0:
168,295,45288,6,0,P|138:308|107:324,1,38.6999988189698,8|0,0:0|0:0,0:0:0:0:
0,267,45430,1,8,0:3:0:0:
8,272,45500,1,8,0:3:0:0:
16,277,45571,1,8,0:3:0:0:
53,273,45642,1,4,0:3:0:0:
83,249,45713,1,4,0:3:0:0:
96,214,45784,1,4,0:3:0:0:
89,176,45855,6,0,P|67:143|61:91,2,86,6|8|8,1:2|0:3|0:3,0:0:0:0:
256,256,46704,1,8,0:3:0:0:
318,117,46987,6,0,P|372:99|398:93,1,64.5000024604798,8|0,0:3|0:0,0:0:0:0:
233,171,47270,2,0,P|179:189|153:195,1,64.5000024604798,8|0,0:3|0:0,0:0:0:0:
355,198,47553,6,0,P|394:213|455:243,1,103.199996850586,8|0,0:3|0:0,0:0:0:0:
196,90,47836,2,0,P|157:75|96:45,1,103.199996850586,8|0,0:3|0:0,0:0:0:0:
408,0,48119,5,14,0:0:0:0:
78,162,48402,5,8,0:0:0:0:
88,201,48472,1,8,0:0:0:0:
98,242,48543,1,8,0:0:0:0:
106,282,48614,1,8,0:0:0:0:
114,322,48685,1,8,0:3:0:0:
111,329,48755,1,8,0:3:0:0:
108,337,48826,1,8,0:3:0:0:
106,345,48897,1,8,0:3:0:0:
103,353,48968,2,0,P|129:363|163:378,1,51.599998425293,4|4,0:3|0:3,0:0:0:0:
440,256,49109,6,0,P|347:271|172:304,1,257.999992126465,14|0,0:0|0:0,0:0:0:0:
186,293,49534,2,0,P|236:282|284:273,1,51.599998425293,8|8,1:2|0:0,0:0:0:0:
398,384,49675,5,8,0:0:0:0:
398,384,49746,1,8,0:0:0:0:
398,384,49817,2,0,P|411:336|432:300,1,51.599998425293,8|8,1:2|0:0,0:0:0:0:
300,191,49958,5,8,0:0:0:0:
293,194,50029,1,8,0:0:0:0:
287,199,50100,1,8,1:2:0:0:
276,159,50170,1,8,0:0:0:0:
264,119,50241,1,8,0:0:0:0:
252,79,50312,1,8,0:0:0:0:
240,40,50383,6,0,B|279:18|330:47|305:57|342:93|394:75,1,167.699992323304,6|0,1:2|0:0,0:0:0:0:
485,211,50666,6,0,B|445:169|476:110|476:110|443:167|368:157,1,219.300004182816,8|0,0:0|0:0,0:0:0:0:
221,257,50949,5,0,1:2:0:0:
70,293,51090,1,0,1:2:0:0:
283,348,51232,6,0,P|339:358|363:364,1,51.599998425293,8|0,0:0|0:0,0:0:0:0:
411,354,51373,2,0,B|408:306|361:262|287:253|275:354|337:358,1,219.300004182816,2|0,1:3|0:0,0:0:0:0:
334,357,51656,1,0,1:2:0:0:
138,221,51798,6,0,B|96:181|37:212|37:212|94:179|84:104,1,219.300004182816,8|0,0:0|0:0,0:0:0:0:
14,88,52081,2,0,P|79:76|94:31,1,111.799994882202,2|0,1:2|1:2,0:0:0:0:
297,195,52364,6,0,P|244:210|207:215,1,77.3999976379395,10|0,0:0|0:0,0:0:0:0:
138,221,52647,6,0,P|223:233|400:271,1,219.300004182816,2|0,1:3|0:0,0:0:0:0:
353,259,52930,1,8,0:0:0:0:
405,82,53071,5,2,0:0:0:0:
409,68,53141,1,2,0:0:0:0:
413,54,53212,1,2,1:2:0:0:
272,107,53355,6,0,P|321:116|366:127,1,55.8999974411012,0|0,1:2|0:0,0:0:0:0:
511,159,53496,2,0,P|483:154|456:148,1,55.8999974411012,10|0,0:0|0:0,0:0:0:0:
213,0,53638,6,0,B|237:62|189:102|185:70|136:118|158:171,1,193.50000738144,2|0,1:3|0:0,0:0:0:0:
157,168,53921,1,0,1:2:0:0:
50,384,54062,6,0,B|42:341|-16:324|-16:324|45:326|67:274,1,193.50000738144,10|0,0:0|0:0,0:0:0:0:
58,202,54345,2,0,P|106:248|164:231,1,103.199996850586,0|0,1:2|1:2,0:0:0:0:
336,298,54628,6,0,P|285:314|255:324,1,77.3999976379395,10|0,0:0|0:0,0:0:0:0:
180,329,54911,6,0,P|313:348|506:384,1,309.599990551758,2|8,1:3|0:0,0:0:0:0:
427,164,55336,5,0,0:0:0:0:
421,202,55406,1,0,0:0:0:0:
415,240,55477,1,0,0:0:0:0:
512,117,55619,5,0,1:2:0:0:
336,298,55760,1,8,0:0:0:0:
225,166,55902,5,2,1:3:0:0:
225,166,55972,1,0,0:2:0:0:
225,166,56043,1,0,0:3:0:0:
344,10,56185,1,0,1:2:0:0:
333,103,56326,2,0,P|270:84|203:71,1,94.600002886963,8|0,0:0|0:0,0:0:0:0:
38,147,56609,5,2,1:2:0:0:
76,281,56751,1,0,1:2:0:0:
357,203,56892,6,0,P|339:235|316:280,1,77.3999976379395,10|0,0:0|0:0,0:0:0:0:
291,346,57175,6,0,B|251:306|196:322|196:322|247:296|250:238,1,206.4,2|0,1:2|0:0,0:0:0:0:
185,203,57458,2,0,P|251:197|269:138,1,103.199996850586,12|0,0:0|0:0,0:0:0:0:
449,29,57741,5,8,0:0:0:0:
435,78,57812,1,8,0:0:0:0:
422,127,57883,1,0,1:2:0:0:
499,310,58024,1,8,0:0:0:0:
312,63,58166,6,0,P|208:87|50:143,1,245.099993455124,6|0,1:2|0:0,0:0:0:0:
75,122,58449,2,0,P|113:109|167:93,1,73.1000013942719,0|0,1:2|0:0,0:0:0:0:
351,162,58590,6,0,B|376:198|443:237|530:187|466:93|421:127,1,232.199992913819,8|0,0:0|0:0,0:0:0:0:
421,126,58873,1,0,1:2:0:0:
239,124,59015,5,8,0:0:0:0:
250,175,59085,1,8,0:0:0:0:
220,220,59156,1,8,1:2:0:0:
169,239,59227,1,8,0:0:0:0:
143,287,59298,1,8,0:0:0:0:
157,338,59368,1,8,0:0:0:0:
208,356,59439,6,0,B|251:367|293:325|266:322|292:278|347:282,1,167.699992323304,6|0,1:2|0:0,0:0:0:0:
497,384,59722,6,0,B|456:334|400:344|400:344|462:320|467:265,1,219.300004182816,8|0,0:0|0:0,0:0:0:0:
407,217,60005,2,0,P|474:225|503:169,1,111.799994882202,0|0,1:2|1:2,0:0:0:0:
225,98,60288,6,0,P|255:101|301:108,1,55.8999974411012,8|0,0:0|0:0,0:0:0:0:
441,133,60430,6,0,P|340:120|181:102,1,219.300004182816,2|0,1:3|0:0,0:0:0:0:
223,106,60713,1,0,1:2:0:0:
64,278,60855,6,0,B|37:228|86:180|88:212|132:162|105:112,1,180.599994488526,8|0,0:0|0:0,0:0:0:0:
36,87,61138,2,0,P|98:69|105:21,1,103.199996850586,2|0,1:2|1:2,0:0:0:0:
357,115,61421,6,0,P|327:109|280:104,1,77.3999976379395,10|0,0:0|0:0,0:0:0:0:
241,167,61704,6,0,B|179:129|185:21|279:16|313:90|264:122,1,219.300004182816,2|0,1:3|0:0,0:0:0:0:
280,103,61987,1,8,0:0:0:0:
435,263,62128,6,0,P|361:283|297:311,1,146.200002788544,2|0,0:0|1:2,0:0:0:0:
451,197,62411,6,0,P|435:235|434:289,1,55.8999974411012,2|0,1:2|0:0,0:0:0:0:
242,278,62553,2,0,P|267:288|290:305,1,55.8999974411012,10|0,0:0|0:0,0:0:0:0:
398,384,62694,6,0,P|356:267|312:147,1,219.300004182816,2|0,1:3|0:0,0:0:0:0:
323,177,62977,1,0,1:2:0:0:
461,0,63119,6,0,B|421:14|379:-9|379:-9|404:30|386:76,1,167.699992323304,10|0,0:0|0:0,0:0:0:0:
318,101,63402,2,0,P|385:109|392:178,1,111.799994882202,2|0,1:2|1:2,0:0:0:0:
297,310,63685,6,0,P|249:325|206:345,1,77.3999976379395,10|0,0:0|0:0,0:0:0:0:
149,361,63968,6,0,B|223:400|285:337|241:313|310:256|391:297,2,258.000009841919,6|8|0,1:2|0:0|1:2,0:0:0:0:
0,330,64675,2,0,P|60:305|101:285,1,86,0|0,1:2|0:0,0:0:0:0:
235,165,64958,1,10,0:0:0:0:
226,242,65100,6,0,P|160:232|78:211,1,129,2|0,1:2|0:0,0:0:0:0:
87,222,65383,2,0,P|37:188|81:119,1,129,8|0,0:0|0:0,0:0:0:0:
67,125,65666,2,0,P|95:85|72:37,1,86,0|0,1:2|1:2,0:0:0:0:
235,165,65949,6,0,P|329:131|469:89,1,206.4,10|0,0:0|0:0,0:0:0:0:
425,89,66232,2,0,P|375:103|329:118,1,77.3999976379395,2|0,1:3|0:0,0:0:0:0:
226,242,66515,1,10,0:0:0:0:
224,251,66585,1,2,0:0:0:0:
222,260,66656,1,2,0:0:0:0:
5,210,66798,6,0,P|32:270|45:302,1,77.3999976379395,2|0,1:3|0:0,0:0:0:0:
55,357,67081,2,0,P|127:328|105:227,1,193.50000738144,8|0,0:0|0:0,0:0:0:0:
97,216,67364,2,0,P|132:200|200:169,1,86,2|0,1:3|0:0,0:0:0:0:
316,269,67647,5,10,0:0:0:0:
391,219,67788,1,8,0:0:0:0:
409,303,67930,1,2,1:2:0:0:
498,297,68071,1,0,1:2:0:0:
472,378,68213,1,10,0:0:0:0:
265,121,68496,6,0,P|241:247|218:374,2,258.000009841919,6|8|0,1:2|0:0|1:2,0:0:0:0:
253,119,69204,2,0,P|238:195|227:266,1,86,0|0,1:2|0:0,0:0:0:0:
88,118,69487,1,8,0:0:0:0:
165,149,69628,6,0,P|74:169|13:187,1,129,0|0,1:2|0:0,0:0:0:0:
35,187,69911,2,0,P|-12:159|4:90,1,129,8|0,0:0|0:0,0:0:0:0:
9,91,70194,2,0,P|29:45|15:9,1,86,0|0,1:2|1:2,0:0:0:0:
223,90,70477,6,0,P|320:68|457:24,1,206.4,10|0,0:0|0:0,0:0:0:0:
425,49,70760,2,0,P|342:74|264:96,1,86,2|0,1:3|0:0,0:0:0:0:
275,251,71043,6,0,B|223:222|157:260|189:273|141:320|73:296,1,219.300004182816,8|0,0:0|0:0,0:0:0:0:
72,308,71326,2,0,P|129:312|167:289,1,86,2|0,1:3|0:0,0:0:0:0:
356,384,71609,6,0,B|430:340|430:340|378:167,1,232.199992913819,8|0,0:0|0:0,0:0:0:0:
398,199,71892,2,0,B|426:293,1,86,2|0,1:3|0:0,0:0:0:0:
156,165,72175,5,8,0:0:0:0:
74,52,72317,1,8,0:0:0:0:
206,95,72458,1,2,1:2:0:0:
74,138,72599,1,0,1:2:0:0:
156,25,72741,1,10,0:0:0:0:
437,22,73024,6,0,P|405:78|389:123,1,94.600002886963,6|0,1:2|0:0,0:0:0:0:
422,281,73307,2,0,P|478:313|523:329,1,94.600002886963,8|0,0:0|0:0,0:0:0:0:
474,183,73590,5,0,1:2:0:0:
322,212,73732,1,8,0:0:0:0:
474,183,73873,1,0,1:2:0:0:
325,311,74015,5,8,0:0:0:0:
325,311,74086,1,8,0:0:0:0:
325,311,74156,2,0,P|226:326|74:378,2,223.599989764405,0|8|0,1:2|0:0|0:0,0:0:0:0:
212,200,74864,1,8,0:0:0:0:
94,225,75005,6,0,P|63:233|12:251,1,86,2|0,0:0|0:0,0:0:0:0:
12,251,75218,1,0,0:0:0:0:
12,251,75288,2,0,P|111:222|213:199,1,206.399993701172,2|12,1:2|0:0,0:0:0:0:
434,135,75855,5,8,0:0:0:0:
389,143,75925,1,8,0:3:0:0:
352,182,75996,1,4,0:3:0:0:
512,190,76138,1,8,0:0:0:0:
352,182,76279,6,0,B|284:169|256:114|323:98|308:33|261:3|197:11|162:73|224:116,1,309.599990551758,2|0,1:3|0:0,0:0:0:0:
18,111,77553,5,2,1:3:0:0:
18,111,77836,2,0,P|45:170|62:215,1,90.2999972442628,2|0,0:0|0:0,0:0:0:0:
123,152,78119,2,0,P|150:211|167:256,1,90.2999972442628,2|0,0:0|0:0,0:0:0:0:
239,268,78402,1,2,0:0:0:0:
89,384,78543,6,0,P|195:350|231:343,1,120.399996325684,10|0,0:0|0:0,0:0:0:0:
203,348,78897,1,0,0:0:0:0:
203,348,78968,1,2,1:2:0:0:
305,175,79251,1,2,0:0:0:0:
390,164,79392,2,0,P|430:136|453:108,2,60.1999981628419,8|0|0,0:0|0:0|0:0,0:0:0:0:
330,260,79817,1,0,1:2:0:0:
330,260,80100,5,2,0:0:0:0:
319,338,80241,1,2,0:0:0:0:
390,373,80383,1,2,0:0:0:0:
446,316,80524,1,2,0:0:0:0:
409,246,80666,1,2,0:0:0:0:
305,175,80807,6,0,P|291:105|277:33,1,120.399996325684,10|0,0:0|0:0,0:0:0:0:
169,14,81232,2,0,P|183:84|197:156,1,120.399996325684,2|0,1:2|0:0,0:0:0:0:
108,209,81656,2,0,P|94:139|80:67,1,120.399996325684,10|0,0:0|0:0,0:0:0:0:
222,246,82081,1,2,1:2:0:0:
222,246,82364,6,0,P|178:269|157:286,1,60.1999981628419,2|0,0:0|0:0,0:0:0:0:
43,334,82647,2,0,P|104:347|177:365,1,120.399996325684,2|0,0:0|0:0,0:0:0:0:
27,247,83071,6,0,P|76:228|149:183,1,120.399996325684,10|0,0:0|0:0,0:0:0:0:
134,193,83425,1,0,0:0:0:0:
134,193,83496,1,2,1:2:0:0:
246,56,83779,1,2,0:0:0:0:
166,50,83921,2,0,P|122:34|103:16,2,60.1999981628419,8|0|0,0:0|0:0|0:0,0:0:0:0:
278,137,84345,1,2,1:2:0:0:
278,137,84628,5,2,0:0:0:0:
355,95,84770,1,2,0:0:0:0:
410,164,84911,2,0,L|391:238,2,60.1999981628419,2|0|0,0:0|0:0|0:0,0:0:0:0:
357,368,85336,5,4,1:2:0:0:
