osu file format v14

[General]
AudioFilename: Mili - Paper Bouquet.mp3
AudioLeadIn: 0
PreviewTime: 524
Countdown: 0
SampleSet: Soft
StackLeniency: 0.7
Mode: 0
LetterboxInBreaks: 0
WidescreenStoryboard: 1

[Editor]
DistanceSpacing: 0.8
BeatDivisor: 4
GridSize: 32
TimelineZoom: 2.3

[Metadata]
Title:Paper Bouquet (TV Size)
TitleUnicode:Paper Bouquet (TV Size)
Artist:Mili
ArtistUnicode:Mili
Creator:frozz
Version:Adinda's Insane
Source:処刑少女の生きる道
Tags:momocashew cassie wei projectmili yamato kasai hamo project conlang opening op バージンロード Shokei Shoujo no Ikiru Michi The Executioner and Her Way of Life Virgin Road female anime rock english vocal -keqing adinda
BeatmapID:3638250
BeatmapSetID:1775588

[Difficulty]
HPDrainRate:5
CircleSize:4
OverallDifficulty:8
ApproachRate:9.2
SliderMultiplier:1.9
SliderTickRate:1

[Events]
//Background and Video events
0,0,"Mili - Paper Bouquet.jpg",0,0
//Break Periods
//Storyboard Layer 0 (Background)
//Storyboard Layer 1 (Fail)
//Storyboard Layer 2 (Pass)
//Storyboard Layer 3 (Foreground)
//Storyboard Layer 4 (Overlay)
//Storyboard Sound Samples

[TimingPoints]
572,283.018867924528,4,2,1,50,1,0
572,-133.333333333333,4,2,1,50,0,0
8355,-153.846153846153,4,2,1,50,0,0
9628,-100,4,2,1,70,0,0
16421,-111.111111111111,4,2,1,70,0,0
18685,-111.111111111111,4,2,1,40,0,0
19675,-181.818181818181,4,2,1,40,0,0
20524,-153.846153846153,4,2,1,40,0,0
20949,-133.333333333333,4,2,1,60,0,0
23213,-153.846153846153,4,2,1,50,0,0
32270,-133.333333333333,4,2,1,40,0,0
36798,-153.846153846153,4,2,1,35,0,0
41326,-153.846153846153,4,2,1,50,0,0
47553,-117.647058823529,4,2,1,60,0,0
48119,-105.263157894737,4,2,1,70,0,0
49109,-117.647058823529,4,2,1,65,0,0
49817,-117.647058823529,4,2,1,70,0,0
50383,-90.9090909090909,4,2,1,85,0,1
50595,-90.9090909090909,4,2,1,5,0,1
50666,-83.3333333333333,4,2,1,85,0,1
51090,-90.9090909090909,4,2,1,85,0,1
52364,-90.9090909090909,4,2,1,85,0,1
52576,-90.9090909090909,4,2,1,5,0,1
52647,-83.3333333333333,4,2,1,85,0,1
53071,-83.3333333333333,4,2,1,85,0,1
53638,-83.3333333333333,4,2,1,85,0,1
54062,-90.9090909090909,4,2,1,85,0,1
54628,-83.3333333333333,4,2,1,85,0,1
54840,-90.9090909090909,4,2,1,5,0,1
54911,-90.9090909090909,4,2,1,85,0,1
57175,-90.9090909090909,4,2,1,85,0,1
57388,-90.9090909090909,4,2,1,5,0,1
57458,-83.3333333333333,4,2,1,85,0,1
58166,-80,4,2,1,85,0,1
58590,-90.9090909090909,4,2,1,85,0,1
59439,-90.9090909090909,4,2,1,85,0,1
59652,-90.9090909090909,4,2,1,5,0,1
59722,-83.3333333333333,4,2,1,85,0,1
60146,-90.9090909090909,4,2,1,85,0,1
61421,-90.9090909090909,4,2,1,85,0,1
61633,-90.9090909090909,4,2,1,5,0,1
61704,-83.3333333333333,4,2,1,85,0,1
62128,-90.9090909090909,4,2,1,85,0,1
62694,-83.3333333333333,4,2,1,85,0,1
63119,-90.9090909090909,4,2,1,85,0,1
63968,-100,4,2,1,70,0,0
75288,-90.9090909090909,4,2,1,70,0,0
75501,-90.9090909090909,4,2,1,5,0,0
75571,-83.3333333333333,4,2,1,70,0,0
76279,-111.111111111111,4,2,1,70,0,0
77553,-125,4,2,1,50,0,0
88873,-125,4,2,1,5,0,0

[Colours]
Combo1 : 170,196,255
Combo2 : 255,170,170
Combo3 : 255,213,170
Combo4 : 198,170,255

[HitObjects]
148,74,572,6,0,P|82:72|-2:77,1,142.500005435944,0|2,1:2|0:0,0:0:0:0:
112,153,996,1,0,0:0:0:0:
112,153,1138,2,0,B|87:224|87:224|117:299,1,142.500005435944,2|2,0:0|0:0,0:0:0:0:
196,151,1562,2,0,B|270:122|241:97|321:68,1,142.500005435944,2|0,1:2|0:0,0:0:0:0:
456,146,1987,6,0,P|461:122|496:84,1,71.2500027179719,0|0,0:0|0:0,0:0:0:0:
512,208,2270,2,0,P|507:232|472:270,1,71.2500027179719,2|0,0:0|0:0,0:0:0:0:
401,231,2553,1,0,0:0:0:0:
401,231,2694,1,2,1:2:0:0:
495,359,2836,6,0,B|422:380|422:380|349:360,1,142.500005435944,2|2,1:2|0:0,0:0:0:0:
205,325,3260,2,0,P|235:306|284:291,1,71.2500027179719,0|2,0:0|0:0,0:0:0:0:
77,286,3543,2,0,P|107:267|156:252,1,71.2500027179719,2|2,0:0|0:0,0:0:0:0:
140,112,3826,6,0,P|138:156|141:266,1,142.500005435944,2|0,1:2|0:0,0:0:0:0:
252,173,4251,2,0,B|290:179|290:179|331:169,1,71.2500027179719,10|0,0:0|0:0,0:0:0:0:
253,55,4534,1,10,0:0:0:0:
253,55,4675,2,0,B|291:61|291:61|332:51,1,71.2500027179719,2|0,1:2|0:0,0:0:0:0:
322,172,4958,5,0,0:0:0:0:
322,172,5100,2,0,P|340:214|438:223,1,142.500005435944,2|2,1:2|0:0,0:0:0:0:
505,73,5524,1,0,0:0:0:0:
505,73,5666,2,0,P|487:115|389:124,1,142.500005435944,2|2,0:0|0:0,0:0:0:0:
427,229,6090,6,0,B|356:243|356:243|285:229,1,142.500005435944,2|0,1:2|0:0,0:0:0:0:
197,105,6515,2,0,P|188:83|158:43,1,71.2500027179719
21,149,6798,2,0,P|35:116|57:88,1,71.2500027179719,2|8,0:0|0:0,0:0:0:0:
122,152,7081,5,8,0:3:0:0:
122,152,7222,1,4,0:3:0:0:
68,235,7364,2,0,P|66:275|67:379,1,142.500005435944,2|0,1:3|0:0,0:0:0:0:
254,295,7788,2,0,B|283:320|283:320|326:336,1,71.2500027179719,0|0,0:0|0:0,0:0:0:0:
385,384,8071,1,0,0:0:0:0:
385,384,8142,1,0,0:0:0:0:
385,384,8213,1,0,0:0:0:0:
321,244,8355,6,0,B|263:134|368:37|368:37|426:104,1,308.749985866547,2|0,1:3|0:0,0:0:0:0:
150,216,9204,5,2,0:0:0:0:
97,258,9345,1,2,0:0:0:0:
3,208,9487,1,2,0:0:0:0:
69,104,9628,6,0,B|117:81|114:27|114:27|61:12|29:53,1,190,2|2,1:3|0:0,0:0:0:0:
230,123,10053,1,8,0:0:0:0:
230,123,10194,2,0,B|218:78|218:78|230:28,1,95,2|0,0:0|0:0,0:0:0:0:
389,54,10477,5,2,0:0:0:0:
314,89,10619,2,0,P|380:88|418:197,1,190,2|8,1:2|0:0,0:0:0:0:
350,162,11043,1,2,1:2:0:0:
350,162,11185,1,0,0:0:0:0:
340,282,11326,2,0,P|332:328|347:395,1,95,2|8,0:0|0:0,0:0:0:0:
237,321,11609,2,0,P|247:270|239:218,1,95,2|0,0:0|0:0,0:0:0:0:
59,123,11892,5,2,1:3:0:0:
140,148,12034,1,0,0:0:0:0:
108,67,12175,1,2,0:0:0:0:
98,205,12317,1,8,0:0:0:0:
210,55,12458,2,0,B|257:60|257:60|303:53,1,95,0|2,0:0|0:0,0:0:0:0:
462,126,12741,5,2,0:0:0:0:
417,214,12883,1,2,1:3:0:0:
417,214,13024,2,0,B|464:219|464:219|510:212,1,95,0|8,0:0|0:0,0:0:0:0:
259,384,13307,5,2,1:2:0:0:
352,336,13449,1,0,0:0:0:0:
312,270,13590,1,8,0:0:0:0:
322,162,13732,5,2,0:0:0:0:
262,208,13873,1,2,0:0:0:0:
202,160,14015,1,2,0:0:0:0:
270,41,14156,6,0,P|258:97|143:95,1,190,2|2,1:3|0:0,0:0:0:0:
87,214,14581,1,8,0:0:0:0:
87,214,14722,2,0,B|79:264|79:264|89:326,1,95,2|0,0:0|0:0,0:0:0:0:
161,377,15005,5,0,0:0:0:0:
186,272,15147,2,0,B|245:269|297:296|297:296|370:268,1,190,2|8,1:2|0:0,0:0:0:0:
279,146,15571,2,0,P|276:93|279:40,1,95,2|8,1:2|0:0,0:0:0:0:
278,52,15784,1,8,0:0:0:0:
278,52,15855,1,8,0:0:0:0:
440,101,15996,1,8,0:0:0:0:
378,151,16138,1,10,0:3:0:0:
467,104,16279,1,0,0:0:0:0:
384,266,16421,6,0,P|362:319|246:320,1,170.999994781494,6|0,1:2|0:0,0:0:0:0:
97,234,16845,1,8,0:3:0:0:
97,234,16916,1,8,0:3:0:0:
97,234,16987,1,8,0:3:0:0:
0,250,17128,1,4,0:3:0:0:
49,162,17270,1,4,0:3:0:0:
45,325,17411,1,2,1:3:0:0:
256,192,17482,12,2,18685,0:0:0:0:
121,42,19675,6,0,B|71:13|71:13|-3:68|36:149,1,209.000006378174,2|0,0:0|0:0,0:0:0:0:
195,95,20383,1,0,0:0:0:0:
195,95,20524,2,0,B|258:81|258:81|333:95,1,123.499994346619,2|0,0:0|1:2,0:0:0:0:
340,260,20949,6,0,B|329:295|329:295|336:335,1,71.2500027179719,8|0,0:0|1:2,0:0:0:0:
405,219,21232,1,8,0:0:0:0:
405,219,21373,2,0,B|380:191|380:191|342:178,1,71.2500027179719,2|0,1:3|0:0,0:0:0:0:
411,296,21656,2,0,B|446:288|446:288|477:261,1,71.2500027179719,2|0,1:3|0:0,0:0:0:0:
263,179,21939,6,0,P|233:230|132:211,1,142.500005435944,6|8,1:2|0:0,0:0:0:0:
163,133,22364,2,0,P|132:115|94:102,1,71.2500027179719,2|0,1:3|0:0,0:0:0:0:
216,29,22647,1,8,0:0:0:0:
284,94,22788,1,2,1:3:0:0:
284,94,22930,2,0,P|315:76|353:63,1,71.2500027179719,2|0,0:0|0:0,0:0:0:0:
512,93,23213,6,0,P|510:178|514:299,1,185.249991519928,6|0,1:2|0:0,0:0:0:0:
429,147,23779,2,0,P|419:114|339:64,1,123.499994346619,8|0,0:0|0:0,0:0:0:0:
275,180,24204,6,0,P|238:179|200:180,1,61.7499971733095,2|0,1:2|0:0,0:0:0:0:
145,89,24487,1,8,0:0:0:0:
145,89,24628,2,0,P|146:51|145:14,1,61.7499971733095,0|0,1:2|0:0,0:0:0:0:
14,117,24911,2,0,B|6:179|6:179|14:244,1,123.499994346619,10|0,0:0|0:0,0:0:0:0:
103,189,25336,5,2,0:0:0:0:
103,189,25406,1,2,0:0:0:0:
103,189,25477,1,2,1:2:0:0:
154,259,25619,1,0,0:0:0:0:
87,371,25760,1,0,1:2:0:0:
232,262,26043,2,0,P|269:280|308:363,1,123.499994346619,8|0,0:0|0:0,0:0:0:0:
328,215,26468,6,0,P|352:159|404:128,1,123.499994346619,0|8,1:2|0:0,0:0:0:0:
475,262,26892,2,0,B|466:293|466:293|475:335,1,61.7499971733095,2|0,1:2|0:0,0:0:0:0:
406,187,27175,2,0,B|412:158|412:158|403:127,1,61.7499971733095,10|0,0:0|0:0,0:0:0:0:
453,285,27458,2,0,B|444:316|444:316|453:358,1,61.7499971733095,2|0,0:0|0:0,0:0:0:0:
307,349,27741,6,0,P|264:346|177:348,1,123.499994346619,6|0,1:2|1:2,0:0:0:0:
128,197,28307,2,0,P|85:194|-2:196,1,123.499994346619,8|2,0:0|0:0,0:0:0:0:
66,102,28732,6,0,P|43:77|8:-15,1,123.499994346619,2|8,1:2|0:0,0:0:0:0:
135,55,29156,2,0,B|166:61|166:61|205:55,1,61.7499971733095,0|0,1:2|0:0,0:0:0:0:
268,147,29439,2,0,B|299:153|299:153|338:147,1,61.7499971733095,8|2,0:0|0:0,0:0:0:0:
209,291,29722,5,0,0:0:0:0:
209,291,29864,1,0,0:0:0:0:
296,230,30005,2,0,P|247:233|209:296,1,123.499994346619,2|0,1:2|1:2,0:0:0:0:
294,321,30430,1,2,0:0:0:0:
294,321,30571,2,0,P|352:312|381:259,1,123.499994346619,8|0,0:0|0:0,0:0:0:0:
442,157,30996,6,0,P|417:107|393:31,1,123.499994346619,0|8,1:2|0:0,0:0:0:0:
205,17,31421,2,0,B|235:23|235:23|270:15,1,61.7499971733095,0|0,0:0|1:2,0:0:0:0:
265,16,31633,1,0,1:2:0:0:
265,16,31704,1,8,0:0:0:0:
235,120,31845,1,8,0:0:0:0:
123,72,31987,1,0,1:2:0:0:
153,175,32128,1,8,0:0:0:0:
74,135,32270,6,0,B|63:188|7:214|7:214|-2:283|41:321,1,213.750008153916,6|0,1:2|1:2,0:0:0:0:
150,265,32836,2,0,B|278:263|210:353|348:343,1,213.750008153916,8|2,0:0|1:2,0:0:0:0:
337,343,33543,5,8,0:0:0:0:
337,343,33685,2,0,P|371:328|415:315,1,71.2500027179719,0|0,1:2|0:0,0:0:0:0:
377,232,33968,2,0,P|410:221|443:206,1,71.2500027179719,10|0,0:0|0:0,0:0:0:0:
397,125,34251,5,2,0:0:0:0:
397,125,34392,1,2,0:0:0:0:
443,206,34534,2,0,P|443:162|439:61,1,142.500005435944,2|0,1:2|1:2,0:0:0:0:
277,140,34958,2,0,B|236:158|236:158|184:158|140:121,1,142.500005435944,2|2,0:0|0:0,0:0:0:0:
8,124,35383,5,2,0:0:0:0:
63,191,35524,2,0,B|47:119|47:119|66:49,1,142.500005435944,2|8,1:2|0:0,0:0:0:0:
145,125,35949,1,2,1:2:0:0:
232,55,36090,1,2,0:0:0:0:
146,97,36232,1,10,0:3:0:0:
233,27,36373,1,0,0:0:0:0:
457,229,36798,6,0,B|451:262|451:262|455:296,1,61.7499971733095,8|0,0:0|0:0,0:0:0:0:
345,383,37081,2,0,B|348:354|348:354|342:321,1,61.7499971733095,0|2,0:0|0:0,0:0:0:0:
259,357,37364,5,10,3:2:0:0:
259,357,37435,1,0,3:0:0:0:
259,357,37505,1,0,3:0:0:0:
259,357,37576,1,0,3:0:0:0:
259,357,37647,1,0,3:0:0:0:
180,254,37788,1,2,0:0:0:0:
125,323,37930,2,0,B|61:335|61:335|-13:319,1,123.499994346619,8|0,0:0|0:0,0:0:0:0:
66,246,38355,5,2,0:0:0:0:
9,179,38496,1,10,3:2:0:0:
9,179,38567,1,0,3:0:0:0:
9,179,38638,1,0,3:0:0:0:
9,179,38708,1,0,3:0:0:0:
9,179,38779,1,0,3:0:0:0:
142,47,38921,1,2,0:0:0:0:
75,122,39062,6,0,B|181:109|117:54|246:42,1,185.249991519928,10|2,0:0|0:0,0:0:0:0:
336,172,39628,2,0,B|329:206|329:206|338:251,1,61.7499971733095,8|0,0:0|0:0,0:0:0:0:
483,279,39911,5,0,3:0:0:0:
483,279,39982,1,0,3:0:0:0:
483,279,40053,1,0,3:0:0:0:
483,279,40123,1,0,3:0:0:0:
483,279,40194,2,0,P|476:230|394:213,1,123.499994346619,10|8,3:2|0:0,0:0:0:0:
334,376,40619,1,2,0:0:0:0:
334,376,40760,2,0,P|341:327|423:310,1,123.499994346619,8|0,0:3|0:0,0:0:0:0:
155,52,41326,6,0,P|189:42|272:4,1,123.499994346619,6|0,1:2|0:0,0:0:0:0:
114,132,41892,2,0,P|58:104|0:85,1,123.499994346619,8|8,0:3|0:3,0:0:0:0:
53,291,42458,6,0,B|50:324|50:324|55:354,1,61.7499971733095,8|0,0:3|0:0,0:0:0:0:
148,321,42741,2,0,B|145:354|145:354|150:384,1,61.7499971733095,8|0,0:3|0:0,0:0:0:0:
74,208,43024,2,0,B|71:241|71:241|76:271,1,61.7499971733095,8|0,0:3|0:0,0:0:0:0:
162,239,43307,1,4,0:3:0:0:
166,243,43378,1,4,0:3:0:0:
284,111,43520,5,4,0:3:0:0:
284,111,43590,2,0,P|293:73|325:-5,1,123.499994346619,4|8,1:2|0:3,0:0:0:0:
511,187,44156,2,0,P|502:149|470:71,1,123.499994346619,8|8,0:3|0:3,0:0:0:0:
424,306,44722,6,0,B|395:302|395:302|361:306,1,61.7499971733095,8|0,0:3|0:0,0:0:0:0:
306,372,45005,2,0,B|277:368|277:368|243:372,1,61.7499971733095,8|0,0:3|0:0,0:0:0:0:
453,331,45288,2,0,B|424:327|424:327|390:331,1,61.7499971733095,8|8,0:0|0:3,0:0:0:0:
421,213,45571,1,8,0:3:0:0:
421,213,45642,1,4,0:3:0:0:
421,213,45713,1,4,0:3:0:0:
325,70,45855,6,0,P|314:131|194:122,1,185.249991519928,6|0,1:2|0:0,0:0:0:0:
137,52,46421,2,0,B|75:63|75:63|5:54,1,123.499994346619,8|8,0:3|0:3,0:0:0:0:
85,260,46987,2,0,P|83:303|89:404,1,123.499994346619,8|8,0:3|0:3,0:0:0:0:
352,330,47553,6,0,B|309:336|309:336|270:330,1,80.750001540184,8|0,0:3|0:0,0:0:0:0:
432,365,47836,2,0,B|389:371|389:371|350:365,1,80.750001540184,8|0,0:3|0:0,0:0:0:0:
397,232,48119,6,0,B|365:168|428:116|428:116|471:147,1,180.49999518013,14|8,0:0|0:0,0:0:0:0:
288,96,48543,1,8,0:0:0:0:
288,96,48614,1,8,0:0:0:0:
288,96,48685,2,0,L|267:50,1,45.1249987950325,8|8,0:3|0:3,0:0:0:0:
208,111,48826,1,8,0:3:0:0:
208,111,48897,1,8,0:3:0:0:
208,111,48968,2,0,L|187:157,1,45.1249987950325,4|4,0:3|0:3,0:0:0:0:
304,255,49109,6,0,P|238:239|203:384,1,242.250004620552,14|8,0:0|1:2,0:0:0:0:
491,259,49675,1,8,0:0:0:0:
491,259,49746,1,8,0:0:0:0:
491,259,49817,2,8,L|506:300,3,40.375000770092
420,204,50100,2,8,L|405:245,3,40.375000770092
484,132,50383,22,0,B|508:94|492:57|492:57|503:46|503:46|494:91|517:111,1,156.750004783631,6|0,1:2|0:0,0:0:0:0:
415,94,50666,2,0,B|374:112|374:112|320:96|320:96|291:32|219:35,1,227.999993041992,8|0,0:0|1:2,0:0:0:0:
33,117,51090,5,0,1:2:0:0:
125,209,51232,1,8,0:0:0:0:
71,258,51373,2,0,B|58:315|-1:323|-1:323|-29:269|9:226,1,209.000006378174,2|0,1:3|1:2,0:0:0:0:
209,187,51798,2,0,P|219:224|280:276,1,104.500003189087,8|0,0:0|0:0,0:0:0:0:
459,109,52081,5,2,1:2:0:0:
404,162,52222,1,0,1:2:0:0:
359,36,52364,2,0,B|330:23|330:23|293:34|293:34|272:79|222:76,1,156.750004783631,10|0,0:0|0:0,0:0:0:0:
160,17,52647,22,0,B|127:70|149:120|149:120|134:136|134:136|146:73|114:46,1,227.999993041992,2|8,1:3|0:0,0:0:0:0:
48,104,53071,2,0,B|20:104|-4:128|-4:128|4:93|28:84,1,113.999996520996,2|2,0:0|1:2,0:0:0:0:
300,145,53355,5,0,1:2:0:0:
178,237,53496,1,10,0:0:0:0:
222,298,53638,2,0,B|254:321|294:293|294:293|324:290|324:290|344:312|344:312|358:358|409:365,1,227.999993041992,2|0,1:3|1:2,0:0:0:0:
80,287,54062,2,0,B|67:344|8:351|8:351|-20:298|19:255,1,209.000006378174,10|0,0:0|1:2,0:0:0:0:
80,202,54487,5,0,1:2:0:0:
84,39,54628,2,0,B|70:12|70:12|132:47|132:47|120:84|143:114,1,170.999994781494,10|0,0:0|0:0,0:0:0:0:
218,70,54911,6,0,B|254:52|254:52|304:67|304:67|331:126|397:123,2,209.000006378174,2|8|0,1:3|0:0|0:0,0:0:0:0:
311,212,55619,5,0,1:2:0:0:
261,267,55760,1,8,0:0:0:0:
402,273,55902,2,0,P|406:339|292:335,1,209.000006378174,2|0,1:3|1:2,0:0:0:0:
397,123,56326,2,0,B|442:146|442:146|417:95,1,104.500003189087,8|0,0:0|0:0,0:0:0:0:
248,98,56609,6,0,B|189:107|189:107|134:96,1,104.500003189087,2|0,1:2|1:2,0:0:0:0:
150,179,56892,2,0,B|91:170|91:170|36:181,1,104.500003189087,10|0,0:0|0:0,0:0:0:0:
187,372,57175,6,0,B|217:373|240:341|240:341|244:319|244:319|265:286|302:275,1,156.750004783631,2|0,1:2|0:0,0:0:0:0:
298,276,57458,2,0,B|253:332|167:305|167:305|147:266|106:249,1,227.999993041992,12|8,0:0|0:0,0:0:0:0:
106,249,57812,1,8,0:0:0:0:
106,249,57883,1,0,1:2:0:0:
240,49,58024,5,8,0:0:0:0:
174,9,58166,2,0,P|171:84|316:68,1,237.5,6|0,1:2|1:2,0:0:0:0:
512,97,58590,2,0,B|521:46|521:46|506:-8,1,104.500003189087,8|0,0:0|0:0,0:0:0:0:
432,51,58873,1,0,1:2:0:0:
408,246,59015,5,8,0:0:0:0:
424,247,59085,1,8,0:0:0:0:
440,253,59156,1,8,1:2:0:0:
453,263,59227,1,8,0:0:0:0:
465,275,59298,1,8,0:0:0:0:
480,281,59368,1,8,0:0:0:0:
497,282,59439,6,0,B|468:269|468:269|431:280|431:280|410:325|360:322,1,156.750004783631,6|0,1:2|0:0,0:0:0:0:
212,270,59722,2,0,B|193:234|193:234|276:280|276:280|260:329|290:369,1,227.999993041992,8|0,0:0|1:2,0:0:0:0:
10,326,60147,5,0,1:2:0:0:
93,249,60288,1,8,0:0:0:0:
40,191,60430,2,0,B|-12:135|49:45|49:45|91:64|90:110,1,209.000006378174,2|0,1:3|1:2,0:0:0:0:
168,332,60855,2,0,B|140:332|116:356|116:356|124:321|148:312,1,104.500003189087,8|0,0:0|0:0,0:0:0:0:
292,214,61138,5,2,1:2:0:0:
337,266,61279,1,0,1:2:0:0:
444,144,61421,2,0,B|415:157|415:157|378:146|378:146|357:101|307:104,1,156.750004783631,10|0,0:0|0:0,0:0:0:0:
218,43,61704,6,0,B|262:98|349:72|349:72|369:32|410:16,1,227.999993041992,2|8,1:3|0:0,0:0:0:0:
146,143,62128,2,0,B|198:159|198:159|166:112,1,104.500003189087,2|0,0:0|1:2,0:0:0:0:
35,208,62411,5,2,1:2:0:0:
86,259,62553,1,10,0:0:0:0:
17,349,62694,2,0,B|49:325|90:353|90:353|120:356|120:356|140:334|140:334|154:287|205:280,1,227.999993041992,2|0,1:3|1:2,0:0:0:0:
435,248,63119,6,0,B|422:198|422:198|435:147,1,104.500003189087,10|0,0:0|0:0,0:0:0:0:
307,277,63402,2,0,B|355:290|355:290|394:327,1,104.500003189087,2|0,1:2|1:2,0:0:0:0:
336,143,63685,2,0,B|299:178|299:178|248:192,1,104.500003189087,10|0,0:0|0:0,0:0:0:0:
109,25,63968,6,0,P|107:86|-4:89,2,190,6|8|0,1:2|0:0|1:2,0:0:0:0:
286,30,64675,2,0,L|386:-1,1,95,0|0,1:2|0:0,0:0:0:0:
419,77,64958,1,10,0:0:0:0:
419,77,65100,2,0,L|519:108,1,95,2|0,1:2|0:0,0:0:0:0:
353,264,65383,6,0,B|341:310|341:310|348:362,1,95,8|0,0:0|0:0,0:0:0:0:
320,189,65666,2,0,B|308:235|308:235|315:287,1,95,0|0,1:2|1:2,0:0:0:0:
293,118,65949,2,0,B|281:164|281:164|288:216,1,95,10|0,0:0|0:0,0:0:0:0:
174,161,66232,6,0,B|195:90|101:52|101:52|77:110,1,190,2|10,1:3|0:0,0:0:0:0:
84,92,66586,1,2,0:0:0:0:
84,92,66656,1,2,0:0:0:0:
51,234,66798,2,0,P|60:271|98:311,1,95,2|0,1:3|0:0,0:0:0:0:
163,384,67081,2,0,P|172:347|210:307,1,95,8|0,0:0|0:0,0:0:0:0:
325,361,67364,6,0,B|423:385|423:385|509:362,1,190,2|10,1:3|0:0,0:0:0:0:
418,203,67788,1,8,0:0:0:0:
489,167,67930,1,2,1:2:0:0:
446,275,68071,1,0,1:2:0:0:
465,95,68213,1,10,0:0:0:0:
31,83,68496,6,0,B|15:111|15:111|84:73|84:73|71:32|97:0,2,190,6|8|0,1:2|0:0|1:2,0:0:0:0:
169,48,69204,2,0,B|215:60|215:60|271:49,1,95,0|0,1:2|0:0,0:0:0:0:
219,156,69487,1,8,0:0:0:0:
219,156,69628,2,0,B|243:197|243:197|290:228,1,95,0|0,1:2|0:0,0:0:0:0:
480,290,69911,6,0,B|444:272|444:272|395:287|395:287|369:344|304:342,1,190,8|0,0:0|1:2,0:0:0:0:
341,163,70336,1,0,1:2:0:0:
341,163,70477,2,0,P|352:111|334:69,1,95,10|0,0:0|0:0,0:0:0:0:
221,31,70760,6,0,B|209:82|155:89|155:89|129:41|165:1,2,190,2|8|2,1:3|0:0|1:3,0:0:0:0:
145,191,71468,1,0,0:0:0:0:
145,191,71609,2,0,B|96:179|96:179|41:192,1,95,8|0,0:0|0:0,0:0:0:0:
216,340,71892,6,0,P|155:362|106:249,1,190,2|8,1:3|0:0,0:0:0:0:
169,287,72317,1,8,0:0:0:0:
8,369,72458,1,2,1:2:0:0:
185,266,72600,1,0,1:2:0:0:
24,348,72741,1,10,0:0:0:0:
270,151,73024,6,0,B|263:202|263:202|271:253,1,95,6|0,1:2|0:0,0:0:0:0:
320,63,73307,2,0,B|269:56|269:56|218:64,1,95,8|0,0:0|0:0,0:0:0:0:
398,114,73590,2,0,B|405:63|405:63|397:12,1,95,0|8,1:2|0:0,0:0:0:0:
348,202,73873,2,0,B|399:209|399:209|450:201,1,95,0|8,1:2|0:0,0:0:0:0:
441,202,74086,1,8,0:0:0:0:
441,202,74156,6,0,B|406:276|478:332|478:332|514:295,1,190,0|8,1:2|0:0,0:0:0:0:
246,370,74581,2,0,L|216:279,1,95,0|0,0:0|0:0,0:0:0:0:
128,234,74864,2,0,L|98:325,1,95,8|2,0:0|0:0,0:0:0:0:
88,145,75147,5,0,0:0:0:0:
88,145,75218,1,0,0:0:0:0:
88,145,75288,2,0,B|64:107|80:70|80:70|69:59|69:59|78:104|55:124,1,156.750004783631,2|0,1:2|0:0,0:0:0:0:
166,102,75571,6,0,B|208:111|250:69|250:69|258:34|258:34|313:-7|365:2,1,227.999993041992,12|8,0:0|0:0,0:0:0:0:
347,0,75925,1,8,0:3:0:0:
347,0,75996,1,4,0:3:0:0:
386,178,76138,1,8,0:0:0:0:
512,133,76279,2,0,B|493:97|449:88|449:88|388:179|445:255,1,256.499992172241,2|0,1:3|0:0,0:0:0:0:
98,173,77553,6,0,B|62:198|62:198|-2:180|0:108,1,152,2|2,1:3|0:0,0:0:0:0:
189,132,77977,1,0,0:0:0:0:
189,132,78119,2,0,B|180:172|180:172|188:214,1,76,2|0,0:0|0:0,0:0:0:0:
265,327,78402,5,2,0:0:0:0:
329,259,78543,2,0,P|381:267|406:362,1,152,10|0,0:0|0:0,0:0:0:0:
424,191,78968,2,0,P|444:177|498:160,1,76,2|0,1:2|0:0,0:0:0:0:
425,80,79251,2,0,P|388:69|356:49,1,76,2|8,0:0|0:0,0:0:0:0:
481,6,79534,5,0,0:0:0:0:
481,6,79675,1,0,0:0:0:0:
356,49,79817,2,0,B|283:72|283:72|211:46,1,152,0|2,1:2|0:0,0:0:0:0:
21,115,80241,5,2,0:0:0:0:
90,149,80383,1,2,0:0:0:0:
18,195,80524,1,2,0:0:0:0:
87,229,80666,1,2,0:0:0:0:
192,352,80807,6,0,P|190:302|193:191,1,152,10|0,0:0|0:0,0:0:0:0:
292,281,81232,2,0,B|332:269|332:269|357:242,1,76,2|0,1:2|0:0,0:0:0:0:
296,169,81515,2,0,B|319:143|319:143|359:131,1,76,0|10,0:0|0:0,0:0:0:0:
512,237,81798,5,0,0:0:0:0:
512,237,81939,1,0,0:0:0:0:
512,136,82081,2,0,B|473:117|473:117|414:155|439:216,1,152,2|2,1:2|0:0,0:0:0:0:
512,358,82505,1,0,0:0:0:0:
512,358,82647,2,0,B|436:370|436:370|358:355,1,152,2|0,0:0|0:0,0:0:0:0:
233,280,83071,6,0,B|221:345|146:339|146:339|122:298,1,152,10|0,0:0|0:0,0:0:0:0:
109,174,83496,2,0,P|94:158|37:129,1,76,2|0,1:2|0:0,0:0:0:0:
93,43,83779,2,0,P|78:27|21:-2,1,76,2|8,0:0|0:0,0:0:0:0:
175,2,84062,5,0,0:0:0:0:
175,2,84204,1,0,0:0:0:0:
166,90,84345,2,0,P|215:88|326:89,1,152,2|2,1:2|0:0,0:0:0:0:
446,236,84770,1,2,0:0:0:0:
356,256,84911,1,2,0:0:0:0:
396,170,85053,1,0,0:0:0:0:
396,170,85123,1,0,0:0:0:0:
396,170,85194,1,0,0:0:0:0:
410,329,85336,1,4,1:2:0:0:
256,192,85406,12,0,88873,0:0:0:0:
