osu file format v14

[General]
AudioFilename: audio.mp3
AudioLeadIn: 0
PreviewTime: 49817
Countdown: 0
SampleSet: Soft
StackLeniency: 0.7
Mode: 3
LetterboxInBreaks: 0
SpecialStyle: 0
WidescreenStoryboard: 1

[Editor]
Bookmarks: 36798
DistanceSpacing: 0.7
BeatDivisor: 5
GridSize: 32
TimelineZoom: 3.100005

[Metadata]
Title:Paper Bouquet (TV Size)
TitleUnicode:Paper Bouquet (TV Size)
Artist:Mili
ArtistUnicode:Mili
Creator:Polarin
Version:kot's Hyper
Source:処刑少女の生きる道
Tags:ProjectMili Saihate Records さいはてレコーズ Cassie Wei momocashew 葛西大和 Kasai Yamato HAMO 三友行人 Mitomo Yukihito 吉田翔人 Yoshida Shouto 吉田篤貴 Atsuki 米田聖 Yoneda Satoshi 柴晃浩 Shiba Akihiro conlang opening op Shokei Shoujo no Ikiru Michi バージンロード Virgin Road english The Executioner and Her Way of Life anime アニメ other rock jrock j-rock pop j-pop jpop vocal dump stream dumpstream speed mukotsuu kot Paraxia olivertruck TEMAS lgbt+ lgbtq+ lgbtqia+ pride
BeatmapID:3909916
BeatmapSetID:1841442

[Difficulty]
HPDrainRate:7.2
CircleSize:4
OverallDifficulty:7.2
ApproachRate:5
SliderMultiplier:1.4
SliderTickRate:1

[Events]
//Background and Video events
0,0,"executioner.jpg",0,0
//Break Periods
//Storyboard Layer 0 (Background)
//Storyboard Layer 1 (Fail)
//Storyboard Layer 2 (Pass)
//Storyboard Layer 3 (Foreground)
//Storyboard Layer 4 (Overlay)
//Storyboard Sound Samples

[TimingPoints]
572,283.018867924528,4,2,1,35,1,0
50383,-100,4,2,1,35,0,1
63968,-100,4,2,1,35,0,0

[HitObjects]
320,192,572,5,0,0:0:0:0:
448,192,572,1,0,0:0:0:0:
192,192,713,1,0,0:0:0:0:
64,192,855,1,0,0:0:0:0:
192,192,996,1,0,0:0:0:0:
448,192,1138,1,0,0:0:0:0:
192,192,1279,1,0,0:0:0:0:
64,192,1421,1,0,0:0:0:0:
320,192,1562,1,0,0:0:0:0:
448,192,1562,1,0,0:0:0:0:
192,192,1704,1,0,0:0:0:0:
320,192,1845,1,0,0:0:0:0:
64,192,1987,1,0,0:0:0:0:
448,192,2128,1,0,0:0:0:0:
64,192,2270,1,0,0:0:0:0:
192,192,2411,1,0,0:0:0:0:
320,192,2553,1,0,0:0:0:0:
64,192,2694,1,0,0:0:0:0:
448,192,2836,1,0,0:0:0:0:
320,192,2836,1,0,0:0:0:0:
320,192,3119,1,0,0:0:0:0:
448,192,3260,1,0,0:0:0:0:
192,192,3402,1,0,0:0:0:0:
320,192,3543,1,0,0:0:0:0:
64,192,3685,1,0,0:0:0:0:
192,192,3826,1,0,0:0:0:0:
448,192,3826,1,0,0:0:0:0:
320,192,4109,1,0,0:0:0:0:
192,192,4251,1,0,0:0:0:0:
192,192,4534,1,0,0:0:0:0:
64,192,4675,128,0,4817:0:0:0:0:
448,192,4675,1,0,0:0:0:0:
320,192,5100,5,0,0:0:0:0:
448,192,5100,1,0,0:0:0:0:
192,192,5241,1,0,0:0:0:0:
64,192,5383,1,0,0:0:0:0:
192,192,5524,1,0,0:0:0:0:
448,192,5666,1,0,0:0:0:0:
192,192,5807,1,0,0:0:0:0:
64,192,5949,1,0,0:0:0:0:
320,192,6090,1,0,0:0:0:0:
448,192,6090,1,0,0:0:0:0:
192,192,6232,1,0,0:0:0:0:
320,192,6373,1,0,0:0:0:0:
64,192,6515,1,0,0:0:0:0:
448,192,6656,1,0,0:0:0:0:
64,192,6798,1,0,0:0:0:0:
192,192,6939,1,0,0:0:0:0:
320,192,7081,1,0,0:0:0:0:
64,192,7222,1,0,0:0:0:0:
448,192,7364,1,0,0:0:0:0:
320,192,7364,1,0,0:0:0:0:
192,192,7505,1,0,0:0:0:0:
64,192,7647,1,0,0:0:0:0:
192,192,7788,1,0,0:0:0:0:
448,192,7930,1,0,0:0:0:0:
320,192,8071,1,0,0:0:0:0:
192,192,8213,1,0,0:0:0:0:
448,192,8355,1,0,0:0:0:0:
64,192,8355,1,0,0:0:0:0:
320,192,8779,1,0,0:0:0:0:
192,192,9062,1,0,0:0:0:0:
320,192,9204,128,0,9345:0:0:0:0:
64,192,9345,1,0,0:0:0:0:
448,192,9487,1,0,0:0:0:0:
192,192,9628,128,0,9741:0:0:0:0:
320,192,9685,128,0,9798:0:0:0:0:
64,192,9770,1,0,0:0:0:0:
448,192,9911,1,0,0:0:0:0:
192,192,10053,1,0,0:0:0:0:
320,192,10194,1,0,0:0:0:0:
64,192,10336,1,0,0:0:0:0:
192,192,10477,1,0,0:0:0:0:
320,192,10619,128,0,10732:0:0:0:0:
448,192,10676,128,0,10789:0:0:0:0:
64,192,10760,1,0,0:0:0:0:
320,192,10902,1,0,0:0:0:0:
192,192,11043,1,0,0:0:0:0:
448,192,11185,1,0,0:0:0:0:
192,192,11326,128,0,11609:0:0:0:0:
320,192,11609,128,0,11892:0:0:0:0:
64,192,11892,128,0,12005:0:0:0:0:
448,192,11949,128,0,12062:0:0:0:0:
192,192,12034,1,0,0:0:0:0:
320,192,12175,1,0,0:0:0:0:
192,192,12317,1,0,0:0:0:0:
448,192,12458,1,0,0:0:0:0:
64,192,12600,1,0,0:0:0:0:
320,192,12741,1,0,0:0:0:0:
448,192,12883,128,0,12997:0:0:0:0:
192,192,12940,128,0,13053:0:0:0:0:
64,192,13024,1,0,0:0:0:0:
320,192,13166,1,0,0:0:0:0:
64,192,13307,1,0,0:0:0:0:
448,192,13449,1,0,0:0:0:0:
192,192,13590,1,0,0:0:0:0:
320,192,13732,1,0,0:0:0:0:
192,192,13873,1,0,0:0:0:0:
64,192,14015,1,0,0:0:0:0:
320,192,14156,128,0,14864:0:0:0:0:
448,192,14213,128,0,14383:0:0:0:0:
192,192,14439,1,0,0:0:0:0:
64,192,14581,1,0,0:0:0:0:
192,192,14722,1,0,0:0:0:0:
448,192,14864,1,0,0:0:0:0:
192,192,15005,1,0,0:0:0:0:
64,192,15147,128,0,15571:0:0:0:0:
320,192,15204,128,0,15374:0:0:0:0:
192,192,15288,1,0,0:0:0:0:
448,192,15430,1,0,0:0:0:0:
192,192,15571,128,0,15855:0:0:0:0:
64,192,15713,1,0,0:0:0:0:
320,192,15784,1,0,0:0:0:0:
448,192,15855,1,0,0:0:0:0:
192,192,15996,1,0,0:0:0:0:
320,192,16138,128,0,16421:0:0:0:0:
64,192,16138,1,0,0:0:0:0:
448,192,16421,128,0,17270:0:0:0:0:
192,192,16421,128,0,17270:0:0:0:0:
320,192,17411,128,0,18119:0:0:0:0:
64,192,17411,128,0,18119:0:0:0:0:
192,192,18119,1,0,0:0:0:0:
448,192,18260,1,0,0:0:0:0:
64,192,18402,1,0,0:0:0:0:
192,192,18543,1,0,0:0:0:0:
448,192,18685,1,0,0:0:0:0:
320,192,18779,1,0,0:0:0:0:
192,192,18873,1,0,0:0:0:0:
64,192,18968,1,0,0:0:0:0:
320,192,19062,1,0,0:0:0:0:
192,192,19156,1,0,0:0:0:0:
448,192,19251,1,0,0:0:0:0:
64,192,19392,1,0,0:0:0:0:
320,192,19534,1,0,0:0:0:0:
192,192,19675,1,0,0:0:0:0:
320,192,19746,1,0,0:0:0:0:
448,192,19817,1,0,0:0:0:0:
192,192,19911,1,0,0:0:0:0:
320,192,20005,1,0,0:0:0:0:
64,192,20100,1,0,0:0:0:0:
192,192,20194,1,0,0:0:0:0:
448,192,20288,1,0,0:0:0:0:
320,192,20383,1,0,0:0:0:0:
192,192,20454,1,0,0:0:0:0:
448,192,20524,1,0,0:0:0:0:
64,192,20595,1,0,0:0:0:0:
192,192,20666,1,0,0:0:0:0:
448,192,20760,1,0,0:0:0:0:
320,192,20855,1,0,0:0:0:0:
192,192,20949,1,0,0:0:0:0:
64,192,20949,1,0,0:0:0:0:
320,192,21090,1,0,0:0:0:0:
192,192,21232,1,0,0:0:0:0:
448,192,21232,1,0,0:0:0:0:
64,192,21373,128,0,21515:0:0:0:0:
320,192,21373,1,0,0:0:0:0:
448,192,21656,128,0,21798:0:0:0:0:
320,192,21656,1,0,0:0:0:0:
320,192,21939,128,0,22222:0:0:0:0:
192,192,21939,1,0,0:0:0:0:
64,192,22222,1,0,0:0:0:0:
448,192,22364,1,0,0:0:0:0:
192,192,22505,128,0,22788:0:0:0:0:
64,192,22505,1,0,0:0:0:0:
448,192,22647,1,0,0:0:0:0:
320,192,22788,1,0,0:0:0:0:
64,192,22930,128,0,23071:0:0:0:0:
192,192,23071,1,0,0:0:0:0:
320,192,23213,1,0,0:0:0:0:
448,192,23307,1,0,0:0:0:0:
192,192,23402,1,0,0:0:0:0:
320,192,23496,1,0,0:0:0:0:
448,192,23590,1,0,0:0:0:0:
64,192,23685,1,0,0:0:0:0:
192,192,23779,1,0,0:0:0:0:
320,192,23921,1,0,0:0:0:0:
64,192,24062,1,0,0:0:0:0:
320,192,24204,1,0,0:0:0:0:
192,192,24274,1,0,0:0:0:0:
448,192,24345,1,0,0:0:0:0:
320,192,24439,1,0,0:0:0:0:
192,192,24534,1,0,0:0:0:0:
64,192,24628,1,0,0:0:0:0:
448,192,24722,1,0,0:0:0:0:
320,192,24817,1,0,0:0:0:0:
64,192,24911,1,0,0:0:0:0:
192,192,24982,1,0,0:0:0:0:
320,192,25053,1,0,0:0:0:0:
448,192,25123,1,0,0:0:0:0:
64,192,25194,1,0,0:0:0:0:
320,192,25336,1,0,0:0:0:0:
192,192,25477,1,0,0:0:0:0:
64,192,25548,1,0,0:0:0:0:
320,192,25689,1,0,0:0:0:0:
192,192,25760,1,0,0:0:0:0:
64,192,25902,1,0,0:0:0:0:
320,192,25972,1,0,0:0:0:0:
448,192,26043,1,0,0:0:0:0:
192,192,26138,1,0,0:0:0:0:
320,192,26232,1,0,0:0:0:0:
64,192,26326,1,0,0:0:0:0:
320,192,26468,1,0,0:0:0:0:
448,192,26609,1,0,0:0:0:0:
64,192,26751,1,0,0:0:0:0:
320,192,26892,1,0,0:0:0:0:
192,192,26987,1,0,0:0:0:0:
64,192,27081,1,0,0:0:0:0:
448,192,27175,1,0,0:0:0:0:
320,192,27270,1,0,0:0:0:0:
64,192,27364,1,0,0:0:0:0:
448,192,27458,1,0,0:0:0:0:
192,192,27553,1,0,0:0:0:0:
320,192,27647,1,0,0:0:0:0:
64,192,27741,1,0,0:0:0:0:
448,192,27812,1,0,0:0:0:0:
192,192,27883,1,0,0:0:0:0:
320,192,27954,1,0,0:0:0:0:
448,192,28024,1,0,0:0:0:0:
64,192,28119,1,0,0:0:0:0:
192,192,28213,1,0,0:0:0:0:
320,192,28307,1,0,0:0:0:0:
192,192,28590,1,0,0:0:0:0:
448,192,28732,1,0,0:0:0:0:
320,192,28803,1,0,0:0:0:0:
64,192,29015,1,0,0:0:0:0:
192,192,29086,1,0,0:0:0:0:
320,192,29156,1,0,0:0:0:0:
448,192,29298,1,0,0:0:0:0:
320,192,29369,1,0,0:0:0:0:
192,192,29439,1,0,0:0:0:0:
64,192,29510,1,0,0:0:0:0:
320,192,29581,1,0,0:0:0:0:
448,192,29722,1,0,0:0:0:0:
192,192,29793,1,0,0:0:0:0:
64,192,29864,1,0,0:0:0:0:
320,192,30005,1,0,0:0:0:0:
448,192,30076,1,0,0:0:0:0:
192,192,30147,1,0,0:0:0:0:
320,192,30218,1,0,0:0:0:0:
64,192,30288,1,0,0:0:0:0:
192,192,30430,1,0,0:0:0:0:
64,192,30501,1,0,0:0:0:0:
320,192,30571,1,0,0:0:0:0:
192,192,30642,1,0,0:0:0:0:
448,192,30713,1,0,0:0:0:0:
320,192,30784,1,0,0:0:0:0:
192,192,30855,1,0,0:0:0:0:
448,192,30949,1,0,0:0:0:0:
320,192,31043,1,0,0:0:0:0:
64,192,31138,1,0,0:0:0:0:
448,192,31279,1,0,0:0:0:0:
192,192,31421,1,0,0:0:0:0:
448,192,31562,1,0,0:0:0:0:
320,192,31704,1,0,0:0:0:0:
192,192,31845,1,0,0:0:0:0:
64,192,31987,1,0,0:0:0:0:
192,192,32128,1,0,0:0:0:0:
448,192,32270,1,0,0:0:0:0:
320,192,32364,1,0,0:0:0:0:
192,192,32458,1,0,0:0:0:0:
64,192,32553,1,0,0:0:0:0:
320,192,32647,1,0,0:0:0:0:
192,192,32741,1,0,0:0:0:0:
448,192,32836,1,0,0:0:0:0:
320,192,32930,1,0,0:0:0:0:
64,192,33024,1,0,0:0:0:0:
192,192,33119,1,0,0:0:0:0:
320,192,33260,1,0,0:0:0:0:
192,192,33331,1,0,0:0:0:0:
64,192,33402,1,0,0:0:0:0:
448,192,33496,1,0,0:0:0:0:
320,192,33590,1,0,0:0:0:0:
192,192,33685,1,0,0:0:0:0:
64,192,33779,1,0,0:0:0:0:
320,192,33873,1,0,0:0:0:0:
448,192,33968,1,0,0:0:0:0:
192,192,34062,1,0,0:0:0:0:
320,192,34156,1,0,0:0:0:0:
64,192,34251,1,0,0:0:0:0:
448,192,34392,1,0,0:0:0:0:
192,192,34534,1,0,0:0:0:0:
64,192,34605,1,0,0:0:0:0:
320,192,34675,1,0,0:0:0:0:
448,192,34746,1,0,0:0:0:0:
192,192,34817,1,0,0:0:0:0:
320,192,34911,1,0,0:0:0:0:
64,192,35005,1,0,0:0:0:0:
448,192,35100,1,0,0:0:0:0:
192,192,35383,1,0,0:0:0:0:
320,192,35454,1,0,0:0:0:0:
448,192,35524,1,0,0:0:0:0:
192,192,35666,1,0,0:0:0:0:
64,192,35760,1,0,0:0:0:0:
320,192,35855,1,0,0:0:0:0:
448,192,35949,1,0,0:0:0:0:
192,192,36043,1,0,0:0:0:0:
320,192,36138,1,0,0:0:0:0:
64,192,36232,128,0,36656:0:0:0:0:
192,192,36326,1,0,0:0:0:0:
320,192,36421,1,0,0:0:0:0:
448,192,36515,1,0,0:0:0:0:
320,192,36798,1,0,0:0:0:0:
192,192,36869,1,0,0:0:0:0:
448,192,36939,128,0,37081:0:0:0:0:
320,192,37222,1,0,0:0:0:0:
64,192,37364,1,0,0:0:0:0:
448,192,37435,1,0,0:0:0:0:
192,192,37505,128,0,37647:0:0:0:0:
320,192,37788,1,0,0:0:0:0:
64,192,37930,1,0,0:0:0:0:
448,192,38001,1,0,0:0:0:0:
320,192,38071,128,0,38213:0:0:0:0:
192,192,38355,1,0,0:0:0:0:
320,192,38496,1,0,0:0:0:0:
64,192,38567,1,0,0:0:0:0:
448,192,38638,128,0,38779:0:0:0:0:
192,192,38921,1,0,0:0:0:0:
64,192,39062,1,0,0:0:0:0:
320,192,39133,1,0,0:0:0:0:
192,192,39204,128,0,39298:0:0:0:0:
448,192,39274,128,0,39416:0:0:0:0:
320,192,39487,1,0,0:0:0:0:
192,192,39628,1,0,0:0:0:0:
448,192,39699,1,0,0:0:0:0:
64,192,39770,128,0,39888:0:0:0:0:
320,192,39840,128,0,39982:0:0:0:0:
448,192,40053,1,0,0:0:0:0:
192,192,40194,1,0,0:0:0:0:
320,192,40265,1,0,0:0:0:0:
64,192,40336,128,0,40477:0:0:0:0:
192,192,40406,128,0,40548:0:0:0:0:
320,192,40619,1,0,0:0:0:0:
192,192,40760,1,0,0:0:0:0:
448,192,40831,1,0,0:0:0:0:
320,192,40902,128,0,41067:0:0:0:0:
64,192,40972,128,0,41185:0:0:0:0:
448,192,41326,1,0,0:0:0:0:
320,192,41421,1,0,0:0:0:0:
192,192,41515,1,0,0:0:0:0:
64,192,41609,1,0,0:0:0:0:
448,192,41704,1,0,0:0:0:0:
320,192,41798,1,0,0:0:0:0:
192,192,41892,1,0,0:0:0:0:
64,192,41987,1,0,0:0:0:0:
448,192,42081,1,0,0:0:0:0:
192,192,42175,1,0,0:0:0:0:
320,192,42246,1,0,0:0:0:0:
448,192,42317,1,0,0:0:0:0:
192,192,42388,1,0,0:0:0:0:
64,192,42458,1,0,0:0:0:0:
320,192,42553,1,0,0:0:0:0:
192,192,42647,1,0,0:0:0:0:
448,192,42741,1,0,0:0:0:0:
64,192,43024,1,0,0:0:0:0:
320,192,43095,1,0,0:0:0:0:
192,192,43213,1,0,0:0:0:0:
448,192,43307,1,0,0:0:0:0:
64,192,43378,1,0,0:0:0:0:
320,192,43496,1,0,0:0:0:0:
192,192,43590,1,0,0:0:0:0:
448,192,43685,1,0,0:0:0:0:
320,192,43779,1,0,0:0:0:0:
64,192,43873,1,0,0:0:0:0:
448,192,43944,1,0,0:0:0:0:
192,192,44015,1,0,0:0:0:0:
64,192,44086,1,0,0:0:0:0:
320,192,44156,1,0,0:0:0:0:
192,192,44251,1,0,0:0:0:0:
448,192,44345,1,0,0:0:0:0:
64,192,44439,1,0,0:0:0:0:
192,192,44510,1,0,0:0:0:0:
320,192,44581,1,0,0:0:0:0:
448,192,44652,1,0,0:0:0:0:
64,192,44722,1,0,0:0:0:0:
192,192,44817,1,0,0:0:0:0:
320,192,44911,1,0,0:0:0:0:
64,192,45005,1,0,0:0:0:0:
448,192,45147,1,0,0:0:0:0:
320,192,45288,1,0,0:0:0:0:
448,192,45359,1,0,0:0:0:0:
64,192,45430,1,0,0:0:0:0:
192,192,45501,1,0,0:0:0:0:
320,192,45571,1,0,0:0:0:0:
448,192,45666,1,0,0:0:0:0:
192,192,45760,1,0,0:0:0:0:
64,192,45855,1,0,0:0:0:0:
448,192,45925,1,0,0:0:0:0:
192,192,45996,1,0,0:0:0:0:
320,192,46067,1,0,0:0:0:0:
64,192,46138,1,0,0:0:0:0:
192,192,46208,1,0,0:0:0:0:
448,192,46279,1,0,0:0:0:0:
64,192,46350,1,0,0:0:0:0:
320,192,46421,1,0,0:0:0:0:
320,192,46704,1,0,0:0:0:0:
192,192,46798,1,0,0:0:0:0:
64,192,46892,1,0,0:0:0:0:
448,192,46987,1,0,0:0:0:0:
192,192,47057,1,0,0:0:0:0:
320,192,47128,1,0,0:0:0:0:
64,192,47270,1,0,0:0:0:0:
320,192,47553,1,0,0:0:0:0:
192,192,47647,1,0,0:0:0:0:
64,192,47741,1,0,0:0:0:0:
448,192,47836,1,0,0:0:0:0:
320,192,47930,1,0,0:0:0:0:
192,192,48024,1,0,0:0:0:0:
64,192,48119,128,0,48685:0:0:0:0:
448,192,48119,128,0,48685:0:0:0:0:
320,192,48402,1,0,0:0:0:0:
192,192,48543,1,0,0:0:0:0:
320,192,48685,1,0,0:0:0:0:
192,192,48755,1,0,0:0:0:0:
64,192,48826,1,0,0:0:0:0:
320,192,48897,1,0,0:0:0:0:
448,192,48968,1,0,0:0:0:0:
320,192,49109,128,0,49534:0:0:0:0:
192,192,49109,128,0,49534:0:0:0:0:
64,192,49534,1,0,0:0:0:0:
320,192,49817,1,0,0:0:0:0:
192,192,49888,1,0,0:0:0:0:
64,192,49958,1,0,0:0:0:0:
448,192,50005,1,0,0:0:0:0:
192,192,50100,1,0,0:0:0:0:
320,192,50171,1,0,0:0:0:0:
448,192,50241,1,0,0:0:0:0:
64,192,50288,1,0,0:0:0:0:
320,192,50383,1,0,0:0:0:0:
192,192,50454,1,0,0:0:0:0:
448,192,50524,1,0,0:0:0:0:
64,192,50595,1,0,0:0:0:0:
320,192,50666,1,0,0:0:0:0:
448,192,50737,1,0,0:0:0:0:
192,192,50807,1,0,0:0:0:0:
320,192,50878,1,0,0:0:0:0:
448,192,50949,1,0,0:0:0:0:
64,192,51020,1,0,0:0:0:0:
192,192,51090,1,0,0:0:0:0:
320,192,51232,1,0,0:0:0:0:
192,192,51303,1,0,0:0:0:0:
64,192,51373,1,0,0:0:0:0:
448,192,51444,1,0,0:0:0:0:
192,192,51515,1,0,0:0:0:0:
320,192,51609,1,0,0:0:0:0:
64,192,51704,1,0,0:0:0:0:
192,192,51798,1,0,0:0:0:0:
320,192,52081,1,0,0:0:0:0:
448,192,52152,1,0,0:0:0:0:
192,192,52222,1,0,0:0:0:0:
320,192,52270,1,0,0:0:0:0:
64,192,52364,1,0,0:0:0:0:
448,192,52435,1,0,0:0:0:0:
320,192,52505,1,0,0:0:0:0:
192,192,52553,1,0,0:0:0:0:
64,192,52647,1,0,0:0:0:0:
192,192,52718,1,0,0:0:0:0:
320,192,52788,1,0,0:0:0:0:
448,192,52859,1,0,0:0:0:0:
192,192,52930,1,0,0:0:0:0:
64,192,53001,1,0,0:0:0:0:
448,192,53071,1,0,0:0:0:0:
320,192,53142,1,0,0:0:0:0:
192,192,53213,1,0,0:0:0:0:
64,192,53284,1,0,0:0:0:0:
320,192,53355,1,0,0:0:0:0:
448,192,53425,1,0,0:0:0:0:
64,192,53496,1,0,0:0:0:0:
192,192,53590,1,0,0:0:0:0:
320,192,53685,1,0,0:0:0:0:
64,192,53779,1,0,0:0:0:0:
448,192,53873,1,0,0:0:0:0:
192,192,53921,1,0,0:0:0:0:
448,192,54062,1,0,0:0:0:0:
320,192,54156,1,0,0:0:0:0:
192,192,54251,1,0,0:0:0:0:
64,192,54345,1,0,0:0:0:0:
320,192,54439,1,0,0:0:0:0:
192,192,54534,1,0,0:0:0:0:
448,192,54628,1,0,0:0:0:0:
64,192,54699,1,0,0:0:0:0:
192,192,54770,1,0,0:0:0:0:
64,192,54911,1,0,0:0:0:0:
448,192,54982,1,0,0:0:0:0:
320,192,55053,1,0,0:0:0:0:
192,192,55123,1,0,0:0:0:0:
64,192,55194,1,0,0:0:0:0:
320,192,55265,1,0,0:0:0:0:
192,192,55336,1,0,0:0:0:0:
448,192,55406,1,0,0:0:0:0:
64,192,55477,1,0,0:0:0:0:
320,192,55548,1,0,0:0:0:0:
448,192,55619,1,0,0:0:0:0:
192,192,55689,1,0,0:0:0:0:
320,192,55760,1,0,0:0:0:0:
64,192,55855,1,0,0:0:0:0:
448,192,55949,1,0,0:0:0:0:
192,192,56043,1,0,0:0:0:0:
64,192,56138,1,0,0:0:0:0:
320,192,56232,1,0,0:0:0:0:
192,192,56326,1,0,0:0:0:0:
320,192,56609,1,0,0:0:0:0:
64,192,56666,1,0,0:0:0:0:
448,192,56751,1,0,0:0:0:0:
192,192,56892,1,0,0:0:0:0:
320,192,56949,1,0,0:0:0:0:
64,192,57034,1,0,0:0:0:0:
448,192,57175,1,0,0:0:0:0:
320,192,57246,1,0,0:0:0:0:
192,192,57317,1,0,0:0:0:0:
64,192,57388,1,0,0:0:0:0:
448,192,57458,1,0,0:0:0:0:
320,192,57529,1,0,0:0:0:0:
192,192,57600,1,0,0:0:0:0:
64,192,57671,1,0,0:0:0:0:
448,192,57741,1,0,0:0:0:0:
192,192,57812,1,0,0:0:0:0:
320,192,57883,1,0,0:0:0:0:
448,192,57954,1,0,0:0:0:0:
192,192,58024,1,0,0:0:0:0:
64,192,58166,128,0,58449:0:0:0:0:
320,192,58166,128,0,58449:0:0:0:0:
192,192,58449,1,0,0:0:0:0:
448,192,58590,1,0,0:0:0:0:
192,192,58873,1,0,0:0:0:0:
64,192,58930,1,0,0:0:0:0:
320,192,59015,1,0,0:0:0:0:
192,192,59156,1,0,0:0:0:0:
448,192,59213,1,0,0:0:0:0:
320,192,59298,1,0,0:0:0:0:
64,192,59439,1,0,0:0:0:0:
192,192,59510,1,0,0:0:0:0:
320,192,59581,1,0,0:0:0:0:
448,192,59652,1,0,0:0:0:0:
192,192,59722,1,0,0:0:0:0:
320,192,59793,1,0,0:0:0:0:
64,192,59864,1,0,0:0:0:0:
448,192,59935,1,0,0:0:0:0:
192,192,60005,1,0,0:0:0:0:
64,192,60076,1,0,0:0:0:0:
320,192,60147,1,0,0:0:0:0:
192,192,60218,1,0,0:0:0:0:
64,192,60288,1,0,0:0:0:0:
448,192,60359,1,0,0:0:0:0:
192,192,60430,1,0,0:0:0:0:
320,192,60501,1,0,0:0:0:0:
448,192,60571,1,0,0:0:0:0:
192,192,60666,1,0,0:0:0:0:
320,192,60760,1,0,0:0:0:0:
64,192,60855,1,0,0:0:0:0:
448,192,61138,1,0,0:0:0:0:
320,192,61194,1,0,0:0:0:0:
192,192,61279,1,0,0:0:0:0:
64,192,61421,1,0,0:0:0:0:
448,192,61477,1,0,0:0:0:0:
192,192,61562,1,0,0:0:0:0:
320,192,61704,1,0,0:0:0:0:
192,192,61760,1,0,0:0:0:0:
64,192,61845,1,0,0:0:0:0:
320,192,61916,1,0,0:0:0:0:
192,192,61987,1,0,0:0:0:0:
64,192,62128,1,0,0:0:0:0:
320,192,62199,1,0,0:0:0:0:
448,192,62270,1,0,0:0:0:0:
192,192,62340,1,0,0:0:0:0:
320,192,62411,1,0,0:0:0:0:
448,192,62553,1,0,0:0:0:0:
64,192,62553,1,0,0:0:0:0:
320,192,62694,128,0,62977:0:0:0:0:
192,192,62694,128,0,62977:0:0:0:0:
64,192,62977,1,0,0:0:0:0:
320,192,63119,1,0,0:0:0:0:
448,192,63175,1,0,0:0:0:0:
192,192,63260,1,0,0:0:0:0:
64,192,63402,1,0,0:0:0:0:
320,192,63458,1,0,0:0:0:0:
192,192,63543,1,0,0:0:0:0:
320,192,63685,1,0,0:0:0:0:
64,192,63725,1,0,0:0:0:0:
448,192,63826,1,0,0:0:0:0:
320,192,63968,1,0,0:0:0:0:
192,192,64038,1,0,0:0:0:0:
64,192,64109,1,0,0:0:0:0:
320,192,64180,1,0,0:0:0:0:
192,192,64251,1,0,0:0:0:0:
448,192,64321,1,0,0:0:0:0:
320,192,64392,1,0,0:0:0:0:
64,192,64463,1,0,0:0:0:0:
192,192,64534,1,0,0:0:0:0:
320,192,64605,1,0,0:0:0:0:
448,192,64675,1,0,0:0:0:0:
64,192,64746,1,0,0:0:0:0:
192,192,64817,1,0,0:0:0:0:
320,192,64911,1,0,0:0:0:0:
64,192,64958,1,0,0:0:0:0:
448,192,65100,1,0,0:0:0:0:
320,192,65171,1,0,0:0:0:0:
192,192,65241,1,0,0:0:0:0:
64,192,65312,1,0,0:0:0:0:
320,192,65383,1,0,0:0:0:0:
192,192,65477,1,0,0:0:0:0:
448,192,65571,1,0,0:0:0:0:
320,192,65666,1,0,0:0:0:0:
64,192,65760,1,0,0:0:0:0:
320,192,65949,1,0,0:0:0:0:
192,192,66020,1,0,0:0:0:0:
64,192,66090,1,0,0:0:0:0:
320,192,66161,1,0,0:0:0:0:
448,192,66232,1,0,0:0:0:0:
192,192,66326,1,0,0:0:0:0:
320,192,66421,1,0,0:0:0:0:
64,192,66515,1,0,0:0:0:0:
448,192,66609,1,0,0:0:0:0:
320,192,66798,1,0,0:0:0:0:
192,192,66892,1,0,0:0:0:0:
64,192,66987,1,0,0:0:0:0:
448,192,67081,1,0,0:0:0:0:
320,192,67175,1,0,0:0:0:0:
192,192,67270,1,0,0:0:0:0:
448,192,67364,1,0,0:0:0:0:
64,192,67435,1,0,0:0:0:0:
320,192,67505,1,0,0:0:0:0:
192,192,67576,1,0,0:0:0:0:
448,192,67647,1,0,0:0:0:0:
64,192,67788,1,0,0:0:0:0:
320,192,67930,1,0,0:0:0:0:
192,192,68001,1,0,0:0:0:0:
448,192,68071,1,0,0:0:0:0:
64,192,68213,1,0,0:0:0:0:
192,192,68284,1,0,0:0:0:0:
320,192,68355,1,0,0:0:0:0:
448,192,68496,1,0,0:0:0:0:
320,192,68567,1,0,0:0:0:0:
192,192,68638,1,0,0:0:0:0:
64,192,68708,1,0,0:0:0:0:
320,192,68779,1,0,0:0:0:0:
192,192,68873,1,0,0:0:0:0:
448,192,68968,1,0,0:0:0:0:
64,192,69062,1,0,0:0:0:0:
320,192,69156,1,0,0:0:0:0:
448,192,69251,1,0,0:0:0:0:
192,192,69345,1,0,0:0:0:0:
320,192,69487,1,0,0:0:0:0:
64,192,69628,1,0,0:0:0:0:
320,192,69911,1,0,0:0:0:0:
192,192,70194,1,0,0:0:0:0:
448,192,70477,1,0,0:0:0:0:
64,192,70548,1,0,0:0:0:0:
192,192,70619,1,0,0:0:0:0:
320,192,70689,1,0,0:0:0:0:
448,192,70760,1,0,0:0:0:0:
192,192,70855,1,0,0:0:0:0:
64,192,70949,1,0,0:0:0:0:
320,192,71043,1,0,0:0:0:0:
192,192,71138,1,0,0:0:0:0:
448,192,71326,1,0,0:0:0:0:
64,192,71397,1,0,0:0:0:0:
320,192,71468,1,0,0:0:0:0:
192,192,71609,1,0,0:0:0:0:
64,192,71680,1,0,0:0:0:0:
448,192,71751,1,0,0:0:0:0:
192,192,71892,1,0,0:0:0:0:
320,192,71963,1,0,0:0:0:0:
64,192,72034,1,0,0:0:0:0:
192,192,72105,1,0,0:0:0:0:
448,192,72175,1,0,0:0:0:0:
320,192,72317,1,0,0:0:0:0:
192,192,72458,1,0,0:0:0:0:
64,192,72529,1,0,0:0:0:0:
320,192,72600,1,0,0:0:0:0:
448,192,72741,1,0,0:0:0:0:
320,192,72812,1,0,0:0:0:0:
192,192,72883,1,0,0:0:0:0:
64,192,73024,1,0,0:0:0:0:
192,192,73095,1,0,0:0:0:0:
320,192,73166,1,0,0:0:0:0:
448,192,73237,1,0,0:0:0:0:
192,192,73307,1,0,0:0:0:0:
320,192,73402,1,0,0:0:0:0:
64,192,73496,1,0,0:0:0:0:
448,192,73590,1,0,0:0:0:0:
192,192,73685,1,0,0:0:0:0:
64,192,73779,1,0,0:0:0:0:
320,192,73873,1,0,0:0:0:0:
192,192,74015,1,0,0:0:0:0:
448,192,74156,1,0,0:0:0:0:
192,192,74439,1,0,0:0:0:0:
64,192,74722,1,0,0:0:0:0:
320,192,75005,1,0,0:0:0:0:
448,192,75076,1,0,0:0:0:0:
192,192,75147,1,0,0:0:0:0:
64,192,75218,1,0,0:0:0:0:
448,192,75288,1,0,0:0:0:0:
64,192,75383,1,0,0:0:0:0:
192,192,75477,1,0,0:0:0:0:
320,192,75571,1,0,0:0:0:0:
64,192,75855,128,0,75996:0:0:0:0:
448,192,75996,1,0,0:0:0:0:
192,192,76138,1,0,0:0:0:0:
320,192,76279,1,0,0:0:0:0:
448,192,76279,1,0,0:0:0:0:
64,192,76704,1,0,0:0:0:0:
320,192,77553,5,0,0:0:0:0:
448,192,77553,1,0,0:0:0:0:
192,192,77694,1,0,0:0:0:0:
64,192,77836,1,0,0:0:0:0:
192,192,77977,1,0,0:0:0:0:
448,192,78119,1,0,0:0:0:0:
192,192,78260,1,0,0:0:0:0:
64,192,78402,1,0,0:0:0:0:
320,192,78543,1,0,0:0:0:0:
448,192,78543,1,0,0:0:0:0:
192,192,78685,1,0,0:0:0:0:
320,192,78826,1,0,0:0:0:0:
64,192,78968,1,0,0:0:0:0:
448,192,78968,128,0,79251:0:0:0:0:
192,192,79109,1,0,0:0:0:0:
64,192,79251,1,0,0:0:0:0:
448,192,79392,1,0,0:0:0:0:
320,192,79392,1,0,0:0:0:0:
192,192,79534,1,0,0:0:0:0:
448,192,79675,1,0,0:0:0:0:
192,192,79817,1,0,0:0:0:0:
64,192,79817,1,0,0:0:0:0:
320,192,80100,1,0,0:0:0:0:
448,192,80241,1,0,0:0:0:0:
64,192,80383,1,0,0:0:0:0:
448,192,80524,1,0,0:0:0:0:
320,192,80666,1,0,0:0:0:0:
192,192,80807,1,0,0:0:0:0:
64,192,80807,1,0,0:0:0:0:
320,192,81090,1,0,0:0:0:0:
448,192,81232,128,0,81515:0:0:0:0:
64,192,81232,1,0,0:0:0:0:
320,192,81515,1,0,0:0:0:0:
192,192,81656,1,0,0:0:0:0:
64,192,81656,1,0,0:0:0:0:
320,192,82081,5,0,0:0:0:0:
448,192,82081,1,0,0:0:0:0:
192,192,82222,1,0,0:0:0:0:
64,192,82364,1,0,0:0:0:0:
192,192,82505,1,0,0:0:0:0:
448,192,82647,1,0,0:0:0:0:
192,192,82788,1,0,0:0:0:0:
64,192,82930,1,0,0:0:0:0:
320,192,83071,1,0,0:0:0:0:
448,192,83071,1,0,0:0:0:0:
192,192,83213,1,0,0:0:0:0:
320,192,83355,1,0,0:0:0:0:
64,192,83496,1,0,0:0:0:0:
448,192,83496,128,0,83779:0:0:0:0:
192,192,83638,1,0,0:0:0:0:
64,192,83779,1,0,0:0:0:0:
448,192,83921,1,0,0:0:0:0:
320,192,83921,1,0,0:0:0:0:
192,192,84062,1,0,0:0:0:0:
448,192,84204,1,0,0:0:0:0:
64,192,84345,1,0,0:0:0:0:
192,192,84345,1,0,0:0:0:0:
320,192,84487,1,0,0:0:0:0:
448,192,84628,1,0,0:0:0:0:
320,192,84770,1,0,0:0:0:0:
64,192,84911,1,0,0:0:0:0:
192,192,85053,1,0,0:0:0:0:
320,192,85194,1,0,0:0:0:0:
64,192,85336,1,0,0:0:0:0:
448,192,85336,1,0,0:0:0:0:
320,192,86043,1,0,0:0:0:0:
192,192,86185,1,0,0:0:0:0:
448,192,86326,1,0,0:0:0:0:
192,192,86468,1,0,0:0:0:0:
320,192,87175,1,0,0:0:0:0:
64,192,87175,1,0,0:0:0:0:
