osu file format v14

[General]
AudioFilename: audio.mp3
AudioLeadIn: 0
PreviewTime: 49817
Countdown: 0
SampleSet: Soft
StackLeniency: 0.7
Mode: 3
LetterboxInBreaks: 0
SpecialStyle: 0
WidescreenStoryboard: 1

[Editor]
Bookmarks: 36798
DistanceSpacing: 0.7
BeatDivisor: 4
GridSize: 32
TimelineZoom: 2.500005

[Metadata]
Title:Paper Bouquet (TV Size)
TitleUnicode:Paper Bouquet (TV Size)
Artist:Mili
ArtistUnicode:Mili
Creator:Polarin
Version:Paraxia's Normal
Source:処刑少女の生きる道
Tags:ProjectMili Saihate Records さいはてレコーズ Cassie Wei momocashew 葛西大和 Kasai Yamato HAMO 三友行人 Mitomo Yukihito 吉田翔人 Yoshida Shouto 吉田篤貴 Atsuki 米田聖 Yoneda Satoshi 柴晃浩 Shiba Akihiro conlang opening op Shokei Shoujo no Ikiru Michi バージンロード Virgin Road english The Executioner and Her Way of Life anime アニメ other rock jrock j-rock pop j-pop jpop vocal dump stream dumpstream speed mukotsuu kot Paraxia olivertruck TEMAS lgbt+ lgbtq+ lgbtqia+ pride
BeatmapID:3879057
BeatmapSetID:1841442

[Difficulty]
HPDrainRate:6.5
CircleSize:4
OverallDifficulty:6.5
ApproachRate:5
SliderMultiplier:1.4
SliderTickRate:1

[Events]
//Background and Video events
0,0,"executioner.jpg",0,0
//Break Periods
//Storyboard Layer 0 (Background)
//Storyboard Layer 1 (Fail)
//Storyboard Layer 2 (Pass)
//Storyboard Layer 3 (Foreground)
//Storyboard Layer 4 (Overlay)
//Storyboard Sound Samples

[TimingPoints]
572,283.018867924528,4,2,1,35,1,0
50383,-100,4,2,1,35,0,1
63968,-100,4,2,1,35,0,0

[HitObjects]
320,192,572,5,0,0:0:0:0:
448,192,572,1,0,0:0:0:0:
192,192,855,1,0,0:0:0:0:
320,192,996,1,0,0:0:0:0:
64,192,1138,1,0,0:0:0:0:
320,192,1421,1,0,0:0:0:0:
192,192,1562,1,0,0:0:0:0:
64,192,1562,1,0,0:0:0:0:
192,192,1987,1,0,0:0:0:0:
64,192,2270,1,0,0:0:0:0:
192,192,2553,1,0,0:0:0:0:
320,192,2694,1,0,0:0:0:0:
448,192,2836,1,0,0:0:0:0:
64,192,2836,1,0,0:0:0:0:
192,192,3119,1,0,0:0:0:0:
320,192,3260,1,0,0:0:0:0:
448,192,3402,1,0,0:0:0:0:
192,192,3685,1,0,0:0:0:0:
64,192,3826,1,0,0:0:0:0:
320,192,3826,1,0,0:0:0:0:
192,192,4251,1,0,0:0:0:0:
192,192,4534,1,0,0:0:0:0:
320,192,4675,1,0,0:0:0:0:
448,192,4675,1,0,0:0:0:0:
192,192,5100,1,0,0:0:0:0:
64,192,5100,1,0,0:0:0:0:
448,192,5383,1,0,0:0:0:0:
320,192,5524,1,0,0:0:0:0:
192,192,5666,1,0,0:0:0:0:
64,192,5949,1,0,0:0:0:0:
192,192,6090,1,0,0:0:0:0:
448,192,6090,1,0,0:0:0:0:
448,192,6515,1,0,0:0:0:0:
64,192,6798,1,0,0:0:0:0:
192,192,7081,1,0,0:0:0:0:
320,192,7222,1,0,0:0:0:0:
448,192,7364,1,0,0:0:0:0:
64,192,7364,1,0,0:0:0:0:
192,192,7647,1,0,0:0:0:0:
320,192,7930,1,0,0:0:0:0:
192,192,8213,1,0,0:0:0:0:
320,192,8355,1,0,0:0:0:0:
448,192,8355,1,0,0:0:0:0:
64,192,8779,1,0,0:0:0:0:
448,192,9204,1,0,0:0:0:0:
192,192,9345,1,0,0:0:0:0:
64,192,9487,1,0,0:0:0:0:
320,192,9628,1,0,0:0:0:0:
448,192,9628,1,0,0:0:0:0:
192,192,9911,1,0,0:0:0:0:
448,192,10053,1,0,0:0:0:0:
320,192,10194,1,0,0:0:0:0:
64,192,10477,1,0,0:0:0:0:
192,192,10619,1,0,0:0:0:0:
320,192,10619,1,0,0:0:0:0:
448,192,10902,1,0,0:0:0:0:
320,192,11043,1,0,0:0:0:0:
64,192,11185,1,0,0:0:0:0:
192,192,11326,128,0,11609:0:0:0:0:
320,192,11609,128,0,11892:0:0:0:0:
64,192,11892,1,0,0:0:0:0:
448,192,11892,1,0,0:0:0:0:
192,192,12175,1,0,0:0:0:0:
64,192,12317,1,0,0:0:0:0:
448,192,12458,1,0,0:0:0:0:
192,192,12741,1,0,0:0:0:0:
320,192,12883,1,0,0:0:0:0:
448,192,12883,1,0,0:0:0:0:
64,192,13166,1,0,0:0:0:0:
448,192,13307,1,0,0:0:0:0:
320,192,13590,1,0,0:0:0:0:
192,192,13732,1,0,0:0:0:0:
64,192,13873,1,0,0:0:0:0:
320,192,14015,1,0,0:0:0:0:
448,192,14156,1,0,0:0:0:0:
192,192,14156,1,0,0:0:0:0:
64,192,14439,1,0,0:0:0:0:
320,192,14722,1,0,0:0:0:0:
192,192,15005,1,0,0:0:0:0:
448,192,15147,1,0,0:0:0:0:
64,192,15147,1,0,0:0:0:0:
320,192,15430,1,0,0:0:0:0:
448,192,15571,1,0,0:0:0:0:
192,192,15855,1,0,0:0:0:0:
320,192,16138,1,0,0:0:0:0:
192,192,16421,1,0,0:0:0:0:
64,192,16421,128,0,17270:0:0:0:0:
320,192,17411,1,0,0:0:0:0:
448,192,17411,128,0,18119:0:0:0:0:
192,192,18119,1,0,0:0:0:0:
448,192,18402,1,0,0:0:0:0:
320,192,18685,128,0,19251:0:0:0:0:
64,192,19251,1,0,0:0:0:0:
192,192,19534,1,0,0:0:0:0:
448,192,19675,128,0,20383:0:0:0:0:
64,192,20383,128,0,20949:0:0:0:0:
320,192,20949,1,0,0:0:0:0:
448,192,21232,1,0,0:0:0:0:
192,192,21373,1,0,0:0:0:0:
64,192,21373,1,0,0:0:0:0:
320,192,21656,1,0,0:0:0:0:
448,192,21656,1,0,0:0:0:0:
192,192,21939,1,0,0:0:0:0:
64,192,21939,1,0,0:0:0:0:
448,192,22222,1,0,0:0:0:0:
64,192,22364,1,0,0:0:0:0:
320,192,22364,1,0,0:0:0:0:
448,192,22505,1,0,0:0:0:0:
192,192,22788,1,0,0:0:0:0:
64,192,22930,1,0,0:0:0:0:
192,192,23213,1,0,0:0:0:0:
320,192,23213,128,0,23779:0:0:0:0:
448,192,23779,1,0,0:0:0:0:
64,192,23779,1,0,0:0:0:0:
320,192,24204,1,0,0:0:0:0:
448,192,24204,128,0,24770:0:0:0:0:
64,192,24628,1,0,0:0:0:0:
64,192,24911,1,0,0:0:0:0:
192,192,24911,128,0,25194:0:0:0:0:
448,192,25194,1,0,0:0:0:0:
320,192,25477,1,0,0:0:0:0:
64,192,25477,128,0,25689:0:0:0:0:
192,192,25689,128,0,26326:0:0:0:0:
448,192,26043,1,0,0:0:0:0:
320,192,26468,1,0,0:0:0:0:
192,192,26751,1,0,0:0:0:0:
448,192,26892,128,0,27175:0:0:0:0:
64,192,26892,1,0,0:0:0:0:
320,192,27175,128,0,27458:0:0:0:0:
192,192,27458,128,0,27741:0:0:0:0:
448,192,27741,1,0,0:0:0:0:
64,192,27741,128,0,28307:0:0:0:0:
320,192,28307,1,0,0:0:0:0:
192,192,28590,1,0,0:0:0:0:
64,192,28732,128,0,29015:0:0:0:0:
320,192,29015,128,0,29298:0:0:0:0:
448,192,29298,128,0,29581:0:0:0:0:
192,192,29581,1,0,0:0:0:0:
64,192,29722,1,0,0:0:0:0:
320,192,30005,128,0,30430:0:0:0:0:
64,192,30288,1,0,0:0:0:0:
192,192,30430,128,0,31138:0:0:0:0:
448,192,30571,1,0,0:0:0:0:
320,192,30855,1,0,0:0:0:0:
64,192,31138,1,0,0:0:0:0:
320,192,31279,1,0,0:0:0:0:
448,192,31421,1,0,0:0:0:0:
64,192,31562,1,0,0:0:0:0:
320,192,31704,1,0,0:0:0:0:
64,192,31845,1,0,0:0:0:0:
192,192,31987,1,0,0:0:0:0:
64,192,32270,128,0,33260:0:0:0:0:
448,192,32270,1,0,0:0:0:0:
320,192,32836,1,0,0:0:0:0:
192,192,33119,1,0,0:0:0:0:
448,192,33260,128,0,33968:0:0:0:0:
320,192,33543,1,0,0:0:0:0:
192,192,33968,128,0,34534:0:0:0:0:
64,192,34534,1,0,0:0:0:0:
320,192,34534,128,0,35100:0:0:0:0:
192,192,35100,1,0,0:0:0:0:
448,192,35383,128,0,35666:0:0:0:0:
192,192,35666,128,0,36090:0:0:0:0:
320,192,36090,128,0,36232:0:0:0:0:
448,192,36232,128,0,36656:0:0:0:0:
64,192,36232,1,0,0:0:0:0:
64,192,36798,128,0,37081:0:0:0:0:
192,192,37222,1,0,0:0:0:0:
448,192,37364,128,0,37647:0:0:0:0:
320,192,37788,1,0,0:0:0:0:
192,192,37930,128,0,38213:0:0:0:0:
320,192,38355,1,0,0:0:0:0:
64,192,38496,128,0,38779:0:0:0:0:
192,192,38921,1,0,0:0:0:0:
448,192,39062,128,0,39345:0:0:0:0:
320,192,39487,1,0,0:0:0:0:
64,192,39628,128,0,39911:0:0:0:0:
448,192,40053,1,0,0:0:0:0:
320,192,40194,128,0,40477:0:0:0:0:
64,192,40619,1,0,0:0:0:0:
192,192,40760,128,0,41043:0:0:0:0:
320,192,41043,1,0,0:0:0:0:
64,192,41326,1,0,0:0:0:0:
448,192,41326,128,0,42175:0:0:0:0:
320,192,42175,128,0,42458:0:0:0:0:
192,192,42458,128,0,42741:0:0:0:0:
448,192,42741,1,0,0:0:0:0:
64,192,43024,128,0,43307:0:0:0:0:
320,192,43307,128,0,43590:0:0:0:0:
192,192,43590,128,0,43873:0:0:0:0:
64,192,43590,1,0,0:0:0:0:
448,192,43873,128,0,44156:0:0:0:0:
320,192,44156,128,0,44439:0:0:0:0:
192,192,44439,128,0,44722:0:0:0:0:
64,192,44722,128,0,45147:0:0:0:0:
448,192,45147,1,0,0:0:0:0:
320,192,45288,128,0,45855:0:0:0:0:
192,192,45855,128,0,46421:0:0:0:0:
64,192,45855,1,0,0:0:0:0:
448,192,46421,1,0,0:0:0:0:
320,192,46704,128,0,46987:0:0:0:0:
64,192,46987,128,0,47270:0:0:0:0:
192,192,47270,1,0,0:0:0:0:
320,192,47553,128,0,48119:0:0:0:0:
192,192,47836,1,0,0:0:0:0:
448,192,48119,128,0,48968:0:0:0:0:
64,192,48402,1,0,0:0:0:0:
192,192,48685,1,0,0:0:0:0:
192,192,49109,128,0,49534:0:0:0:0:
64,192,49109,128,0,49534:0:0:0:0:
448,192,49534,1,0,0:0:0:0:
320,192,49675,1,0,0:0:0:0:
64,192,49817,128,0,50100:0:0:0:0:
448,192,50100,128,0,50383:0:0:0:0:
64,192,50383,1,0,0:0:0:0:
192,192,50383,128,0,51232:0:0:0:0:
320,192,50666,1,0,0:0:0:0:
448,192,50949,1,0,0:0:0:0:
320,192,51232,128,0,51798:0:0:0:0:
64,192,51373,1,0,0:0:0:0:
64,192,51656,1,0,0:0:0:0:
448,192,51798,1,0,0:0:0:0:
192,192,52081,128,0,52364:0:0:0:0:
320,192,52222,1,0,0:0:0:0:
64,192,52364,128,0,52647:0:0:0:0:
448,192,52647,128,0,53071:0:0:0:0:
64,192,52930,1,0,0:0:0:0:
192,192,53071,128,0,53496:0:0:0:0:
320,192,53213,1,0,0:0:0:0:
320,192,53496,1,0,0:0:0:0:
448,192,53638,1,0,0:0:0:0:
64,192,53638,1,0,0:0:0:0:
192,192,53921,1,0,0:0:0:0:
320,192,54062,1,0,0:0:0:0:
448,192,54062,1,0,0:0:0:0:
448,192,54345,1,0,0:0:0:0:
320,192,54487,1,0,0:0:0:0:
192,192,54628,1,0,0:0:0:0:
64,192,54628,1,0,0:0:0:0:
320,192,54911,1,0,0:0:0:0:
448,192,54911,128,0,55760:0:0:0:0:
192,192,55194,1,0,0:0:0:0:
64,192,55477,1,0,0:0:0:0:
320,192,55760,1,0,0:0:0:0:
192,192,55902,128,0,56326:0:0:0:0:
448,192,56185,1,0,0:0:0:0:
64,192,56326,1,0,0:0:0:0:
320,192,56609,128,0,56892:0:0:0:0:
64,192,56892,128,0,57175:0:0:0:0:
448,192,57175,128,0,58166:0:0:0:0:
64,192,57458,1,0,0:0:0:0:
320,192,57741,1,0,0:0:0:0:
64,192,58024,1,0,0:0:0:0:
192,192,58166,1,0,0:0:0:0:
320,192,58166,128,0,58590:0:0:0:0:
64,192,58449,1,0,0:0:0:0:
448,192,58590,1,0,0:0:0:0:
192,192,58873,128,0,59156:0:0:0:0:
448,192,59156,128,0,59439:0:0:0:0:
64,192,59439,128,0,60288:0:0:0:0:
192,192,59439,1,0,0:0:0:0:
320,192,59722,1,0,0:0:0:0:
448,192,60005,1,0,0:0:0:0:
320,192,60288,128,0,60855:0:0:0:0:
192,192,60430,1,0,0:0:0:0:
192,192,60713,1,0,0:0:0:0:
64,192,60855,1,0,0:0:0:0:
64,192,61138,128,0,61421:0:0:0:0:
448,192,61279,1,0,0:0:0:0:
192,192,61421,128,0,61704:0:0:0:0:
448,192,61704,128,0,61987:0:0:0:0:
320,192,61987,1,0,0:0:0:0:
64,192,62128,128,0,62411:0:0:0:0:
320,192,62411,1,0,0:0:0:0:
448,192,62553,1,0,0:0:0:0:
64,192,62694,1,0,0:0:0:0:
192,192,62694,128,0,62977:0:0:0:0:
320,192,62977,1,0,0:0:0:0:
448,192,63119,128,0,63402:0:0:0:0:
320,192,63402,128,0,63685:0:0:0:0:
64,192,63543,1,0,0:0:0:0:
192,192,63685,128,0,63968:0:0:0:0:
448,192,63968,1,0,0:0:0:0:
64,192,63968,128,0,64392:0:0:0:0:
320,192,64251,1,0,0:0:0:0:
448,192,64392,128,0,64817:0:0:0:0:
192,192,64534,1,0,0:0:0:0:
64,192,64675,1,0,0:0:0:0:
320,192,64817,1,0,0:0:0:0:
192,192,64958,1,0,0:0:0:0:
320,192,65100,1,0,0:0:0:0:
448,192,65100,128,0,65666:0:0:0:0:
64,192,65383,1,0,0:0:0:0:
192,192,65666,1,0,0:0:0:0:
320,192,65807,1,0,0:0:0:0:
192,192,65949,128,0,66232:0:0:0:0:
64,192,66232,128,0,66515:0:0:0:0:
448,192,66232,1,0,0:0:0:0:
320,192,66515,1,0,0:0:0:0:
448,192,66798,1,0,0:0:0:0:
192,192,66798,128,0,67081:0:0:0:0:
320,192,67081,128,0,67364:0:0:0:0:
64,192,67364,1,0,0:0:0:0:
448,192,67364,128,0,67788:0:0:0:0:
64,192,67647,1,0,0:0:0:0:
320,192,67788,1,0,0:0:0:0:
192,192,67930,128,0,68213:0:0:0:0:
64,192,68213,128,0,68496:0:0:0:0:
448,192,68496,128,0,69628:0:0:0:0:
320,192,68496,1,0,0:0:0:0:
192,192,68779,1,0,0:0:0:0:
320,192,69062,1,0,0:0:0:0:
64,192,69204,1,0,0:0:0:0:
192,192,69487,1,0,0:0:0:0:
64,192,69628,1,0,0:0:0:0:
320,192,69911,1,0,0:0:0:0:
192,192,70194,1,0,0:0:0:0:
320,192,70336,1,0,0:0:0:0:
64,192,70477,128,0,70760:0:0:0:0:
192,192,70760,128,0,71326:0:0:0:0:
448,192,70760,1,0,0:0:0:0:
320,192,71043,1,0,0:0:0:0:
448,192,71326,128,0,71609:0:0:0:0:
64,192,71326,1,0,0:0:0:0:
320,192,71609,128,0,71892:0:0:0:0:
192,192,71892,128,0,72175:0:0:0:0:
448,192,71892,1,0,0:0:0:0:
64,192,72175,1,0,0:0:0:0:
448,192,72317,128,0,72458:0:0:0:0:
320,192,72458,128,0,72741:0:0:0:0:
192,192,72600,1,0,0:0:0:0:
64,192,72741,128,0,73024:0:0:0:0:
448,192,73024,1,0,0:0:0:0:
192,192,73024,128,0,74156:0:0:0:0:
320,192,73307,1,0,0:0:0:0:
448,192,73732,1,0,0:0:0:0:
64,192,74015,1,0,0:0:0:0:
448,192,74156,1,0,0:0:0:0:
192,192,74439,1,0,0:0:0:0:
64,192,74439,1,0,0:0:0:0:
64,192,74864,1,0,0:0:0:0:
320,192,74864,1,0,0:0:0:0:
448,192,75005,128,0,75288:0:0:0:0:
192,192,75288,128,0,75571:0:0:0:0:
64,192,75571,1,0,0:0:0:0:
320,192,75571,1,0,0:0:0:0:
64,192,75855,1,0,0:0:0:0:
448,192,75996,1,0,0:0:0:0:
320,192,76138,1,0,0:0:0:0:
192,192,76279,1,0,0:0:0:0:
64,192,76279,1,0,0:0:0:0:
448,192,76704,1,0,0:0:0:0:
320,192,77553,5,0,0:0:0:0:
448,192,77553,1,0,0:0:0:0:
192,192,77836,1,0,0:0:0:0:
64,192,77977,1,0,0:0:0:0:
448,192,78119,1,0,0:0:0:0:
320,192,78402,1,0,0:0:0:0:
192,192,78543,1,0,0:0:0:0:
64,192,78543,1,0,0:0:0:0:
448,192,78968,1,0,0:0:0:0:
192,192,78968,1,0,0:0:0:0:
64,192,79251,1,0,0:0:0:0:
320,192,79392,1,0,0:0:0:0:
448,192,79392,1,0,0:0:0:0:
192,192,79534,1,0,0:0:0:0:
320,192,79675,1,0,0:0:0:0:
448,192,79817,1,0,0:0:0:0:
64,192,79817,1,0,0:0:0:0:
192,192,80100,1,0,0:0:0:0:
320,192,80241,1,0,0:0:0:0:
448,192,80383,1,0,0:0:0:0:
192,192,80666,1,0,0:0:0:0:
64,192,80807,1,0,0:0:0:0:
320,192,80807,1,0,0:0:0:0:
192,192,81232,1,0,0:0:0:0:
320,192,81232,1,0,0:0:0:0:
192,192,81515,1,0,0:0:0:0:
320,192,81656,1,0,0:0:0:0:
448,192,81656,1,0,0:0:0:0:
320,192,81939,1,0,0:0:0:0:
192,192,82081,1,0,0:0:0:0:
64,192,82081,1,0,0:0:0:0:
448,192,82364,1,0,0:0:0:0:
192,192,82647,1,0,0:0:0:0:
64,192,82930,1,0,0:0:0:0:
192,192,83071,1,0,0:0:0:0:
448,192,83071,1,0,0:0:0:0:
192,192,83355,1,0,0:0:0:0:
320,192,83496,1,0,0:0:0:0:
448,192,83496,1,0,0:0:0:0:
64,192,83779,1,0,0:0:0:0:
448,192,83921,1,0,0:0:0:0:
320,192,83921,1,0,0:0:0:0:
192,192,84062,1,0,0:0:0:0:
320,192,84204,1,0,0:0:0:0:
448,192,84345,1,0,0:0:0:0:
64,192,84345,1,0,0:0:0:0:
192,192,84628,1,0,0:0:0:0:
320,192,84911,1,0,0:0:0:0:
192,192,85194,1,0,0:0:0:0:
320,192,85336,1,0,0:0:0:0:
448,192,85336,1,0,0:0:0:0:
192,192,86043,1,0,0:0:0:0:
320,192,86185,1,0,0:0:0:0:
448,192,86326,1,0,0:0:0:0:
64,192,86468,1,0,0:0:0:0:
64,192,87175,1,0,0:0:0:0:
320,192,87175,1,0,0:0:0:0:
