osu file format v14

[General]
AudioFilename: audio.mp3
AudioLeadIn: 0
PreviewTime: 49817
Countdown: 0
SampleSet: Soft
StackLeniency: 0.7
Mode: 3
LetterboxInBreaks: 0
SpecialStyle: 0
WidescreenStoryboard: 1

[Editor]
Bookmarks: 36798
DistanceSpacing: 0.7
BeatDivisor: 2
GridSize: 32
TimelineZoom: 0.7000059

[Metadata]
Title:Paper Bouquet (TV Size)
TitleUnicode:Paper Bouquet (TV Size)
Artist:Mili
ArtistUnicode:Mili
Creator:Polarin
Version:Easy
Source:処刑少女の生きる道
Tags:ProjectMili Saihate Records さいはてレコーズ Cassie Wei momocashew 葛西大和 Kasai Yamato HAMO 三友行人 Mitomo Yukihito 吉田翔人 Yoshida Shouto 吉田篤貴 Atsuki 米田聖 Yoneda Satoshi 柴晃浩 Shiba Akihiro conlang opening op Shokei Shoujo no Ikiru Michi バージンロード Virgin Road english The Executioner and Her Way of Life anime アニメ other rock jrock j-rock pop j-pop jpop vocal dump stream dumpstream speed mukotsuu kot Paraxia olivertruck TEMAS lgbt+ lgbtq+ lgbtqia+ pride
BeatmapID:3802973
BeatmapSetID:1841442

[Difficulty]
HPDrainRate:6
CircleSize:4
OverallDifficulty:6
ApproachRate:5
SliderMultiplier:1.4
SliderTickRate:1

[Events]
//Background and Video events
0,0,"executioner.jpg",0,0
//Break Periods
//Storyboard Layer 0 (Background)
//Storyboard Layer 1 (Fail)
//Storyboard Layer 2 (Pass)
//Storyboard Layer 3 (Foreground)
//Storyboard Layer 4 (Overlay)
//Storyboard Sound Samples

[TimingPoints]
572,283.018867924528,4,2,1,35,1,0
50383,-100,4,2,1,35,0,1
63968,-100,4,2,1,35,0,0

[HitObjects]
64,192,572,5,0,0:0:0:0:
448,192,572,1,0,0:0:0:0:
320,192,855,1,0,0:0:0:0:
192,192,1138,1,0,0:0:0:0:
320,192,1421,1,0,0:0:0:0:
64,192,1562,1,0,0:0:0:0:
64,192,1987,1,0,0:0:0:0:
320,192,2270,1,0,0:0:0:0:
192,192,2553,1,0,0:0:0:0:
448,192,2694,1,0,0:0:0:0:
64,192,2836,1,0,0:0:0:0:
320,192,3119,1,0,0:0:0:0:
448,192,3402,1,0,0:0:0:0:
320,192,3685,1,0,0:0:0:0:
64,192,3826,1,0,0:0:0:0:
192,192,4251,1,0,0:0:0:0:
320,192,4534,1,0,0:0:0:0:
448,192,4675,1,0,0:0:0:0:
192,192,4675,1,0,0:0:0:0:
64,192,4958,1,0,0:0:0:0:
320,192,5100,1,0,0:0:0:0:
448,192,5383,1,0,0:0:0:0:
320,192,5666,1,0,0:0:0:0:
192,192,5949,1,0,0:0:0:0:
64,192,6090,1,0,0:0:0:0:
64,192,6515,1,0,0:0:0:0:
192,192,6798,1,0,0:0:0:0:
320,192,7081,1,0,0:0:0:0:
192,192,7222,1,0,0:0:0:0:
64,192,7364,1,0,0:0:0:0:
448,192,7364,1,0,0:0:0:0:
320,192,7788,1,0,0:0:0:0:
192,192,8213,1,0,0:0:0:0:
64,192,8355,1,0,0:0:0:0:
448,192,8355,1,0,0:0:0:0:
192,192,9204,128,0,9628:0:0:0:0:
448,192,9628,1,0,0:0:0:0:
320,192,9628,128,0,9911:0:0:0:0:
64,192,9911,1,0,0:0:0:0:
448,192,10194,128,0,10477:0:0:0:0:
320,192,10477,1,0,0:0:0:0:
192,192,10619,1,0,0:0:0:0:
64,192,10619,1,0,0:0:0:0:
192,192,10902,128,0,11326:0:0:0:0:
320,192,11326,128,0,11609:0:0:0:0:
448,192,11609,128,0,11892:0:0:0:0:
192,192,11892,1,0,0:0:0:0:
320,192,11892,1,0,0:0:0:0:
64,192,12175,1,0,0:0:0:0:
448,192,12458,1,0,0:0:0:0:
320,192,12741,1,0,0:0:0:0:
192,192,12883,1,0,0:0:0:0:
64,192,12883,1,0,0:0:0:0:
448,192,13307,1,0,0:0:0:0:
320,192,13590,1,0,0:0:0:0:
192,192,13873,1,0,0:0:0:0:
64,192,14156,128,0,14864:0:0:0:0:
448,192,14156,1,0,0:0:0:0:
320,192,14864,128,0,15147:0:0:0:0:
64,192,15147,1,0,0:0:0:0:
448,192,15147,128,0,15430:0:0:0:0:
192,192,15430,1,0,0:0:0:0:
320,192,15713,1,0,0:0:0:0:
192,192,15855,1,0,0:0:0:0:
64,192,16138,1,0,0:0:0:0:
448,192,16421,128,0,17411:0:0:0:0:
320,192,16421,1,0,0:0:0:0:
64,192,17411,128,0,18119:0:0:0:0:
192,192,17411,1,0,0:0:0:0:
192,192,18119,1,0,0:0:0:0:
320,192,18402,1,0,0:0:0:0:
192,192,18685,128,0,19251:0:0:0:0:
320,192,19251,1,0,0:0:0:0:
448,192,19534,1,0,0:0:0:0:
64,192,19675,128,0,20383:0:0:0:0:
448,192,20383,128,0,20949:0:0:0:0:
192,192,20949,128,0,21232:0:0:0:0:
64,192,21232,1,0,0:0:0:0:
448,192,21373,1,0,0:0:0:0:
64,192,21656,1,0,0:0:0:0:
448,192,21939,1,0,0:0:0:0:
192,192,21939,1,0,0:0:0:0:
320,192,22364,1,0,0:0:0:0:
64,192,22364,1,0,0:0:0:0:
448,192,22647,1,0,0:0:0:0:
192,192,22788,1,0,0:0:0:0:
448,192,23213,128,0,23779:0:0:0:0:
64,192,23213,1,0,0:0:0:0:
192,192,23779,1,0,0:0:0:0:
64,192,24204,128,0,24911:0:0:0:0:
448,192,24487,1,0,0:0:0:0:
320,192,24628,1,0,0:0:0:0:
448,192,24911,128,0,25477:0:0:0:0:
320,192,25477,1,0,0:0:0:0:
192,192,25760,128,0,26468:0:0:0:0:
448,192,26043,1,0,0:0:0:0:
320,192,26468,1,0,0:0:0:0:
64,192,26751,1,0,0:0:0:0:
448,192,26892,1,0,0:0:0:0:
192,192,27175,1,0,0:0:0:0:
64,192,27458,1,0,0:0:0:0:
448,192,27741,1,0,0:0:0:0:
320,192,27741,128,0,28307:0:0:0:0:
64,192,28307,1,0,0:0:0:0:
448,192,28590,1,0,0:0:0:0:
192,192,28732,1,0,0:0:0:0:
448,192,29015,1,0,0:0:0:0:
64,192,29298,1,0,0:0:0:0:
192,192,29581,1,0,0:0:0:0:
448,192,29722,1,0,0:0:0:0:
320,192,30005,128,0,30430:0:0:0:0:
64,192,30430,128,0,31138:0:0:0:0:
320,192,30855,1,0,0:0:0:0:
448,192,31138,1,0,0:0:0:0:
192,192,31421,1,0,0:0:0:0:
320,192,31704,1,0,0:0:0:0:
192,192,31987,1,0,0:0:0:0:
64,192,32270,1,0,0:0:0:0:
448,192,32270,128,0,33119:0:0:0:0:
64,192,32836,1,0,0:0:0:0:
320,192,33119,1,0,0:0:0:0:
192,192,33260,128,0,33968:0:0:0:0:
448,192,33543,1,0,0:0:0:0:
64,192,33968,128,0,34534:0:0:0:0:
320,192,34534,128,0,35100:0:0:0:0:
64,192,35100,1,0,0:0:0:0:
448,192,35383,128,0,35666:0:0:0:0:
192,192,35666,128,0,36090:0:0:0:0:
448,192,36090,1,0,0:0:0:0:
320,192,36232,1,0,0:0:0:0:
64,192,36232,1,0,0:0:0:0:
448,192,36798,1,0,0:0:0:0:
64,192,37222,1,0,0:0:0:0:
192,192,37364,128,0,37930:0:0:0:0:
448,192,37788,1,0,0:0:0:0:
320,192,37930,1,0,0:0:0:0:
448,192,38355,1,0,0:0:0:0:
64,192,38496,128,0,39062:0:0:0:0:
192,192,38921,1,0,0:0:0:0:
320,192,39062,1,0,0:0:0:0:
64,192,39487,1,0,0:0:0:0:
448,192,39628,1,0,0:0:0:0:
192,192,39911,1,0,0:0:0:0:
64,192,40053,1,0,0:0:0:0:
320,192,40194,1,0,0:0:0:0:
320,192,40619,1,0,0:0:0:0:
64,192,40760,128,0,41043:0:0:0:0:
448,192,41043,1,0,0:0:0:0:
192,192,41326,1,0,0:0:0:0:
320,192,41326,128,0,42175:0:0:0:0:
448,192,42175,1,0,0:0:0:0:
64,192,42458,128,0,42741:0:0:0:0:
64,192,43024,1,0,0:0:0:0:
192,192,43307,1,0,0:0:0:0:
320,192,43590,1,0,0:0:0:0:
64,192,43590,1,0,0:0:0:0:
448,192,43873,1,0,0:0:0:0:
320,192,44156,1,0,0:0:0:0:
192,192,44439,1,0,0:0:0:0:
64,192,44722,1,0,0:0:0:0:
192,192,45147,1,0,0:0:0:0:
448,192,45288,128,0,45855:0:0:0:0:
64,192,45855,1,0,0:0:0:0:
192,192,45855,128,0,46421:0:0:0:0:
448,192,46704,1,0,0:0:0:0:
320,192,46987,1,0,0:0:0:0:
448,192,47270,1,0,0:0:0:0:
64,192,47553,128,0,48119:0:0:0:0:
192,192,47836,1,0,0:0:0:0:
448,192,48119,1,0,0:0:0:0:
320,192,48119,1,0,0:0:0:0:
192,192,48402,1,0,0:0:0:0:
64,192,48685,1,0,0:0:0:0:
448,192,48968,1,0,0:0:0:0:
320,192,49109,1,0,0:0:0:0:
192,192,49109,1,0,0:0:0:0:
64,192,49817,1,0,0:0:0:0:
192,192,50100,1,0,0:0:0:0:
64,192,50383,1,0,0:0:0:0:
448,192,50383,128,0,51232:0:0:0:0:
320,192,50666,1,0,0:0:0:0:
192,192,51232,128,0,51798:0:0:0:0:
448,192,51798,1,0,0:0:0:0:
64,192,52081,1,0,0:0:0:0:
192,192,52364,1,0,0:0:0:0:
448,192,52647,128,0,53071:0:0:0:0:
64,192,53071,128,0,53496:0:0:0:0:
192,192,53496,1,0,0:0:0:0:
320,192,53638,1,0,0:0:0:0:
448,192,53638,1,0,0:0:0:0:
192,192,54062,1,0,0:0:0:0:
320,192,54628,1,0,0:0:0:0:
64,192,54911,128,0,55760:0:0:0:0:
320,192,55194,1,0,0:0:0:0:
448,192,55760,1,0,0:0:0:0:
192,192,55902,1,0,0:0:0:0:
320,192,56326,1,0,0:0:0:0:
192,192,56609,1,0,0:0:0:0:
192,192,56892,1,0,0:0:0:0:
448,192,57175,128,0,57741:0:0:0:0:
64,192,57458,1,0,0:0:0:0:
192,192,57741,1,0,0:0:0:0:
448,192,58024,1,0,0:0:0:0:
64,192,58166,1,0,0:0:0:0:
192,192,58166,128,0,58590:0:0:0:0:
448,192,58590,1,0,0:0:0:0:
64,192,58873,1,0,0:0:0:0:
192,192,59156,1,0,0:0:0:0:
448,192,59439,128,0,60288:0:0:0:0:
64,192,59439,1,0,0:0:0:0:
320,192,59722,1,0,0:0:0:0:
192,192,60288,128,0,60855:0:0:0:0:
448,192,60855,1,0,0:0:0:0:
64,192,61138,1,0,0:0:0:0:
192,192,61421,1,0,0:0:0:0:
320,192,61704,128,0,62128:0:0:0:0:
448,192,62128,1,0,0:0:0:0:
192,192,62411,1,0,0:0:0:0:
64,192,62553,1,0,0:0:0:0:
320,192,62694,1,0,0:0:0:0:
448,192,62694,1,0,0:0:0:0:
192,192,63119,1,0,0:0:0:0:
320,192,63402,1,0,0:0:0:0:
64,192,63685,1,0,0:0:0:0:
320,192,63968,1,0,0:0:0:0:
192,192,63968,128,0,64817:0:0:0:0:
448,192,64251,1,0,0:0:0:0:
448,192,64958,1,0,0:0:0:0:
64,192,65100,128,0,65949:0:0:0:0:
448,192,65383,1,0,0:0:0:0:
320,192,65949,1,0,0:0:0:0:
192,192,66232,1,0,0:0:0:0:
448,192,66232,1,0,0:0:0:0:
64,192,66798,1,0,0:0:0:0:
448,192,66798,1,0,0:0:0:0:
192,192,67081,1,0,0:0:0:0:
320,192,67364,1,0,0:0:0:0:
448,192,67364,1,0,0:0:0:0:
64,192,67788,1,0,0:0:0:0:
320,192,67930,1,0,0:0:0:0:
192,192,68213,1,0,0:0:0:0:
64,192,68496,1,0,0:0:0:0:
448,192,68496,128,0,69911:0:0:0:0:
320,192,68779,1,0,0:0:0:0:
64,192,69487,1,0,0:0:0:0:
192,192,69911,1,0,0:0:0:0:
192,192,70477,1,0,0:0:0:0:
320,192,70760,1,0,0:0:0:0:
448,192,70760,1,0,0:0:0:0:
64,192,71326,1,0,0:0:0:0:
448,192,71326,1,0,0:0:0:0:
320,192,71609,1,0,0:0:0:0:
192,192,71892,1,0,0:0:0:0:
64,192,71892,1,0,0:0:0:0:
320,192,72317,1,0,0:0:0:0:
192,192,72458,1,0,0:0:0:0:
448,192,72741,1,0,0:0:0:0:
64,192,73024,1,0,0:0:0:0:
320,192,73024,128,0,74439:0:0:0:0:
448,192,73307,1,0,0:0:0:0:
64,192,73732,1,0,0:0:0:0:
192,192,74015,1,0,0:0:0:0:
64,192,74439,1,0,0:0:0:0:
448,192,75005,1,0,0:0:0:0:
320,192,75288,1,0,0:0:0:0:
192,192,75571,1,0,0:0:0:0:
64,192,75571,1,0,0:0:0:0:
320,192,75855,1,0,0:0:0:0:
64,192,76138,1,0,0:0:0:0:
320,192,76279,1,0,0:0:0:0:
448,192,76279,1,0,0:0:0:0:
448,192,76704,1,0,0:0:0:0:
64,192,77553,1,0,0:0:0:0:
448,192,77553,1,0,0:0:0:0:
320,192,77836,1,0,0:0:0:0:
192,192,78119,1,0,0:0:0:0:
64,192,78402,1,0,0:0:0:0:
448,192,78543,1,0,0:0:0:0:
320,192,78968,1,0,0:0:0:0:
64,192,78968,1,0,0:0:0:0:
192,192,79251,1,0,0:0:0:0:
64,192,79534,1,0,0:0:0:0:
448,192,79675,1,0,0:0:0:0:
192,192,79817,1,0,0:0:0:0:
320,192,80100,1,0,0:0:0:0:
448,192,80383,1,0,0:0:0:0:
192,192,80666,1,0,0:0:0:0:
448,192,80807,1,0,0:0:0:0:
192,192,81232,1,0,0:0:0:0:
448,192,81232,1,0,0:0:0:0:
64,192,81515,1,0,0:0:0:0:
320,192,81656,1,0,0:0:0:0:
192,192,81939,1,0,0:0:0:0:
64,192,82081,1,0,0:0:0:0:
448,192,82364,1,0,0:0:0:0:
320,192,82647,1,0,0:0:0:0:
192,192,82930,1,0,0:0:0:0:
320,192,83071,1,0,0:0:0:0:
64,192,83496,1,0,0:0:0:0:
448,192,83496,1,0,0:0:0:0:
192,192,83779,1,0,0:0:0:0:
448,192,83921,1,0,0:0:0:0:
64,192,84062,1,0,0:0:0:0:
192,192,84204,1,0,0:0:0:0:
192,192,84628,128,0,85336:0:0:0:0:
320,192,85336,1,0,0:0:0:0:
448,192,85336,1,0,0:0:0:0:
64,192,86043,128,0,86468:0:0:0:0:
448,192,86468,128,0,87175:0:0:0:0:
64,192,87175,1,0,0:0:0:0:
320,192,87175,1,0,0:0:0:0:
