osu file format v14

[General]
AudioFilename: audio.mp3
AudioLeadIn: 0
PreviewTime: 49817
Countdown: 0
SampleSet: Soft
StackLeniency: 0.7
Mode: 3
LetterboxInBreaks: 0
SpecialStyle: 0
WidescreenStoryboard: 1

[Editor]
Bookmarks: 36798
DistanceSpacing: 0.7
BeatDivisor: 4
GridSize: 32
TimelineZoom: 2.000006

[Metadata]
Title:Paper Bouquet (TV Size)
TitleUnicode:Paper Bouquet (TV Size)
Artist:Mili
ArtistUnicode:Mili
Creator:Polarin
Version:A Billion Flowers
Source:処刑少女の生きる道
Tags:ProjectMili Saihate Records さいはてレコーズ Cassie Wei momocashew 葛西大和 Kasai Yamato HAMO 三友行人 Mitomo Yukihito 吉田翔人 Yoshida Shouto 吉田篤貴 Atsuki 米田聖 Yoneda Satoshi 柴晃浩 Shiba Akihiro conlang opening op Shokei Shoujo no Ikiru Michi バージンロード Virgin Road english The Executioner and Her Way of Life anime アニメ other rock jrock j-rock pop j-pop jpop vocal dump stream dumpstream speed mukotsuu kot Paraxia olivertruck TEMAS lgbt+ lgbtq+ lgbtqia+ pride
BeatmapID:3786605
BeatmapSetID:1841442

[Difficulty]
HPDrainRate:7.5
CircleSize:4
OverallDifficulty:7.5
ApproachRate:5
SliderMultiplier:1.4
SliderTickRate:1

[Events]
//Background and Video events
0,0,"executioner.jpg",0,0
//Break Periods
//Storyboard Layer 0 (Background)
//Storyboard Layer 1 (Fail)
//Storyboard Layer 2 (Pass)
//Storyboard Layer 3 (Foreground)
//Storyboard Layer 4 (Overlay)
//Storyboard Sound Samples

[TimingPoints]
572,283.018867924528,4,2,1,35,1,0
50383,-100,4,2,1,35,0,1
63968,-100,4,2,1,35,0,0

[HitObjects]
64,192,572,5,0,0:0:0:0:
448,192,572,1,0,0:0:0:0:
192,192,713,128,0,784:0:0:0:0:
64,192,855,128,0,925:0:0:0:0:
64,192,996,128,0,1138:0:0:0:0:
448,192,1138,1,0,0:0:0:0:
320,192,1279,1,0,0:0:0:0:
64,192,1421,1,0,0:0:0:0:
320,192,1562,1,0,0:0:0:0:
448,192,1562,1,0,0:0:0:0:
64,192,1704,1,0,0:0:0:0:
192,192,1845,1,0,0:0:0:0:
448,192,1987,1,0,0:0:0:0:
320,192,2128,1,0,0:0:0:0:
448,192,2270,1,0,0:0:0:0:
64,192,2411,1,0,0:0:0:0:
192,192,2553,1,0,0:0:0:0:
448,192,2694,1,0,0:0:0:0:
320,192,2694,1,0,0:0:0:0:
64,192,2836,1,0,0:0:0:0:
192,192,2836,1,0,0:0:0:0:
448,192,2977,128,0,3048:0:0:0:0:
64,192,3119,128,0,3189:0:0:0:0:
64,192,3260,128,0,3402:0:0:0:0:
448,192,3402,1,0,0:0:0:0:
192,192,3543,1,0,0:0:0:0:
448,192,3685,1,0,0:0:0:0:
320,192,3826,1,0,0:0:0:0:
64,192,3826,1,0,0:0:0:0:
320,192,4109,1,0,0:0:0:0:
192,192,4251,1,0,0:0:0:0:
64,192,4251,1,0,0:0:0:0:
320,192,4534,1,0,0:0:0:0:
448,192,4534,1,0,0:0:0:0:
64,192,4675,1,0,0:0:0:0:
448,192,4675,1,0,0:0:0:0:
192,192,4675,128,0,4817:0:0:0:0:
64,192,5100,1,0,0:0:0:0:
448,192,5100,1,0,0:0:0:0:
192,192,5241,128,0,5312:0:0:0:0:
64,192,5383,128,0,5454:0:0:0:0:
64,192,5524,128,0,5666:0:0:0:0:
448,192,5666,1,0,0:0:0:0:
320,192,5807,1,0,0:0:0:0:
64,192,5949,1,0,0:0:0:0:
192,192,6090,1,0,0:0:0:0:
448,192,6090,1,0,0:0:0:0:
320,192,6232,1,0,0:0:0:0:
64,192,6373,1,0,0:0:0:0:
448,192,6515,1,0,0:0:0:0:
320,192,6656,1,0,0:0:0:0:
448,192,6798,1,0,0:0:0:0:
192,192,6939,1,0,0:0:0:0:
64,192,6939,1,0,0:0:0:0:
320,192,7081,1,0,0:0:0:0:
192,192,7222,1,0,0:0:0:0:
448,192,7222,1,0,0:0:0:0:
64,192,7364,1,0,0:0:0:0:
448,192,7364,1,0,0:0:0:0:
320,192,7364,1,0,0:0:0:0:
192,192,7505,1,0,0:0:0:0:
64,192,7647,1,0,0:0:0:0:
448,192,7788,1,0,0:0:0:0:
192,192,7930,1,0,0:0:0:0:
64,192,8071,1,0,0:0:0:0:
448,192,8213,1,0,0:0:0:0:
320,192,8355,1,0,0:0:0:0:
192,192,8355,1,0,0:0:0:0:
64,192,8355,1,0,0:0:0:0:
320,192,8638,1,0,0:0:0:0:
192,192,8779,1,0,0:0:0:0:
64,192,9062,1,0,0:0:0:0:
192,192,9204,1,0,0:0:0:0:
448,192,9204,128,0,9274:0:0:0:0:
320,192,9345,128,0,9416:0:0:0:0:
64,192,9487,128,0,9557:0:0:0:0:
192,192,9628,1,0,0:0:0:0:
448,192,9628,1,0,0:0:0:0:
64,192,9675,1,0,0:0:0:0:
320,192,9722,1,0,0:0:0:0:
192,192,9770,1,0,0:0:0:0:
448,192,9817,1,0,0:0:0:0:
320,192,9864,1,0,0:0:0:0:
64,192,9911,1,0,0:0:0:0:
448,192,9982,1,0,0:0:0:0:
192,192,10053,1,0,0:0:0:0:
64,192,10053,1,0,0:0:0:0:
320,192,10159,1,0,0:0:0:0:
448,192,10194,1,0,0:0:0:0:
320,192,10336,128,0,10406:0:0:0:0:
192,192,10477,128,0,10548:0:0:0:0:
64,192,10619,1,0,0:0:0:0:
448,192,10619,128,0,10689:0:0:0:0:
192,192,10666,1,0,0:0:0:0:
320,192,10713,1,0,0:0:0:0:
64,192,10760,1,0,0:0:0:0:
192,192,10902,1,0,0:0:0:0:
320,192,10902,1,0,0:0:0:0:
64,192,11043,1,0,0:0:0:0:
448,192,11043,1,0,0:0:0:0:
192,192,11185,1,0,0:0:0:0:
320,192,11326,1,0,0:0:0:0:
64,192,11468,1,0,0:0:0:0:
448,192,11468,128,0,11538:0:0:0:0:
320,192,11609,128,0,11680:0:0:0:0:
192,192,11751,128,0,11821:0:0:0:0:
320,192,11892,1,0,0:0:0:0:
64,192,11892,1,0,0:0:0:0:
192,192,11939,1,0,0:0:0:0:
448,192,11987,1,0,0:0:0:0:
64,192,12034,1,0,0:0:0:0:
320,192,12081,1,0,0:0:0:0:
448,192,12128,1,0,0:0:0:0:
192,192,12175,1,0,0:0:0:0:
64,192,12246,1,0,0:0:0:0:
320,192,12317,1,0,0:0:0:0:
448,192,12317,1,0,0:0:0:0:
192,192,12388,1,0,0:0:0:0:
320,192,12458,1,0,0:0:0:0:
64,192,12600,128,0,12671:0:0:0:0:
320,192,12741,128,0,12812:0:0:0:0:
448,192,12883,1,0,0:0:0:0:
192,192,12883,128,0,12954:0:0:0:0:
64,192,12930,1,0,0:0:0:0:
320,192,12977,1,0,0:0:0:0:
192,192,13024,1,0,0:0:0:0:
320,192,13166,1,0,0:0:0:0:
448,192,13166,128,0,13237:0:0:0:0:
448,192,13307,1,0,0:0:0:0:
64,192,13307,128,0,13378:0:0:0:0:
320,192,13378,1,0,0:0:0:0:
192,192,13449,1,0,0:0:0:0:
320,192,13520,1,0,0:0:0:0:
192,192,13590,1,0,0:0:0:0:
64,192,13590,1,0,0:0:0:0:
448,192,13732,128,0,13803:0:0:0:0:
192,192,13873,128,0,13944:0:0:0:0:
448,192,13944,1,0,0:0:0:0:
64,192,14015,1,0,0:0:0:0:
320,192,14086,1,0,0:0:0:0:
448,192,14156,1,0,0:0:0:0:
64,192,14156,1,0,0:0:0:0:
192,192,14204,1,0,0:0:0:0:
320,192,14251,1,0,0:0:0:0:
448,192,14298,1,0,0:0:0:0:
64,192,14345,1,0,0:0:0:0:
320,192,14392,1,0,0:0:0:0:
192,192,14439,1,0,0:0:0:0:
192,192,14581,1,0,0:0:0:0:
64,192,14581,1,0,0:0:0:0:
448,192,14722,1,0,0:0:0:0:
64,192,14722,1,0,0:0:0:0:
192,192,14864,128,0,14935:0:0:0:0:
320,192,15005,128,0,15076:0:0:0:0:
64,192,15147,1,0,0:0:0:0:
448,192,15147,128,0,15218:0:0:0:0:
320,192,15194,1,0,0:0:0:0:
192,192,15241,1,0,0:0:0:0:
64,192,15288,1,0,0:0:0:0:
320,192,15430,1,0,0:0:0:0:
448,192,15430,1,0,0:0:0:0:
64,192,15571,1,0,0:0:0:0:
448,192,15571,1,0,0:0:0:0:
192,192,15713,1,0,0:0:0:0:
64,192,15713,1,0,0:0:0:0:
320,192,15784,1,0,0:0:0:0:
448,192,15784,1,0,0:0:0:0:
192,192,15855,1,0,0:0:0:0:
64,192,15855,1,0,0:0:0:0:
448,192,15996,1,0,0:0:0:0:
192,192,15996,1,0,0:0:0:0:
448,192,16138,1,0,0:0:0:0:
320,192,16138,1,0,0:0:0:0:
64,192,16208,1,0,0:0:0:0:
192,192,16279,1,0,0:0:0:0:
320,192,16350,1,0,0:0:0:0:
64,192,16421,1,0,0:0:0:0:
192,192,16421,1,0,0:0:0:0:
448,192,16468,1,0,0:0:0:0:
320,192,16515,1,0,0:0:0:0:
192,192,16562,1,0,0:0:0:0:
448,192,16609,1,0,0:0:0:0:
64,192,16656,1,0,0:0:0:0:
192,192,16704,1,0,0:0:0:0:
320,192,16751,1,0,0:0:0:0:
64,192,16798,1,0,0:0:0:0:
448,192,16845,1,0,0:0:0:0:
192,192,16916,1,0,0:0:0:0:
448,192,16987,1,0,0:0:0:0:
64,192,17057,1,0,0:0:0:0:
320,192,17128,1,0,0:0:0:0:
64,192,17199,1,0,0:0:0:0:
320,192,17270,1,0,0:0:0:0:
448,192,17270,1,0,0:0:0:0:
192,192,17411,1,0,0:0:0:0:
64,192,17411,1,0,0:0:0:0:
448,192,17411,1,0,0:0:0:0:
320,192,17482,1,0,0:0:0:0:
64,192,17553,1,0,0:0:0:0:
448,192,17623,1,0,0:0:0:0:
192,192,17694,1,0,0:0:0:0:
320,192,17765,1,0,0:0:0:0:
64,192,17836,1,0,0:0:0:0:
448,192,17906,1,0,0:0:0:0:
320,192,17977,1,0,0:0:0:0:
192,192,18048,1,0,0:0:0:0:
64,192,18119,1,0,0:0:0:0:
192,192,18260,1,0,0:0:0:0:
320,192,18402,1,0,0:0:0:0:
448,192,18543,1,0,0:0:0:0:
192,192,18685,1,0,0:0:0:0:
64,192,18685,1,0,0:0:0:0:
320,192,18741,1,0,0:0:0:0:
64,192,18798,1,0,0:0:0:0:
448,192,18855,1,0,0:0:0:0:
192,192,18911,1,0,0:0:0:0:
448,192,18968,1,0,0:0:0:0:
64,192,19024,1,0,0:0:0:0:
320,192,19081,1,0,0:0:0:0:
64,192,19251,1,0,0:0:0:0:
192,192,19392,1,0,0:0:0:0:
320,192,19534,1,0,0:0:0:0:
192,192,19675,1,0,0:0:0:0:
64,192,19675,1,0,0:0:0:0:
448,192,19746,1,0,0:0:0:0:
192,192,19817,1,0,0:0:0:0:
320,192,19873,1,0,0:0:0:0:
448,192,19930,1,0,0:0:0:0:
64,192,19987,1,0,0:0:0:0:
320,192,20043,1,0,0:0:0:0:
192,192,20100,1,0,0:0:0:0:
448,192,20156,1,0,0:0:0:0:
64,192,20213,1,0,0:0:0:0:
320,192,20270,1,0,0:0:0:0:
192,192,20326,1,0,0:0:0:0:
448,192,20383,1,0,0:0:0:0:
64,192,20430,1,0,0:0:0:0:
192,192,20477,1,0,0:0:0:0:
320,192,20524,1,0,0:0:0:0:
448,192,20571,1,0,0:0:0:0:
64,192,20619,1,0,0:0:0:0:
320,192,20666,1,0,0:0:0:0:
192,192,20713,1,0,0:0:0:0:
64,192,20760,1,0,0:0:0:0:
320,192,20807,1,0,0:0:0:0:
448,192,20878,1,0,0:0:0:0:
64,192,20949,128,0,21090:0:0:0:0:
192,192,20949,1,0,0:0:0:0:
192,192,21090,1,0,0:0:0:0:
320,192,21232,1,0,0:0:0:0:
448,192,21232,128,0,21373:0:0:0:0:
64,192,21373,128,0,21515:0:0:0:0:
320,192,21373,128,0,21515:0:0:0:0:
192,192,21515,1,0,0:0:0:0:
192,192,21656,128,0,21798:0:0:0:0:
448,192,21656,128,0,21798:0:0:0:0:
320,192,21798,1,0,0:0:0:0:
320,192,21939,128,0,22081:0:0:0:0:
448,192,21939,1,0,0:0:0:0:
64,192,21939,128,0,22081:0:0:0:0:
64,192,22222,128,0,22364:0:0:0:0:
320,192,22222,1,0,0:0:0:0:
320,192,22364,1,0,0:0:0:0:
192,192,22364,1,0,0:0:0:0:
448,192,22364,1,0,0:0:0:0:
448,192,22505,128,0,22647:0:0:0:0:
320,192,22647,1,0,0:0:0:0:
64,192,22647,1,0,0:0:0:0:
64,192,22788,1,0,0:0:0:0:
192,192,22788,1,0,0:0:0:0:
448,192,22788,1,0,0:0:0:0:
192,192,22930,128,0,23071:0:0:0:0:
320,192,23071,1,0,0:0:0:0:
448,192,23213,1,0,0:0:0:0:
64,192,23213,1,0,0:0:0:0:
192,192,23213,1,0,0:0:0:0:
320,192,23284,1,0,0:0:0:0:
64,192,23355,1,0,0:0:0:0:
448,192,23402,1,0,0:0:0:0:
64,192,23449,1,0,0:0:0:0:
320,192,23496,1,0,0:0:0:0:
192,192,23567,1,0,0:0:0:0:
448,192,23638,1,0,0:0:0:0:
192,192,23708,1,0,0:0:0:0:
320,192,23779,1,0,0:0:0:0:
448,192,23779,1,0,0:0:0:0:
192,192,23921,1,0,0:0:0:0:
320,192,24062,1,0,0:0:0:0:
448,192,24204,1,0,0:0:0:0:
64,192,24204,1,0,0:0:0:0:
192,192,24274,1,0,0:0:0:0:
320,192,24345,1,0,0:0:0:0:
448,192,24416,1,0,0:0:0:0:
192,192,24458,1,0,0:0:0:0:
64,192,24515,1,0,0:0:0:0:
320,192,24571,1,0,0:0:0:0:
192,192,24628,1,0,0:0:0:0:
448,192,24685,1,0,0:0:0:0:
64,192,24741,1,0,0:0:0:0:
320,192,24798,1,0,0:0:0:0:
448,192,24855,1,0,0:0:0:0:
64,192,24911,1,0,0:0:0:0:
192,192,24911,1,0,0:0:0:0:
320,192,24968,1,0,0:0:0:0:
192,192,25024,1,0,0:0:0:0:
448,192,25081,1,0,0:0:0:0:
320,192,25138,1,0,0:0:0:0:
64,192,25194,1,0,0:0:0:0:
192,192,25241,1,0,0:0:0:0:
192,192,25477,1,0,0:0:0:0:
448,192,25477,1,0,0:0:0:0:
64,192,25571,1,0,0:0:0:0:
448,192,25666,1,0,0:0:0:0:
320,192,25666,1,0,0:0:0:0:
192,192,25704,1,0,0:0:0:0:
64,192,25760,1,0,0:0:0:0:
448,192,25817,1,0,0:0:0:0:
192,192,25873,1,0,0:0:0:0:
320,192,25930,1,0,0:0:0:0:
448,192,25987,1,0,0:0:0:0:
192,192,26043,1,0,0:0:0:0:
64,192,26100,1,0,0:0:0:0:
320,192,26156,1,0,0:0:0:0:
192,192,26213,1,0,0:0:0:0:
448,192,26270,1,0,0:0:0:0:
320,192,26326,1,0,0:0:0:0:
192,192,26468,1,0,0:0:0:0:
64,192,26468,1,0,0:0:0:0:
320,192,26609,1,0,0:0:0:0:
192,192,26751,1,0,0:0:0:0:
64,192,26751,1,0,0:0:0:0:
448,192,26892,1,0,0:0:0:0:
64,192,26892,1,0,0:0:0:0:
320,192,26963,1,0,0:0:0:0:
448,192,27034,1,0,0:0:0:0:
192,192,27105,1,0,0:0:0:0:
320,192,27175,1,0,0:0:0:0:
448,192,27175,1,0,0:0:0:0:
192,192,27246,1,0,0:0:0:0:
320,192,27317,1,0,0:0:0:0:
64,192,27388,1,0,0:0:0:0:
320,192,27458,1,0,0:0:0:0:
192,192,27458,1,0,0:0:0:0:
64,192,27529,1,0,0:0:0:0:
192,192,27600,1,0,0:0:0:0:
448,192,27671,1,0,0:0:0:0:
192,192,27741,1,0,0:0:0:0:
64,192,27741,1,0,0:0:0:0:
320,192,27741,1,0,0:0:0:0:
448,192,27798,1,0,0:0:0:0:
64,192,27855,1,0,0:0:0:0:
320,192,27911,1,0,0:0:0:0:
192,192,27968,1,0,0:0:0:0:
64,192,28024,1,0,0:0:0:0:
320,192,28081,1,0,0:0:0:0:
448,192,28138,1,0,0:0:0:0:
192,192,28194,1,0,0:0:0:0:
64,192,28307,1,0,0:0:0:0:
448,192,28307,1,0,0:0:0:0:
320,192,28449,1,0,0:0:0:0:
192,192,28590,1,0,0:0:0:0:
64,192,28590,1,0,0:0:0:0:
64,192,28732,1,0,0:0:0:0:
448,192,28732,1,0,0:0:0:0:
320,192,28779,1,0,0:0:0:0:
192,192,28826,1,0,0:0:0:0:
448,192,28873,1,0,0:0:0:0:
192,192,29015,1,0,0:0:0:0:
64,192,29015,1,0,0:0:0:0:
448,192,29062,1,0,0:0:0:0:
320,192,29109,1,0,0:0:0:0:
64,192,29156,1,0,0:0:0:0:
448,192,29213,1,0,0:0:0:0:
192,192,29298,1,0,0:0:0:0:
64,192,29298,1,0,0:0:0:0:
320,192,29345,1,0,0:0:0:0:
448,192,29392,1,0,0:0:0:0:
192,192,29439,1,0,0:0:0:0:
320,192,29496,1,0,0:0:0:0:
64,192,29581,1,0,0:0:0:0:
192,192,29581,1,0,0:0:0:0:
64,192,29722,1,0,0:0:0:0:
320,192,29722,1,0,0:0:0:0:
448,192,29793,1,0,0:0:0:0:
320,192,29864,1,0,0:0:0:0:
64,192,29935,1,0,0:0:0:0:
192,192,30005,1,0,0:0:0:0:
448,192,30005,1,0,0:0:0:0:
320,192,30062,1,0,0:0:0:0:
64,192,30119,1,0,0:0:0:0:
448,192,30175,1,0,0:0:0:0:
192,192,30232,1,0,0:0:0:0:
64,192,30288,1,0,0:0:0:0:
320,192,30336,1,0,0:0:0:0:
448,192,30383,1,0,0:0:0:0:
192,192,30430,1,0,0:0:0:0:
64,192,30430,1,0,0:0:0:0:
320,192,30501,1,0,0:0:0:0:
192,192,30571,1,0,0:0:0:0:
448,192,30628,1,0,0:0:0:0:
64,192,30685,1,0,0:0:0:0:
192,192,30741,1,0,0:0:0:0:
320,192,30798,1,0,0:0:0:0:
64,192,30855,1,0,0:0:0:0:
448,192,30911,1,0,0:0:0:0:
64,192,30968,1,0,0:0:0:0:
320,192,31024,1,0,0:0:0:0:
192,192,31081,1,0,0:0:0:0:
320,192,31138,1,0,0:0:0:0:
448,192,31208,1,0,0:0:0:0:
192,192,31279,1,0,0:0:0:0:
64,192,31279,1,0,0:0:0:0:
320,192,31350,1,0,0:0:0:0:
64,192,31421,1,0,0:0:0:0:
448,192,31421,1,0,0:0:0:0:
192,192,31491,1,0,0:0:0:0:
320,192,31562,1,0,0:0:0:0:
448,192,31562,1,0,0:0:0:0:
192,192,31633,1,0,0:0:0:0:
64,192,31633,1,0,0:0:0:0:
320,192,31704,1,0,0:0:0:0:
448,192,31704,1,0,0:0:0:0:
64,192,31845,1,0,0:0:0:0:
320,192,31845,1,0,0:0:0:0:
192,192,31987,1,0,0:0:0:0:
64,192,31987,1,0,0:0:0:0:
448,192,31987,1,0,0:0:0:0:
192,192,32128,1,0,0:0:0:0:
448,192,32270,1,0,0:0:0:0:
320,192,32270,1,0,0:0:0:0:
64,192,32333,1,0,0:0:0:0:
320,192,32395,1,0,0:0:0:0:
192,192,32458,1,0,0:0:0:0:
448,192,32521,1,0,0:0:0:0:
320,192,32584,1,0,0:0:0:0:
64,192,32647,1,0,0:0:0:0:
448,192,32710,1,0,0:0:0:0:
192,192,32773,1,0,0:0:0:0:
320,192,32836,1,0,0:0:0:0:
64,192,32899,1,0,0:0:0:0:
320,192,32961,1,0,0:0:0:0:
64,192,33024,1,0,0:0:0:0:
448,192,33119,1,0,0:0:0:0:
192,192,33119,1,0,0:0:0:0:
448,192,33260,1,0,0:0:0:0:
64,192,33260,1,0,0:0:0:0:
320,192,33307,1,0,0:0:0:0:
192,192,33370,1,0,0:0:0:0:
64,192,33433,1,0,0:0:0:0:
448,192,33496,1,0,0:0:0:0:
192,192,33559,1,0,0:0:0:0:
320,192,33622,1,0,0:0:0:0:
64,192,33685,1,0,0:0:0:0:
192,192,33748,1,0,0:0:0:0:
64,192,33826,1,0,0:0:0:0:
320,192,33897,1,0,0:0:0:0:
192,192,33968,1,0,0:0:0:0:
64,192,33968,1,0,0:0:0:0:
448,192,34038,1,0,0:0:0:0:
320,192,34109,1,0,0:0:0:0:
192,192,34180,1,0,0:0:0:0:
320,192,34251,1,0,0:0:0:0:
448,192,34321,1,0,0:0:0:0:
64,192,34392,1,0,0:0:0:0:
320,192,34534,1,0,0:0:0:0:
448,192,34534,1,0,0:0:0:0:
64,192,34590,1,0,0:0:0:0:
320,192,34647,1,0,0:0:0:0:
192,192,34704,1,0,0:0:0:0:
448,192,34760,1,0,0:0:0:0:
64,192,34817,1,0,0:0:0:0:
320,192,34873,1,0,0:0:0:0:
64,192,34930,1,0,0:0:0:0:
448,192,34987,1,0,0:0:0:0:
64,192,35100,1,0,0:0:0:0:
320,192,35100,1,0,0:0:0:0:
192,192,35241,1,0,0:0:0:0:
320,192,35383,1,0,0:0:0:0:
448,192,35383,1,0,0:0:0:0:
64,192,35430,1,0,0:0:0:0:
192,192,35477,1,0,0:0:0:0:
448,192,35524,1,0,0:0:0:0:
320,192,35666,1,0,0:0:0:0:
448,192,35666,1,0,0:0:0:0:
64,192,35713,1,0,0:0:0:0:
192,192,35760,1,0,0:0:0:0:
320,192,35836,1,0,0:0:0:0:
64,192,35892,1,0,0:0:0:0:
448,192,35949,1,0,0:0:0:0:
320,192,36005,1,0,0:0:0:0:
192,192,36090,1,0,0:0:0:0:
64,192,36090,1,0,0:0:0:0:
448,192,36232,1,0,0:0:0:0:
192,192,36232,1,0,0:0:0:0:
64,192,36326,1,0,0:0:0:0:
320,192,36373,1,0,0:0:0:0:
192,192,36421,1,0,0:0:0:0:
448,192,36468,1,0,0:0:0:0:
320,192,36515,1,0,0:0:0:0:
64,192,36586,1,0,0:0:0:0:
448,192,36656,1,0,0:0:0:0:
192,192,36798,1,0,0:0:0:0:
64,192,36798,1,0,0:0:0:0:
448,192,36855,1,0,0:0:0:0:
320,192,36911,1,0,0:0:0:0:
64,192,36968,1,0,0:0:0:0:
448,192,37024,1,0,0:0:0:0:
192,192,37081,1,0,0:0:0:0:
320,192,37222,1,0,0:0:0:0:
64,192,37364,1,0,0:0:0:0:
320,192,37364,1,0,0:0:0:0:
448,192,37421,1,0,0:0:0:0:
192,192,37477,1,0,0:0:0:0:
320,192,37534,1,0,0:0:0:0:
64,192,37590,1,0,0:0:0:0:
448,192,37647,1,0,0:0:0:0:
320,192,37718,1,0,0:0:0:0:
448,192,37788,1,0,0:0:0:0:
320,192,37859,1,0,0:0:0:0:
448,192,37930,1,0,0:0:0:0:
64,192,37930,1,0,0:0:0:0:
192,192,37977,1,0,0:0:0:0:
320,192,38024,1,0,0:0:0:0:
64,192,38071,1,0,0:0:0:0:
448,192,38142,1,0,0:0:0:0:
192,192,38213,1,0,0:0:0:0:
320,192,38355,1,0,0:0:0:0:
320,192,38496,1,0,0:0:0:0:
448,192,38496,1,0,0:0:0:0:
64,192,38553,1,0,0:0:0:0:
192,192,38609,1,0,0:0:0:0:
448,192,38666,1,0,0:0:0:0:
64,192,38722,1,0,0:0:0:0:
320,192,38779,1,0,0:0:0:0:
192,192,38850,1,0,0:0:0:0:
320,192,38921,1,0,0:0:0:0:
448,192,38921,1,0,0:0:0:0:
192,192,38991,1,0,0:0:0:0:
64,192,39062,1,0,0:0:0:0:
320,192,39062,1,0,0:0:0:0:
448,192,39119,1,0,0:0:0:0:
192,192,39175,1,0,0:0:0:0:
64,192,39232,1,0,0:0:0:0:
320,192,39288,1,0,0:0:0:0:
192,192,39345,1,0,0:0:0:0:
448,192,39487,1,0,0:0:0:0:
64,192,39487,1,0,0:0:0:0:
192,192,39628,1,0,0:0:0:0:
64,192,39628,1,0,0:0:0:0:
320,192,39685,1,0,0:0:0:0:
448,192,39741,1,0,0:0:0:0:
192,192,39798,1,0,0:0:0:0:
64,192,39911,1,0,0:0:0:0:
192,192,39982,1,0,0:0:0:0:
64,192,40053,1,0,0:0:0:0:
448,192,40053,1,0,0:0:0:0:
192,192,40123,1,0,0:0:0:0:
64,192,40194,1,0,0:0:0:0:
320,192,40194,1,0,0:0:0:0:
448,192,40241,1,0,0:0:0:0:
192,192,40288,1,0,0:0:0:0:
64,192,40336,1,0,0:0:0:0:
320,192,40406,1,0,0:0:0:0:
448,192,40477,1,0,0:0:0:0:
320,192,40619,1,0,0:0:0:0:
192,192,40619,1,0,0:0:0:0:
320,192,40760,1,0,0:0:0:0:
448,192,40760,1,0,0:0:0:0:
192,192,40817,1,0,0:0:0:0:
64,192,40873,1,0,0:0:0:0:
320,192,40930,1,0,0:0:0:0:
192,192,40987,1,0,0:0:0:0:
448,192,41043,1,0,0:0:0:0:
448,192,41185,1,0,0:0:0:0:
192,192,41326,1,0,0:0:0:0:
320,192,41326,1,0,0:0:0:0:
448,192,41326,1,0,0:0:0:0:
64,192,41407,1,0,0:0:0:0:
320,192,41488,1,0,0:0:0:0:
192,192,41569,1,0,0:0:0:0:
448,192,41650,1,0,0:0:0:0:
64,192,41731,1,0,0:0:0:0:
320,192,41811,1,0,0:0:0:0:
192,192,41892,1,0,0:0:0:0:
448,192,41973,1,0,0:0:0:0:
320,192,42054,1,0,0:0:0:0:
64,192,42175,1,0,0:0:0:0:
192,192,42222,1,0,0:0:0:0:
448,192,42270,1,0,0:0:0:0:
64,192,42317,1,0,0:0:0:0:
320,192,42364,1,0,0:0:0:0:
448,192,42411,1,0,0:0:0:0:
192,192,42458,1,0,0:0:0:0:
320,192,42529,1,0,0:0:0:0:
64,192,42600,1,0,0:0:0:0:
320,192,42671,1,0,0:0:0:0:
192,192,42741,1,0,0:0:0:0:
192,192,43024,1,0,0:0:0:0:
64,192,43024,1,0,0:0:0:0:
448,192,43095,1,0,0:0:0:0:
64,192,43166,1,0,0:0:0:0:
192,192,43237,1,0,0:0:0:0:
448,192,43307,1,0,0:0:0:0:
64,192,43307,1,0,0:0:0:0:
320,192,43378,1,0,0:0:0:0:
448,192,43449,1,0,0:0:0:0:
192,192,43520,1,0,0:0:0:0:
320,192,43590,1,0,0:0:0:0:
448,192,43590,1,0,0:0:0:0:
64,192,43590,1,0,0:0:0:0:
192,192,43647,1,0,0:0:0:0:
320,192,43704,1,0,0:0:0:0:
448,192,43760,1,0,0:0:0:0:
64,192,43817,1,0,0:0:0:0:
448,192,43873,1,0,0:0:0:0:
192,192,43873,1,0,0:0:0:0:
320,192,43944,1,0,0:0:0:0:
64,192,44015,1,0,0:0:0:0:
320,192,44086,1,0,0:0:0:0:
192,192,44156,1,0,0:0:0:0:
64,192,44156,1,0,0:0:0:0:
448,192,44213,1,0,0:0:0:0:
320,192,44270,1,0,0:0:0:0:
64,192,44326,1,0,0:0:0:0:
192,192,44383,1,0,0:0:0:0:
448,192,44439,1,0,0:0:0:0:
320,192,44439,1,0,0:0:0:0:
192,192,44510,1,0,0:0:0:0:
64,192,44581,1,0,0:0:0:0:
320,192,44722,1,0,0:0:0:0:
448,192,44722,1,0,0:0:0:0:
64,192,44793,1,0,0:0:0:0:
448,192,44864,1,0,0:0:0:0:
192,192,44935,1,0,0:0:0:0:
320,192,45005,1,0,0:0:0:0:
64,192,45076,1,0,0:0:0:0:
448,192,45147,1,0,0:0:0:0:
192,192,45147,1,0,0:0:0:0:
192,192,45288,1,0,0:0:0:0:
64,192,45288,1,0,0:0:0:0:
320,192,45345,1,0,0:0:0:0:
448,192,45402,1,0,0:0:0:0:
64,192,45458,1,0,0:0:0:0:
320,192,45515,1,0,0:0:0:0:
192,192,45571,1,0,0:0:0:0:
64,192,45628,1,0,0:0:0:0:
448,192,45685,1,0,0:0:0:0:
192,192,45741,1,0,0:0:0:0:
320,192,45798,1,0,0:0:0:0:
448,192,45855,1,0,0:0:0:0:
64,192,45855,1,0,0:0:0:0:
320,192,45917,1,0,0:0:0:0:
192,192,45980,1,0,0:0:0:0:
448,192,46043,1,0,0:0:0:0:
192,192,46106,1,0,0:0:0:0:
320,192,46169,1,0,0:0:0:0:
64,192,46232,1,0,0:0:0:0:
320,192,46295,1,0,0:0:0:0:
192,192,46358,1,0,0:0:0:0:
64,192,46421,1,0,0:0:0:0:
64,192,46704,1,0,0:0:0:0:
448,192,46704,1,0,0:0:0:0:
320,192,46760,1,0,0:0:0:0:
192,192,46817,1,0,0:0:0:0:
448,192,46873,1,0,0:0:0:0:
192,192,46987,1,0,0:0:0:0:
64,192,46987,1,0,0:0:0:0:
320,192,47027,1,0,0:0:0:0:
448,192,47067,1,0,0:0:0:0:
192,192,47108,1,0,0:0:0:0:
320,192,47270,1,0,0:0:0:0:
64,192,47270,1,0,0:0:0:0:
448,192,47553,1,0,0:0:0:0:
320,192,47553,1,0,0:0:0:0:
64,192,47609,1,0,0:0:0:0:
192,192,47666,1,0,0:0:0:0:
320,192,47722,1,0,0:0:0:0:
64,192,47779,1,0,0:0:0:0:
448,192,47836,1,0,0:0:0:0:
320,192,47892,1,0,0:0:0:0:
192,192,47949,1,0,0:0:0:0:
448,192,48005,1,0,0:0:0:0:
64,192,48062,1,0,0:0:0:0:
320,192,48119,1,0,0:0:0:0:
192,192,48119,1,0,0:0:0:0:
448,192,48119,1,0,0:0:0:0:
64,192,48189,1,0,0:0:0:0:
320,192,48260,1,0,0:0:0:0:
448,192,48331,1,0,0:0:0:0:
192,192,48402,1,0,0:0:0:0:
64,192,48402,1,0,0:0:0:0:
448,192,48472,1,0,0:0:0:0:
320,192,48472,1,0,0:0:0:0:
192,192,48543,1,0,0:0:0:0:
64,192,48543,1,0,0:0:0:0:
320,192,48614,1,0,0:0:0:0:
448,192,48614,1,0,0:0:0:0:
64,192,48685,1,0,0:0:0:0:
448,192,48755,1,0,0:0:0:0:
192,192,48826,1,0,0:0:0:0:
320,192,48897,1,0,0:0:0:0:
64,192,48968,1,0,0:0:0:0:
448,192,49109,128,0,49392:0:0:0:0:
320,192,49109,128,0,49392:0:0:0:0:
192,192,49109,128,0,49392:0:0:0:0:
64,192,49109,128,0,49392:0:0:0:0:
320,192,49569,1,0,0:0:0:0:
448,192,49569,1,0,0:0:0:0:
192,192,49675,1,0,0:0:0:0:
64,192,49675,1,0,0:0:0:0:
320,192,49746,1,0,0:0:0:0:
448,192,49746,1,0,0:0:0:0:
192,192,49817,1,0,0:0:0:0:
64,192,49817,1,0,0:0:0:0:
320,192,49888,1,0,0:0:0:0:
448,192,49888,1,0,0:0:0:0:
192,192,49958,1,0,0:0:0:0:
64,192,49958,1,0,0:0:0:0:
320,192,50029,1,0,0:0:0:0:
448,192,50029,1,0,0:0:0:0:
192,192,50100,1,0,0:0:0:0:
64,192,50100,1,0,0:0:0:0:
320,192,50171,1,0,0:0:0:0:
448,192,50171,1,0,0:0:0:0:
192,192,50241,1,0,0:0:0:0:
64,192,50241,1,0,0:0:0:0:
320,192,50312,1,0,0:0:0:0:
448,192,50383,1,0,0:0:0:0:
64,192,50383,1,0,0:0:0:0:
192,192,50439,1,0,0:0:0:0:
320,192,50496,1,0,0:0:0:0:
448,192,50553,1,0,0:0:0:0:
192,192,50609,1,0,0:0:0:0:
320,192,50666,1,0,0:0:0:0:
64,192,50666,1,0,0:0:0:0:
448,192,50713,1,0,0:0:0:0:
192,192,50760,1,0,0:0:0:0:
320,192,50807,1,0,0:0:0:0:
64,192,50855,1,0,0:0:0:0:
448,192,50902,1,0,0:0:0:0:
320,192,50949,1,0,0:0:0:0:
192,192,50996,1,0,0:0:0:0:
64,192,51043,1,0,0:0:0:0:
448,192,51090,1,0,0:0:0:0:
192,192,51138,1,0,0:0:0:0:
320,192,51232,1,0,0:0:0:0:
448,192,51232,1,0,0:0:0:0:
64,192,51288,1,0,0:0:0:0:
320,192,51345,1,0,0:0:0:0:
192,192,51402,1,0,0:0:0:0:
448,192,51458,1,0,0:0:0:0:
192,192,51515,1,0,0:0:0:0:
320,192,51571,1,0,0:0:0:0:
64,192,51628,1,0,0:0:0:0:
320,192,51685,1,0,0:0:0:0:
192,192,51741,1,0,0:0:0:0:
448,192,51798,1,0,0:0:0:0:
64,192,51798,1,0,0:0:0:0:
192,192,51939,1,0,0:0:0:0:
320,192,52081,1,0,0:0:0:0:
448,192,52081,1,0,0:0:0:0:
64,192,52128,1,0,0:0:0:0:
192,192,52175,1,0,0:0:0:0:
320,192,52222,1,0,0:0:0:0:
64,192,52270,1,0,0:0:0:0:
320,192,52364,1,0,0:0:0:0:
448,192,52364,1,0,0:0:0:0:
192,192,52411,1,0,0:0:0:0:
64,192,52458,1,0,0:0:0:0:
448,192,52505,1,0,0:0:0:0:
320,192,52553,1,0,0:0:0:0:
192,192,52647,1,0,0:0:0:0:
64,192,52647,1,0,0:0:0:0:
320,192,52682,1,0,0:0:0:0:
448,192,52718,1,0,0:0:0:0:
64,192,52760,1,0,0:0:0:0:
320,192,52817,1,0,0:0:0:0:
192,192,52873,1,0,0:0:0:0:
448,192,52930,1,0,0:0:0:0:
64,192,53001,1,0,0:0:0:0:
320,192,53071,1,0,0:0:0:0:
448,192,53071,1,0,0:0:0:0:
192,192,53107,1,0,0:0:0:0:
64,192,53142,1,0,0:0:0:0:
448,192,53213,1,0,0:0:0:0:
192,192,53284,1,0,0:0:0:0:
320,192,53355,1,0,0:0:0:0:
64,192,53425,1,0,0:0:0:0:
320,192,53496,1,0,0:0:0:0:
448,192,53496,1,0,0:0:0:0:
64,192,53567,1,0,0:0:0:0:
448,192,53638,1,0,0:0:0:0:
192,192,53638,1,0,0:0:0:0:
320,192,53638,1,0,0:0:0:0:
64,192,53708,1,0,0:0:0:0:
448,192,53779,1,0,0:0:0:0:
320,192,53850,1,0,0:0:0:0:
192,192,53921,1,0,0:0:0:0:
64,192,53921,1,0,0:0:0:0:
320,192,54062,1,0,0:0:0:0:
192,192,54062,1,0,0:0:0:0:
64,192,54119,1,0,0:0:0:0:
320,192,54175,1,0,0:0:0:0:
448,192,54232,1,0,0:0:0:0:
64,192,54288,1,0,0:0:0:0:
320,192,54345,1,0,0:0:0:0:
192,192,54402,1,0,0:0:0:0:
448,192,54458,1,0,0:0:0:0:
192,192,54515,1,0,0:0:0:0:
64,192,54571,1,0,0:0:0:0:
320,192,54628,1,0,0:0:0:0:
448,192,54628,1,0,0:0:0:0:
192,192,54675,1,0,0:0:0:0:
320,192,54722,1,0,0:0:0:0:
64,192,54770,1,0,0:0:0:0:
192,192,54911,1,0,0:0:0:0:
448,192,54911,1,0,0:0:0:0:
320,192,54968,1,0,0:0:0:0:
64,192,55024,1,0,0:0:0:0:
448,192,55081,1,0,0:0:0:0:
192,192,55138,1,0,0:0:0:0:
64,192,55194,1,0,0:0:0:0:
320,192,55194,1,0,0:0:0:0:
448,192,55251,1,0,0:0:0:0:
192,192,55307,1,0,0:0:0:0:
320,192,55364,1,0,0:0:0:0:
64,192,55421,1,0,0:0:0:0:
192,192,55477,1,0,0:0:0:0:
448,192,55534,1,0,0:0:0:0:
320,192,55590,1,0,0:0:0:0:
64,192,55647,1,0,0:0:0:0:
448,192,55704,1,0,0:0:0:0:
192,192,55760,1,0,0:0:0:0:
64,192,55760,1,0,0:0:0:0:
320,192,55831,1,0,0:0:0:0:
448,192,55902,1,0,0:0:0:0:
192,192,55902,1,0,0:0:0:0:
64,192,55962,1,0,0:0:0:0:
448,192,56043,1,0,0:0:0:0:
64,192,56100,1,0,0:0:0:0:
320,192,56156,1,0,0:0:0:0:
448,192,56213,1,0,0:0:0:0:
192,192,56270,1,0,0:0:0:0:
64,192,56326,1,0,0:0:0:0:
320,192,56326,1,0,0:0:0:0:
448,192,56468,1,0,0:0:0:0:
64,192,56609,1,0,0:0:0:0:
192,192,56609,1,0,0:0:0:0:
448,192,56656,1,0,0:0:0:0:
320,192,56704,1,0,0:0:0:0:
192,192,56751,1,0,0:0:0:0:
448,192,56798,1,0,0:0:0:0:
192,192,56892,1,0,0:0:0:0:
64,192,56892,1,0,0:0:0:0:
320,192,56939,1,0,0:0:0:0:
448,192,56987,1,0,0:0:0:0:
64,192,57034,1,0,0:0:0:0:
320,192,57081,1,0,0:0:0:0:
64,192,57175,1,0,0:0:0:0:
448,192,57175,1,0,0:0:0:0:
320,192,57232,1,0,0:0:0:0:
192,192,57288,1,0,0:0:0:0:
448,192,57345,1,0,0:0:0:0:
64,192,57402,1,0,0:0:0:0:
320,192,57458,1,0,0:0:0:0:
192,192,57458,1,0,0:0:0:0:
448,192,57515,1,0,0:0:0:0:
64,192,57571,1,0,0:0:0:0:
320,192,57628,1,0,0:0:0:0:
192,192,57685,1,0,0:0:0:0:
64,192,57741,1,0,0:0:0:0:
448,192,57741,1,0,0:0:0:0:
320,192,57812,1,0,0:0:0:0:
192,192,57883,1,0,0:0:0:0:
64,192,57883,1,0,0:0:0:0:
192,192,58024,1,0,0:0:0:0:
448,192,58024,1,0,0:0:0:0:
320,192,58166,128,0,58449:0:0:0:0:
448,192,58166,128,0,58449:0:0:0:0:
64,192,58166,128,0,58307:0:0:0:0:
192,192,58449,1,0,0:0:0:0:
64,192,58449,1,0,0:0:0:0:
448,192,58590,1,0,0:0:0:0:
192,192,58590,1,0,0:0:0:0:
64,192,58732,1,0,0:0:0:0:
320,192,58873,1,0,0:0:0:0:
448,192,58873,1,0,0:0:0:0:
192,192,59015,1,0,0:0:0:0:
64,192,59015,1,0,0:0:0:0:
448,192,59086,1,0,0:0:0:0:
320,192,59086,1,0,0:0:0:0:
192,192,59156,1,0,0:0:0:0:
64,192,59156,1,0,0:0:0:0:
320,192,59227,1,0,0:0:0:0:
448,192,59227,1,0,0:0:0:0:
192,192,59298,1,0,0:0:0:0:
64,192,59298,1,0,0:0:0:0:
320,192,59369,1,0,0:0:0:0:
448,192,59439,1,0,0:0:0:0:
192,192,59439,1,0,0:0:0:0:
64,192,59487,1,0,0:0:0:0:
320,192,59534,1,0,0:0:0:0:
192,192,59581,1,0,0:0:0:0:
448,192,59628,1,0,0:0:0:0:
320,192,59675,1,0,0:0:0:0:
64,192,59722,1,0,0:0:0:0:
192,192,59722,1,0,0:0:0:0:
448,192,59770,1,0,0:0:0:0:
320,192,59817,1,0,0:0:0:0:
64,192,59864,1,0,0:0:0:0:
448,192,59911,1,0,0:0:0:0:
192,192,59958,1,0,0:0:0:0:
64,192,60005,1,0,0:0:0:0:
320,192,60053,1,0,0:0:0:0:
448,192,60100,1,0,0:0:0:0:
192,192,60147,1,0,0:0:0:0:
320,192,60194,1,0,0:0:0:0:
64,192,60241,1,0,0:0:0:0:
192,192,60288,1,0,0:0:0:0:
448,192,60288,1,0,0:0:0:0:
320,192,60345,1,0,0:0:0:0:
64,192,60402,1,0,0:0:0:0:
320,192,60458,1,0,0:0:0:0:
192,192,60515,1,0,0:0:0:0:
448,192,60571,1,0,0:0:0:0:
192,192,60628,1,0,0:0:0:0:
64,192,60713,1,0,0:0:0:0:
320,192,60713,1,0,0:0:0:0:
448,192,60784,1,0,0:0:0:0:
192,192,60855,1,0,0:0:0:0:
64,192,60855,1,0,0:0:0:0:
320,192,60996,1,0,0:0:0:0:
192,192,61138,1,0,0:0:0:0:
64,192,61138,1,0,0:0:0:0:
448,192,61185,1,0,0:0:0:0:
320,192,61232,1,0,0:0:0:0:
64,192,61279,1,0,0:0:0:0:
448,192,61326,1,0,0:0:0:0:
192,192,61421,1,0,0:0:0:0:
64,192,61421,1,0,0:0:0:0:
320,192,61468,1,0,0:0:0:0:
448,192,61515,1,0,0:0:0:0:
192,192,61562,1,0,0:0:0:0:
64,192,61609,1,0,0:0:0:0:
448,192,61704,1,0,0:0:0:0:
320,192,61704,1,0,0:0:0:0:
64,192,61760,1,0,0:0:0:0:
192,192,61817,1,0,0:0:0:0:
320,192,61873,1,0,0:0:0:0:
448,192,61930,1,0,0:0:0:0:
192,192,61987,1,0,0:0:0:0:
64,192,61987,1,0,0:0:0:0:
320,192,62128,1,0,0:0:0:0:
64,192,62128,1,0,0:0:0:0:
192,192,62175,1,0,0:0:0:0:
448,192,62222,1,0,0:0:0:0:
64,192,62270,1,0,0:0:0:0:
320,192,62317,1,0,0:0:0:0:
448,192,62411,1,0,0:0:0:0:
192,192,62411,1,0,0:0:0:0:
192,192,62553,1,0,0:0:0:0:
64,192,62553,1,0,0:0:0:0:
320,192,62623,1,0,0:0:0:0:
192,192,62694,1,0,0:0:0:0:
64,192,62694,1,0,0:0:0:0:
448,192,62694,1,0,0:0:0:0:
320,192,62765,1,0,0:0:0:0:
192,192,62836,1,0,0:0:0:0:
320,192,62906,1,0,0:0:0:0:
64,192,62977,1,0,0:0:0:0:
448,192,62977,1,0,0:0:0:0:
192,192,63048,1,0,0:0:0:0:
320,192,63119,1,0,0:0:0:0:
448,192,63119,1,0,0:0:0:0:
192,192,63166,1,0,0:0:0:0:
64,192,63213,1,0,0:0:0:0:
320,192,63260,1,0,0:0:0:0:
448,192,63402,1,0,0:0:0:0:
64,192,63402,1,0,0:0:0:0:
192,192,63449,1,0,0:0:0:0:
320,192,63496,1,0,0:0:0:0:
64,192,63543,1,0,0:0:0:0:
320,192,63685,1,0,0:0:0:0:
448,192,63685,1,0,0:0:0:0:
64,192,63732,1,0,0:0:0:0:
192,192,63779,1,0,0:0:0:0:
448,192,63826,1,0,0:0:0:0:
320,192,63968,1,0,0:0:0:0:
192,192,63968,1,0,0:0:0:0:
64,192,64024,1,0,0:0:0:0:
448,192,64081,1,0,0:0:0:0:
192,192,64138,1,0,0:0:0:0:
320,192,64194,1,0,0:0:0:0:
64,192,64251,1,0,0:0:0:0:
448,192,64307,1,0,0:0:0:0:
64,192,64364,1,0,0:0:0:0:
192,192,64421,1,0,0:0:0:0:
320,192,64477,1,0,0:0:0:0:
64,192,64534,1,0,0:0:0:0:
320,192,64590,1,0,0:0:0:0:
448,192,64647,1,0,0:0:0:0:
192,192,64704,1,0,0:0:0:0:
320,192,64760,1,0,0:0:0:0:
448,192,64817,1,0,0:0:0:0:
320,192,64873,1,0,0:0:0:0:
192,192,64930,1,0,0:0:0:0:
64,192,64987,1,0,0:0:0:0:
192,192,65043,1,0,0:0:0:0:
320,192,65100,1,0,0:0:0:0:
448,192,65100,1,0,0:0:0:0:
64,192,65171,1,0,0:0:0:0:
320,192,65241,1,0,0:0:0:0:
64,192,65312,1,0,0:0:0:0:
192,192,65383,1,0,0:0:0:0:
448,192,65383,1,0,0:0:0:0:
320,192,65454,1,0,0:0:0:0:
192,192,65524,1,0,0:0:0:0:
320,192,65595,1,0,0:0:0:0:
64,192,65666,1,0,0:0:0:0:
448,192,65737,1,0,0:0:0:0:
64,192,65807,1,0,0:0:0:0:
192,192,65807,1,0,0:0:0:0:
448,192,65949,1,0,0:0:0:0:
64,192,65949,1,0,0:0:0:0:
192,192,65996,1,0,0:0:0:0:
320,192,66043,1,0,0:0:0:0:
448,192,66090,1,0,0:0:0:0:
192,192,66161,1,0,0:0:0:0:
64,192,66232,1,0,0:0:0:0:
448,192,66232,1,0,0:0:0:0:
320,192,66279,1,0,0:0:0:0:
192,192,66326,1,0,0:0:0:0:
64,192,66373,1,0,0:0:0:0:
448,192,66444,1,0,0:0:0:0:
192,192,66515,1,0,0:0:0:0:
64,192,66515,1,0,0:0:0:0:
320,192,66586,1,0,0:0:0:0:
192,192,66656,1,0,0:0:0:0:
320,192,66798,1,0,0:0:0:0:
448,192,66798,1,0,0:0:0:0:
64,192,66798,1,0,0:0:0:0:
192,192,66869,1,0,0:0:0:0:
320,192,66939,1,0,0:0:0:0:
448,192,67081,1,0,0:0:0:0:
64,192,67081,1,0,0:0:0:0:
320,192,67152,1,0,0:0:0:0:
192,192,67222,1,0,0:0:0:0:
64,192,67364,1,0,0:0:0:0:
192,192,67364,1,0,0:0:0:0:
448,192,67364,1,0,0:0:0:0:
320,192,67421,1,0,0:0:0:0:
64,192,67477,1,0,0:0:0:0:
448,192,67534,1,0,0:0:0:0:
192,192,67590,1,0,0:0:0:0:
320,192,67647,1,0,0:0:0:0:
64,192,67647,1,0,0:0:0:0:
320,192,67788,1,0,0:0:0:0:
448,192,67788,1,0,0:0:0:0:
192,192,67859,1,0,0:0:0:0:
64,192,67930,1,0,0:0:0:0:
448,192,67930,1,0,0:0:0:0:
320,192,67987,1,0,0:0:0:0:
192,192,68043,1,0,0:0:0:0:
448,192,68100,1,0,0:0:0:0:
192,192,68213,1,0,0:0:0:0:
64,192,68213,1,0,0:0:0:0:
320,192,68270,1,0,0:0:0:0:
448,192,68326,1,0,0:0:0:0:
320,192,68496,1,0,0:0:0:0:
448,192,68496,1,0,0:0:0:0:
64,192,68496,1,0,0:0:0:0:
192,192,68567,1,0,0:0:0:0:
448,192,68638,1,0,0:0:0:0:
64,192,68708,1,0,0:0:0:0:
320,192,68779,1,0,0:0:0:0:
192,192,68836,1,0,0:0:0:0:
448,192,68892,1,0,0:0:0:0:
320,192,68949,1,0,0:0:0:0:
64,192,69005,1,0,0:0:0:0:
192,192,69062,1,0,0:0:0:0:
448,192,69119,1,0,0:0:0:0:
192,192,69175,1,0,0:0:0:0:
320,192,69232,1,0,0:0:0:0:
448,192,69288,1,0,0:0:0:0:
64,192,69345,1,0,0:0:0:0:
320,192,69402,1,0,0:0:0:0:
64,192,69458,1,0,0:0:0:0:
448,192,69515,1,0,0:0:0:0:
320,192,69571,1,0,0:0:0:0:
192,192,69628,1,0,0:0:0:0:
64,192,69628,1,0,0:0:0:0:
448,192,69770,1,0,0:0:0:0:
320,192,69911,1,0,0:0:0:0:
64,192,69911,1,0,0:0:0:0:
192,192,70053,1,0,0:0:0:0:
448,192,70194,1,0,0:0:0:0:
448,192,70336,1,0,0:0:0:0:
64,192,70336,1,0,0:0:0:0:
320,192,70477,1,0,0:0:0:0:
192,192,70477,1,0,0:0:0:0:
64,192,70524,1,0,0:0:0:0:
448,192,70571,1,0,0:0:0:0:
320,192,70619,1,0,0:0:0:0:
64,192,70689,1,0,0:0:0:0:
192,192,70760,1,0,0:0:0:0:
320,192,70760,1,0,0:0:0:0:
448,192,70807,1,0,0:0:0:0:
64,192,70855,1,0,0:0:0:0:
192,192,70902,1,0,0:0:0:0:
448,192,70987,1,0,0:0:0:0:
192,192,71043,1,0,0:0:0:0:
320,192,71043,1,0,0:0:0:0:
64,192,71100,1,0,0:0:0:0:
448,192,71156,1,0,0:0:0:0:
192,192,71213,1,0,0:0:0:0:
320,192,71326,1,0,0:0:0:0:
448,192,71326,1,0,0:0:0:0:
64,192,71326,1,0,0:0:0:0:
192,192,71383,1,0,0:0:0:0:
448,192,71439,1,0,0:0:0:0:
64,192,71496,1,0,0:0:0:0:
320,192,71609,1,0,0:0:0:0:
192,192,71609,1,0,0:0:0:0:
64,192,71656,1,0,0:0:0:0:
448,192,71704,1,0,0:0:0:0:
320,192,71751,1,0,0:0:0:0:
192,192,71892,1,0,0:0:0:0:
64,192,71892,1,0,0:0:0:0:
448,192,71892,1,0,0:0:0:0:
320,192,71963,1,0,0:0:0:0:
192,192,72034,1,0,0:0:0:0:
64,192,72081,1,0,0:0:0:0:
320,192,72128,1,0,0:0:0:0:
448,192,72175,1,0,0:0:0:0:
64,192,72222,1,0,0:0:0:0:
192,192,72270,1,0,0:0:0:0:
320,192,72317,1,0,0:0:0:0:
448,192,72317,1,0,0:0:0:0:
192,192,72388,1,0,0:0:0:0:
64,192,72458,1,0,0:0:0:0:
320,192,72458,1,0,0:0:0:0:
448,192,72529,1,0,0:0:0:0:
320,192,72600,1,0,0:0:0:0:
64,192,72741,1,0,0:0:0:0:
448,192,72741,1,0,0:0:0:0:
192,192,72788,1,0,0:0:0:0:
320,192,72855,1,0,0:0:0:0:
64,192,72954,1,0,0:0:0:0:
320,192,73024,1,0,0:0:0:0:
448,192,73024,1,0,0:0:0:0:
192,192,73024,1,0,0:0:0:0:
64,192,73095,1,0,0:0:0:0:
320,192,73166,1,0,0:0:0:0:
192,192,73237,1,0,0:0:0:0:
448,192,73307,1,0,0:0:0:0:
192,192,73364,1,0,0:0:0:0:
320,192,73421,1,0,0:0:0:0:
448,192,73477,1,0,0:0:0:0:
64,192,73534,1,0,0:0:0:0:
320,192,73590,1,0,0:0:0:0:
192,192,73647,1,0,0:0:0:0:
448,192,73732,1,0,0:0:0:0:
64,192,73732,1,0,0:0:0:0:
192,192,73817,1,0,0:0:0:0:
320,192,73873,1,0,0:0:0:0:
64,192,73944,1,0,0:0:0:0:
320,192,74015,1,0,0:0:0:0:
448,192,74015,1,0,0:0:0:0:
192,192,74086,1,0,0:0:0:0:
64,192,74086,1,0,0:0:0:0:
448,192,74156,1,0,0:0:0:0:
320,192,74156,1,0,0:0:0:0:
192,192,74213,1,0,0:0:0:0:
64,192,74270,1,0,0:0:0:0:
448,192,74326,1,0,0:0:0:0:
192,192,74383,1,0,0:0:0:0:
320,192,74439,1,0,0:0:0:0:
448,192,74439,1,0,0:0:0:0:
64,192,74496,1,0,0:0:0:0:
192,192,74553,1,0,0:0:0:0:
64,192,74722,1,0,0:0:0:0:
448,192,74864,1,0,0:0:0:0:
320,192,74864,1,0,0:0:0:0:
64,192,75005,1,0,0:0:0:0:
448,192,75076,1,0,0:0:0:0:
192,192,75147,1,0,0:0:0:0:
64,192,75147,1,0,0:0:0:0:
320,192,75218,1,0,0:0:0:0:
448,192,75218,1,0,0:0:0:0:
192,192,75288,1,0,0:0:0:0:
64,192,75288,1,0,0:0:0:0:
448,192,75345,1,0,0:0:0:0:
320,192,75402,1,0,0:0:0:0:
192,192,75458,1,0,0:0:0:0:
64,192,75515,1,0,0:0:0:0:
448,192,75571,1,0,0:0:0:0:
320,192,75571,1,0,0:0:0:0:
192,192,75571,1,0,0:0:0:0:
320,192,75713,1,0,0:0:0:0:
64,192,75855,1,0,0:0:0:0:
448,192,75855,1,0,0:0:0:0:
320,192,75925,1,0,0:0:0:0:
192,192,75925,1,0,0:0:0:0:
64,192,75996,1,0,0:0:0:0:
448,192,75996,1,0,0:0:0:0:
192,192,76138,1,0,0:0:0:0:
64,192,76138,1,0,0:0:0:0:
192,192,76279,1,0,0:0:0:0:
320,192,76279,1,0,0:0:0:0:
448,192,76279,1,0,0:0:0:0:
64,192,76350,1,0,0:0:0:0:
448,192,76421,1,0,0:0:0:0:
192,192,76477,1,0,0:0:0:0:
320,192,76534,1,0,0:0:0:0:
64,192,76704,1,0,0:0:0:0:
320,192,76751,1,0,0:0:0:0:
192,192,76798,1,0,0:0:0:0:
320,192,76906,1,0,0:0:0:0:
192,192,77027,1,0,0:0:0:0:
64,192,77553,5,0,0:0:0:0:
448,192,77553,1,0,0:0:0:0:
320,192,77553,1,0,0:0:0:0:
192,192,77694,128,0,77765:0:0:0:0:
320,192,77836,128,0,77906:0:0:0:0:
192,192,77977,128,0,78048:0:0:0:0:
448,192,78119,128,0,78189:0:0:0:0:
320,192,78260,128,0,78331:0:0:0:0:
64,192,78402,128,0,78472:0:0:0:0:
192,192,78543,1,0,0:0:0:0:
320,192,78543,1,0,0:0:0:0:
448,192,78685,128,0,78755:0:0:0:0:
192,192,78826,128,0,78897:0:0:0:0:
64,192,78968,1,0,0:0:0:0:
320,192,78968,128,0,79251:0:0:0:0:
448,192,78968,128,0,79251:0:0:0:0:
192,192,79251,1,0,0:0:0:0:
64,192,79392,1,0,0:0:0:0:
448,192,79392,1,0,0:0:0:0:
320,192,79534,1,0,0:0:0:0:
192,192,79675,1,0,0:0:0:0:
64,192,79675,1,0,0:0:0:0:
320,192,79817,1,0,0:0:0:0:
448,192,79817,1,0,0:0:0:0:
192,192,79958,1,0,0:0:0:0:
64,192,80100,128,0,80171:0:0:0:0:
448,192,80171,128,0,80241:0:0:0:0:
64,192,80241,128,0,80312:0:0:0:0:
448,192,80312,128,0,80383:0:0:0:0:
192,192,80383,128,0,80454:0:0:0:0:
64,192,80524,128,0,80595:0:0:0:0:
448,192,80666,128,0,80737:0:0:0:0:
320,192,80807,1,0,0:0:0:0:
64,192,80807,1,0,0:0:0:0:
192,192,80949,128,0,81020:0:0:0:0:
320,192,81090,1,0,0:0:0:0:
448,192,81232,1,0,0:0:0:0:
192,192,81232,128,0,81515:0:0:0:0:
64,192,81232,128,0,81515:0:0:0:0:
320,192,81373,128,0,81444:0:0:0:0:
448,192,81515,128,0,81586:0:0:0:0:
320,192,81656,1,0,0:0:0:0:
192,192,81656,1,0,0:0:0:0:
64,192,81798,1,0,0:0:0:0:
320,192,81939,1,0,0:0:0:0:
64,192,82081,1,0,0:0:0:0:
448,192,82081,1,0,0:0:0:0:
192,192,82222,1,0,0:0:0:0:
320,192,82364,128,0,82435:0:0:0:0:
192,192,82435,128,0,82505:0:0:0:0:
320,192,82505,128,0,82576:0:0:0:0:
192,192,82576,128,0,82647:0:0:0:0:
448,192,82647,128,0,82718:0:0:0:0:
320,192,82788,128,0,82859:0:0:0:0:
448,192,82930,128,0,83001:0:0:0:0:
192,192,83071,1,0,0:0:0:0:
320,192,83071,1,0,0:0:0:0:
64,192,83213,128,0,83284:0:0:0:0:
192,192,83355,1,0,0:0:0:0:
64,192,83496,1,0,0:0:0:0:
320,192,83496,128,0,83779:0:0:0:0:
448,192,83496,128,0,83779:0:0:0:0:
192,192,83779,128,0,83850:0:0:0:0:
64,192,83921,1,0,0:0:0:0:
448,192,83921,1,0,0:0:0:0:
192,192,84062,128,0,84133:0:0:0:0:
320,192,84204,1,0,0:0:0:0:
64,192,84345,1,0,0:0:0:0:
448,192,84345,1,0,0:0:0:0:
192,192,84487,1,0,0:0:0:0:
64,192,84628,128,0,84699:0:0:0:0:
192,192,84699,128,0,84770:0:0:0:0:
448,192,84770,128,0,84840:0:0:0:0:
320,192,84840,128,0,84911:0:0:0:0:
192,192,84911,128,0,84982:0:0:0:0:
64,192,85053,128,0,85123:0:0:0:0:
448,192,85194,128,0,85265:0:0:0:0:
320,192,85336,1,0,0:0:0:0:
192,192,85336,1,0,0:0:0:0:
64,192,85336,1,0,0:0:0:0:
64,192,86043,1,0,0:0:0:0:
320,192,86185,1,0,0:0:0:0:
448,192,86326,1,0,0:0:0:0:
192,192,86468,1,0,0:0:0:0:
320,192,87175,1,0,0:0:0:0:
64,192,87175,1,0,0:0:0:0:
