osu file format v14

[General]
AudioFilename: audio.mp3
AudioLeadIn: 0
PreviewTime: 390
Countdown: 0
SampleSet: Soft
StackLeniency: 0.7
Mode: 0
LetterboxInBreaks: 0
WidescreenStoryboard: 1

[Editor]
DistanceSpacing: 1.3
BeatDivisor: 4
GridSize: 32
TimelineZoom: 2

[Metadata]
Title:Paper Bouquet
TitleUnicode:Paper Bouquet
Artist:Mili
ArtistUnicode:Mili
Creator:SMOKELIND
Version:frozz's Hard
Source:処刑少女の生きる道
Tags:momocashew cassie wei projectmili yamato kasai hamo project rock english conlang opening op バージンロード anime The Executioner and Her Way of Life Mocaotic frozz -Keqing Chills Hey Lululu Hey_lululu shokei shōjo shoujo no ikiru michi
BeatmapID:3598544
BeatmapSetID:1735006

[Difficulty]
HPDrainRate:4
CircleSize:3.5
OverallDifficulty:6
ApproachRate:8
SliderMultiplier:1.4
SliderTickRate:1

[Events]
//Background and Video events
0,0,"BG.jpg",0,0
//Break Periods
2,100302,106145
2,141057,148456
//Storyboard Layer 0 (Background)
//Storyboard Layer 1 (Fail)
//Storyboard Layer 2 (Pass)
//Storyboard Layer 3 (Foreground)
//Storyboard Layer 4 (Overlay)
//Storyboard Sound Samples

[TimingPoints]
480,283.018867924528,4,2,77,27,1,0
9536,-100,4,2,77,77,0,0
16258,-100,4,2,77,5,0,0
16329,-100,4,2,77,77,0,0
16895,-125,4,2,77,77,0,0
17319,-153.846153846154,4,2,77,77,0,0
18593,-142.857142857143,4,2,77,47,0,0
19583,-166.666666666667,4,2,77,47,0,0
20857,-125,4,2,77,77,0,0
32178,-125,4,2,77,67,0,0
36706,-125,4,2,77,57,0,0
41234,-125,4,2,77,67,0,0
43498,-111.111111111111,4,2,77,77,0,0
45763,-100,4,2,77,87,0,0
48027,-90.9090909090909,4,2,77,87,0,0
50291,-83.3333333333333,4,2,77,87,0,0
50503,-83.3333333333333,4,2,77,5,0,0
50574,-83.3333333333333,4,2,77,87,0,0
51918,-83.3333333333333,4,2,77,5,0,0
51989,-83.3333333333333,4,2,77,87,0,0
52484,-83.3333333333333,4,2,77,5,0,0
52555,-83.3333333333333,4,2,77,87,0,0
54748,-83.3333333333333,4,2,77,5,0,0
54819,-83.3333333333333,4,2,77,87,0,0
56446,-83.3333333333333,4,2,77,5,0,0
56517,-83.3333333333333,4,2,77,87,0,0
57012,-83.3333333333333,4,2,77,5,0,0
57083,-83.3333333333333,4,2,77,87,0,0
58710,-83.3333333333333,4,2,77,5,0,0
58781,-83.3333333333333,4,2,77,87,0,0
60975,-83.3333333333333,4,2,77,5,0,0
61046,-83.3333333333333,4,2,77,87,0,0
61541,-83.3333333333333,4,2,77,5,0,0
61612,-83.3333333333333,4,2,77,87,0,0
62248,-83.3333333333333,4,2,77,5,0,0
62319,-83.3333333333333,4,2,77,87,0,0
63876,-83.3333333333333,4,2,77,77,0,0
70597,-83.3333333333333,4,2,77,5,0,0
70668,-83.3333333333333,4,2,77,77,0,0
71163,-83.3333333333333,4,2,77,5,0,0
71234,-83.3333333333333,4,2,77,77,0,0
71729,-83.3333333333333,4,2,77,5,0,0
71800,-83.3333333333333,4,2,77,77,0,0
76612,-83.3333333333333,4,2,77,27,0,0
77461,-111.111111111111,4,2,77,57,0,0
86517,-166.666666666666,4,2,77,47,0,0
88781,-125,4,2,77,77,0,0
100101,-125,4,2,77,47,0,0
106895,-200,4,2,77,47,0,0
107461,-166.666666666667,4,2,77,47,0,0
108027,-142.857142857143,4,2,77,47,0,0
108593,-125,4,2,77,47,0,0
109159,-125,4,2,77,57,0,0
122743,-125,4,2,77,67,0,0
127271,-125,4,2,77,57,0,0
131799,-125,4,2,77,67,0,0
134064,-111.111111111111,4,2,77,77,0,0
136329,-99.9999999999999,4,2,77,87,0,0
138593,-90.9090909090909,4,2,77,87,0,0
140291,-125,4,2,77,87,0,0
140856,-125,4,2,77,27,0,0
149206,-125,4,2,77,87,0,0
149842,-125,4,2,77,5,0,0
149913,-83.3333333333333,4,2,77,87,0,0
151541,-83.3333333333333,4,2,77,5,0,0
151612,-83.3333333333333,4,2,77,87,0,0
152107,-83.3333333333333,4,2,77,5,0,0
152178,-83.3333333333333,4,2,77,87,0,0
154371,-83.3333333333333,4,2,77,5,0,0
154442,-83.3333333333333,4,2,77,87,0,0
156918,-83.3333333333333,4,2,77,5,0,0
156989,-83.3333333333333,4,2,77,87,0,0
157484,-83.3333333333333,4,2,77,5,0,0
157555,-83.3333333333333,4,2,77,87,0,0
159465,-83.3333333333333,4,2,77,5,0,0
159536,-83.3333333333333,4,2,77,87,0,0
161729,-83.3333333333333,4,2,77,5,0,0
161800,-83.3333333333333,4,2,77,87,0,0
162295,-83.3333333333333,4,2,77,5,0,0
162366,-83.3333333333333,4,2,77,87,0,0
164559,-83.3333333333333,4,2,77,5,0,0
164630,-83.3333333333333,4,2,77,87,0,0
166258,-83.3333333333333,4,2,77,5,0,0
166329,-83.3333333333333,4,2,77,87,0,0
166824,-83.3333333333333,4,2,77,5,0,0
166895,-83.3333333333333,4,2,77,87,0,0
169371,-83.3333333333333,4,2,77,5,0,0
169442,-83.3333333333333,4,2,77,87,0,0
170786,-83.3333333333333,4,2,77,5,0,0
170857,-83.3333333333333,4,2,77,87,0,0
171352,-83.3333333333333,4,2,77,5,0,0
171423,-83.3333333333333,4,2,77,87,0,0
173616,-83.3333333333333,4,2,77,5,0,0
173687,-83.3333333333333,4,2,77,77,0,0
180408,-83.3333333333333,4,2,77,5,0,0
180479,-83.3333333333333,4,2,77,77,0,0
180975,-83.3333333333333,4,2,77,5,0,0
181046,-83.3333333333333,4,2,77,77,0,0
181541,-83.3333333333333,4,2,77,5,0,0
181612,-83.3333333333333,4,2,77,77,0,0
186423,-83.3333333333333,4,2,77,27,0,0
186989,-166.666666666667,4,2,77,27,0,0
187272,-166.666666666667,4,2,77,57,0,0
196329,-166.666666666667,4,2,77,47,0,0

[Colours]
Combo1 : 121,121,255
Combo2 : 223,223,223

[HitObjects]
464,225,9536,6,0,P|396:235|325:257,1,140,0|2,1:3|0:0,0:0:0:0:
249,292,9961,1,10,0:0:0:0:
249,292,10102,2,0,P|237:344|230:389,1,70,2|2,1:0|0:0,0:0:0:0:
137,376,10385,1,2,0:0:0:0:
137,376,10527,2,0,P|157:286|169:209,1,140,2|10,1:0|0:0,0:0:0:0:
139,158,10951,1,2,1:0:0:0:
315,113,11234,2,0,L|395:136,1,70,2|8,0:0|0:0,0:0:0:0:
412,52,11517,2,0,L|332:29,1,70,2|2,0:0|0:0,0:0:0:0:
228,40,11800,6,0,P|245:107|258:209,1,140,2|2,1:3|0:0,0:0:0:0:
325,248,12225,1,10,0:0:0:0:
325,248,12366,2,0,P|370:262|416:276,1,70,2|2,0:0|0:0,0:0:0:0:
398,363,12649,1,2,0:0:0:0:
398,363,12791,2,0,P|321:339|242:315,1,140,2|10,1:0|0:0,0:0:0:0:
178,347,13215,1,2,1:0:0:0:
33,260,13498,2,0,L|23:190,1,70,10|2,0:0|0:0,0:0:0:0:
103,124,13781,2,0,L|112:193,1,70,2|2,0:0|0:0,0:0:0:0:
209,229,14064,6,0,P|254:209|267:107,1,140,6|2,1:0|0:0,0:0:0:0:
235,47,14489,1,10,0:0:0:0:
235,47,14630,2,0,P|284:38|324:23,1,70,2|2,1:0|3:2,0:0:0:0:
407,11,14913,1,2,3:2:0:0:
407,11,15055,2,0,P|377:94|364:169,1,140,2|8,1:3|0:0,0:0:0:0:
427,221,15479,2,0,L|514:206,2,70,2|8|8,1:0|0:0|0:0,0:0:0:0:
374,303,15904,1,8,0:0:0:0:
374,303,16046,2,0,L|251:281,1,105,0|0,3:0|0:0,0:0:0:0:
261,256,16329,6,0,P|178:280|169:336,1,140,6|0,1:0|0:0,0:0:0:0:
72,328,16753,1,8,0:3:0:0:
72,328,16824,1,8,0:3:0:0:
72,328,16895,2,0,L|78:398,2,56,8|8|12,0:3|0:3|0:3,0:0:0:0:
62,216,17319,6,0,B|138:172|213:223|189:275|260:312|345:271|345:271|303:240|253:259,1,409.499981254579,4|2,1:0|0:0,0:0:0:0:
488,42,19583,2,0,B|512:103|453:143|442:110|403:169|433:239,1,209.999993591309,2|2,0:0|0:0,0:0:0:0:
509,235,20432,2,0,L|495:326,1,83.9999974365235
403,340,20857,6,0,P|358:350|327:362,1,56,10|0,0:0|1:0,0:0:0:0:
271,384,21140,1,10,0:0:0:0:
204,328,21281,1,2,1:3:0:0:
321,190,21564,1,2,1:3:0:0:
154,62,21847,6,0,L|141:195,1,112,6|10,1:0|0:0,0:0:0:0:
80,243,22272,2,0,P|26:259|4:269,1,56,4|2,1:0|0:0,0:0:0:0:
0,351,22555,1,8,0:0:0:0:
0,351,22696,2,0,L|120:379,1,112,2|0,1:0|0:0,0:0:0:0:
210,369,23121,6,0,B|242:307|184:262|177:285|122:242|149:165,1,224,6|10,1:0|0:0,0:0:0:0:
274,67,23970,1,0,0:0:0:0:
274,67,24112,2,0,P|319:80|402:69,1,112,2|8,1:0|0:0,0:0:0:0:
446,20,24536,1,2,1:3:0:0:
395,160,24819,2,0,L|420:293,1,112,10|0,0:0|0:0,0:0:0:0:
469,357,25244,5,0,0:0:0:0:
469,357,25314,1,0,0:0:0:0:
469,357,25385,2,0,P|432:328|350:327,1,112,2|0,1:0|1:0,0:0:0:0:
293,373,25810,1,0,0:0:0:0:
293,373,25951,2,0,L|172:360,1,112,8|0,0:0|0:0,0:0:0:0:
92,327,26376,6,0,P|158:299|176:261,1,112,0|8,1:0|0:0,0:0:0:0:
154,181,26800,2,0,L|147:111,1,56,2|0,1:3|0:0,0:0:0:0:
233,88,27083,2,0,L|244:199,1,112,10|2,0:0|0:0,0:0:0:0:
320,272,27508,5,0,0:0:0:0:
320,272,27579,1,0,0:0:0:0:
320,272,27649,2,0,P|370:282|422:338,2,112,6|0|8,1:0|1:0|0:0,0:0:0:0:
375,123,28498,5,2,0:0:0:0:
375,123,28640,2,0,P|410:114|488:95,1,112,2|10,1:3|0:0,0:0:0:0:
428,18,29064,2,0,P|388:30|350:40,1,56,0|2,1:0|0:0,0:0:0:0:
293,75,29347,1,8,0:0:0:0:
219,14,29489,2,0,L|150:-3,2,56,2|2|0,0:0|0:0|0:0,0:0:0:0:
199,105,29913,6,0,L|229:234,1,112,2|0,1:0|1:0,0:0:0:0:
229,315,30338,1,2,0:0:0:0:
229,315,30479,2,0,P|201:275|128:265,1,112,8|0,0:0|0:0,0:0:0:0:
71,309,30904,5,0,1:0:0:0:
0,160,31187,1,8,0:0:0:0:
48,82,31329,2,0,L|111:89,1,56,0|8,1:0|0:0,0:0:0:0:
103,88,31541,1,8,0:0:0:0:
103,88,31612,1,8,0:0:0:0:
174,20,31753,1,8,0:0:0:0:
252,70,31895,2,0,P|277:62|309:46,1,56,2|0,1:3|3:0,0:0:0:0:
405,43,32178,6,0,P|354:97|347:154,1,112,6|0,1:0|0:0,0:0:0:0:
259,185,32602,1,0,1:0:0:0:
259,185,32744,2,0,L|279:310,1,112,8|2,0:0|0:0,0:0:0:0:
341,368,33168,6,0,P|388:372|441:307,1,112,2|8,1:0|0:0,0:0:0:0:
397,251,33593,1,0,1:0:0:0:
497,92,33876,1,10,0:0:0:0:
457,11,34017,2,0,L|391:20,2,56
497,92,34442,6,0,P|449:109|365:103,2,112,2|0|8,1:0|1:0|0:0,0:0:0:0:
307,49,35291,2,0,P|264:60|238:62,1,56,2|0,0:0|1:0,0:0:0:0:
161,65,35574,2,0,L|173:-1,2,56,2|0|0,0:0|3:0|1:0,0:0:0:0:
67,77,35998,1,2,0:0:0:0:
67,77,36140,2,0,B|45:133|93:166|94:143|132:190|115:236,1,168,14|0,0:0|0:0,0:0:0:0:
43,290,36706,6,0,P|98:304|161:331,1,112,10|0,1:2|3:0,0:0:0:0:
221,284,37130,1,0,0:0:0:0:
279,343,37272,2,0,L|273:373,4,28,10|0|0|0|0,3:2|3:2|3:2|3:2|3:2,0:0:0:0:
359,303,37696,5,2,3:2:0:0:
359,303,37838,2,0,P|346:228|335:182,1,112,10|0,1:2|3:0,0:0:0:0:
387,111,38263,1,2,0:0:0:0:
311,72,38404,2,0,L|276:81,4,28,10|0|0|0|0,3:2|3:2|3:2|3:2|3:2,0:0:0:0:
375,7,38829,5,2,3:2:0:0:
375,7,38970,2,0,P|418:21|473:63,1,112,10|0,1:2|3:0,0:0:0:0:
506,135,39395,1,2,0:0:0:0:
442,192,39536,2,0,L|452:233,4,28,10|0|0|0|0,0:0|3:0|3:0|3:0|3:2,0:0:0:0:
472,311,39961,5,2,3:2:0:0:
472,311,40031,1,0,3:2:0:0:
472,311,40102,2,0,P|438:281|361:268,1,112,2|8,1:2|0:0,0:0:0:0:
299,322,40527,1,2,0:0:0:0:
239,254,40668,2,0,B|170:244|119:231|119:231|70:266,1,168,10|0,0:0|0:0,0:0:0:0:
0,217,41234,6,0,L|18:346,2,112,4|0|4,1:0|0:0|0:3,0:0:0:0:
117,71,42083,1,4,0:3:0:0:
269,170,42366,2,0,L|347:156,1,56,4|0,0:3|0:0,0:0:0:0:
399,105,42649,2,0,L|347:44,1,56,4|0,0:3|0:0,0:0:0:0:
455,33,42932,2,0,L|533:19,1,56,4|0,0:3|0:0,0:0:0:0:
490,122,43215,2,0,L|482:160,2,28,8|4|0,0:3|0:3|0:0,0:0:0:0:
414,203,43498,6,0,L|447:339,2,125.999996154785,4|4|4,1:0|0:3|0:3,0:0:0:0:
241,144,44347,1,4,0:3:0:0:
95,253,44630,2,0,L|108:324,1,62.9999980773926,4|0,0:3|0:0,0:0:0:0:
191,304,44913,2,0,L|262:317,1,62.9999980773926,4|0,0:3|0:0,0:0:0:0:
335,293,45196,2,0,L|348:364,1,62.9999980773926,8|4,0:0|0:3,0:0:0:0:
440,363,45479,1,4,0:3:0:0:
440,363,45550,1,4,0:3:0:0:
440,363,45621,1,4,0:3:0:0:
512,283,45763,6,0,L|490:139,2,140,12|0|4,0:0|0:0|0:3,0:0:0:0:
328,366,46612,1,8,0:0:0:0:
182,293,46895,2,0,L|197:225,1,70,8|0,1:2|0:0,0:0:0:0:
111,192,47178,2,0,L|95:124,1,70,8|0,0:0|0:0,0:0:0:0:
182,103,47461,2,0,L|197:35,1,70,8|0,0:0|0:0,0:0:0:0:
108,14,47744,2,0,L|41:-1,1,70,8|0,0:0|0:0,0:0:0:0:
0,80,48027,5,14,1:2:0:0:
93,276,48310,1,8,0:0:0:0:
37,346,48451,1,8,0:0:0:0:
37,346,48522,1,8,0:0:0:0:
37,346,48593,2,0,L|55:397,4,38.5000011749268,4|4|4|4|12,0:3|0:3|0:3|0:3|0:3,0:0:0:0:
93,276,49017,6,0,P|143:278|226:345,1,154.000004699707,14|0,1:2|0:0,0:0:0:0:
298,299,49442,1,8,1:2:0:0:
377,362,49583,1,8,0:0:0:0:
377,362,49654,1,8,0:0:0:0:
377,362,49725,2,0,L|431:355,3,38.5000011749268,10|8|8|8,1:2|0:0|0:0|0:0,0:0:0:0:
461,319,50008,2,0,L|468:265,3,38.5000011749268,10|8|8|8,1:2|0:0|0:0|0:0,0:0:0:0:
427,232,50291,6,0,B|408:210|408:210|427:90,1,125.999996154785,6|0,1:0|0:0,0:0:0:0:
437,104,50574,2,0,P|427:47|325:41,1,167.999994873047,8|0,0:0|1:0,0:0:0:0:
267,101,50998,1,0,1:0:0:0:
186,45,51140,1,10,0:0:0:0:
101,110,51281,6,0,L|124:285,1,167.999994873047,0|0,1:0|1:0,0:0:0:0:
134,376,51706,2,0,P|161:322|249:307,1,125.999996154785,8|0,0:0|0:0,0:0:0:0:
237,303,51989,2,0,L|262:408,1,83.9999974365235,2|0,1:0|1:0,0:0:0:0:
346,324,52272,2,0,L|377:192,1,125.999996154785,10|0,0:0|0:0,0:0:0:0:
390,195,52555,6,0,B|411:150|381:119|372:128|335:86|350:43,1,167.999994873047,2|8,1:0|0:0,0:0:0:0:
431,0,52979,1,2,0:0:0:0:
500,73,53121,2,0,L|481:176,1,83.9999974365235,2|0,1:0|1:0,0:0:0:0:
465,244,53404,1,10,0:0:0:0:
512,345,53546,6,0,P|474:294|358:273,1,167.999994873047,4|0,1:0|1:0,0:0:0:0:
303,339,53970,2,0,B|330:310|330:310|314:158,1,167.999994873047,10|0,0:0|1:0,0:0:0:0:
235,123,54395,1,0,1:0:0:0:
147,152,54536,2,0,P|105:136|104:47,1,125.999996154785,10|0,0:0|0:0,0:0:0:0:
105,47,54819,6,0,B|183:35|183:35|187:38|187:38|287:24,2,167.999994873047,2|8|0,1:0|0:0|0:0,0:0:0:0:
27,116,55527,2,0,P|13:180|0:221,1,83.9999974365235,0|10,1:0|0:0,0:0:0:0:
13,309,55810,6,0,P|31:246|138:244,1,167.999994873047,2|0,1:0|1:0,0:0:0:0:
218,215,56234,2,0,L|188:363,1,125.999996154785,8|0,0:0|0:0,0:0:0:0:
212,354,56517,2,0,P|262:336|313:310,1,83.9999974365235,2|0,1:0|1:0,0:0:0:0:
381,360,56800,2,0,P|387:296|399:233,1,125.999996154785,10|0,0:0|0:0,0:0:0:0:
416,230,57083,6,0,P|467:200|463:85,1,167.999994873047,2|12,1:0|0:0,0:0:0:0:
224,74,57649,1,8,0:0:0:0:
224,74,57720,1,8,0:3:0:0:
224,74,57791,2,0,P|175:63|129:47,1,83.9999974365235,0|8,1:0|0:0,0:0:0:0:
38,22,58074,6,0,P|81:58|127:176,1,167.999994873047,6|0,1:0|1:0,0:0:0:0:
217,194,58498,2,0,L|355:170,1,125.999996154785,8|0,0:0|0:0,0:0:0:0:
359,169,58781,1,2,1:0:0:0:
422,261,58923,1,8,0:0:0:0:
422,261,58994,1,8,0:0:0:0:
422,261,59064,2,0,L|409:322,3,41.9999987182618,10|8|8|8,1:2|0:0|0:0|0:0,0:0:0:0:
357,331,59347,6,0,P|399:340|534:376,2,167.999994873047,6|8|0,1:0|0:0|1:0,0:0:0:0:
275,279,60055,1,0,1:0:0:0:
188,330,60196,1,10,0:0:0:0:
102,277,60338,6,0,B|87:227|131:187|132:211|164:175|144:102,1,167.999994873047,0|0,1:0|1:0,0:0:0:0:
169,34,60763,2,0,P|145:8|56:22,1,125.999996154785,8|0,0:0|0:0,0:0:0:0:
54,31,61046,2,0,L|35:136,1,83.9999974365235,2|0,1:0|1:0,0:0:0:0:
38,217,61329,2,0,L|195:188,1,125.999996154785,10|0,0:0|0:0,0:0:0:0:
175,183,61612,6,0,P|240:185|269:289,1,167.999994873047,2|8,1:0|0:0,0:0:0:0:
300,374,62036,2,0,P|337:304|414:276,1,125.999996154785,2|0,0:0|0:0,0:0:0:0:
394,283,62319,2,0,P|403:319|406:373,1,83.9999974365235,2|10,1:0|0:0,0:0:0:0:
494,323,62602,6,0,L|512:140,1,167.999994873047,4|0,1:0|1:0,0:0:0:0:
428,112,63027,2,0,P|381:130|347:162,1,83.9999974365235,10|0,0:0|0:0,0:0:0:0:
261,186,63310,2,0,P|268:136|258:90,1,83.9999974365235,2|0,1:0|1:0,0:0:0:0:
280,4,63593,2,0,P|319:35|363:49,1,83.9999974365235,10|0,0:0|0:0,0:0:0:0:
460,31,63876,6,0,P|502:47|490:171,1,167.999994873047,6|8,1:0|0:0,0:0:0:0:
356,273,64442,1,0,1:0:0:0:
356,273,64583,2,0,P|303:260|244:251,1,83.9999974365235,0|0,1:0|0:0,0:0:0:0:
178,243,64866,1,8,0:0:0:0:
178,243,65008,2,0,P|228:228|344:177,1,167.999994873047,2|8,1:0|0:0,0:0:0:0:
98,163,65574,2,0,P|129:106|145:71,1,83.9999974365235,0|0,1:0|1:0,0:0:0:0:
79,9,65857,6,0,P|37:62|-4:177,1,167.999994873047,10|6,0:0|1:0,0:0:0:0:
196,173,66423,5,8,0:0:0:0:
196,173,66494,1,0,0:0:0:0:
196,173,66564,2,0,P|123:198|84:217,1,83.9999974365235,0|6,0:0|1:0,0:0:0:0:
317,366,66989,6,0,P|250:342|133:331,1,167.999994873047,10|6,0:0|1:0,0:0:0:0:
326,208,67555,5,8,0:0:0:0:
392,266,67696,1,8,0:0:0:0:
475,243,67838,2,0,L|467:157,2,83.9999974365235,2|0|8,1:0|1:0|0:0,0:0:0:0:
205,257,68404,6,0,P|150:281|68:379,2,167.999994873047,6|8|0,1:0|0:0|1:0,0:0:0:0:
289,290,69112,1,0,1:0:0:0:
130,169,69395,1,8,0:0:0:0:
221,158,69536,2,0,P|274:113|296:11,1,167.999994873047,0|8,1:0|0:0,0:0:0:0:
410,169,70102,2,0,P|451:175|491:188,1,83.9999974365235,0|0,1:0|1:0,0:0:0:0:
512,278,70385,6,0,L|362:320,1,125.999996154785,10|0,0:0|0:0,0:0:0:0:
374,320,70668,1,6,1:0:0:0:
301,152,70951,6,0,L|192:263,1,125.999996154785,8|0,0:0|0:0,0:0:0:0:
202,257,71234,1,6,1:0:0:0:
54,148,71517,6,0,L|15:298,1,125.999996154785,10|0,0:0|0:0,0:0:0:0:
21,288,71800,1,6,1:0:0:0:
206,369,72083,5,8,0:0:0:0:
283,319,72225,1,8,0:0:0:0:
361,368,72366,2,0,L|468:389,2,83.9999974365235,2|4|8,1:0|0:3|0:0,0:0:0:0:
115,311,72932,6,0,P|102:242|90:206,1,83.9999974365235,6|0,1:0|0:0,0:0:0:0:
137,141,73215,2,0,P|203:164|240:171,1,83.9999974365235,8|0,0:0|0:0,0:0:0:0:
273,245,73498,2,0,P|219:290|194:319,2,83.9999974365235,0|8|0,0:0|0:0|0:0,0:0:0:0:
315,146,73923,5,8,0:0:0:0:
315,146,73994,1,8,0:0:0:0:
315,146,74064,2,0,P|403:113|456:43,2,167.999994873047,0|8|0,1:0|0:0|0:0,0:0:0:0:
237,80,74772,1,8,0:0:0:0:
157,117,74913,2,0,L|174:220,1,83.9999974365235,2|8,0:0|0:0,0:0:0:0:
170,199,75126,1,8,0:0:0:0:
170,199,75196,6,0,P|225:178|235:77,1,167.999994873047,2|12,1:0|0:0,0:0:0:0:
49,63,75763,1,8,0:0:0:0:
49,63,75833,1,8,0:3:0:0:
49,63,75904,2,0,L|66:166,1,83.9999974365235,4|10,0:3|0:0,0:0:0:0:
29,243,76187,6,0,B|94:226|134:276|105:279|151:334|216:299|216:299|232:242,1,251.999992309571,2|2,1:3|0:0,0:0:0:0:
226,261,77461,6,0,P|167:281|111:353,2,125.999996154785,2|0|10,1:0|1:0|0:0,0:0:0:0:
163,99,78310,1,2,0:0:0:0:
163,99,78451,2,0,B|183:93|203:75|203:75|249:82|249:82|268:138|328:160,1,188.999994232178,2|2,1:3|1:0,0:0:0:0:
456,86,79159,2,0,P|476:35|487:14,2,62.9999980773926,2|8|2,0:0|0:0|0:0,0:0:0:0:
366,77,79583,5,10,0:0:0:0:
366,77,79654,1,8,0:0:0:0:
366,77,79725,2,0,L|392:220,2,125.999996154785,0|2|10,1:0|1:0|0:0,0:0:0:0:
182,189,80574,1,2,0:0:0:0:
182,189,80715,2,0,P|126:183|79:129,1,125.999996154785,2|0,1:3|3:0,0:0:0:0:
83,125,81069,1,0,3:0:0:0:
84,116,81140,2,0,L|234:92,1,125.999996154785,10|8,0:0|0:0,0:0:0:0:
283,50,81564,1,0,1:0:0:0:
323,128,81706,1,8,0:0:0:0:
498,189,81989,5,8,0:0:0:0:
479,273,82130,1,8,0:0:0:0:
460,357,82272,1,6,1:0:0:0:
285,315,82555,6,0,L|358:293,2,62.9999980773926,10|2|0,0:0|0:0|0:0,0:0:0:0:
343,384,82979,2,0,L|388:178,1,188.999994232178,6|0,1:0|0:0,0:0:0:0:
189,309,83829,1,8,0:0:0:0:
189,309,83970,2,0,L|204:381,1,62.9999980773926,8|4,0:3|0:3,0:0:0:0:
119,384,84253,6,0,B|90:329|131:292|140:297|186:253|153:197,2,188.999994232178,4|0|0,1:0|0:0|0:0,0:0:0:0:
202,370,85244,1,4,1:2:0:0:
76,227,85951,6,0,P|63:184|48:153,1,62.9999980773926
136,140,86234,2,0,P|149:183|164:214,1,62.9999980773926
218,266,86517,6,0,B|158:254|167:169|263:155|331:213|271:277|380:313,1,293.999991027832,2|2,0:0|0:0,0:0:0:0:
468,147,88215,1,2,0:0:0:0:
468,147,88357,2,0,L|458:195,2,41.9999987182618,0|0|2,0:0|0:0|0:0,0:0:0:0:
393,102,88781,6,0,P|356:110|323:115,1,56,10|2,0:0|1:0,0:0:0:0:
270,61,89064,1,10,0:0:0:0:
191,95,89206,1,2,1:3:0:0:
305,247,89489,1,2,1:3:0:0:
148,359,89772,6,0,P|82:332|43:300,1,112,6|10,1:0|0:0,0:0:0:0:
17,224,90196,2,0,L|81:207,1,56,4|2,1:0|0:0,0:0:0:0:
157,157,90479,1,8,0:0:0:0:
157,157,90621,2,0,P|104:144|43:117,1,112,0|2,1:0|0:0,0:0:0:0:
75,26,91046,6,0,B|137:-6|182:52|159:59|202:114|279:87,1,224,6|8,1:0|0:0,0:0:0:0:
431,205,91895,1,2,0:0:0:0:
431,205,92036,2,0,P|382:218|310:238,1,112,2|8,1:0|0:0,0:0:0:0:
301,320,92461,1,0,1:0:0:0:
485,270,92744,2,0,P|498:212|517:141,1,112,10|0,0:0|0:0,0:0:0:0:
427,96,93168,5,0,3:0:0:0:
427,96,93239,1,0,3:0:0:0:
427,96,93310,2,0,P|366:78|309:51,1,112,2|2,1:0|1:0,0:0:0:0:
231,43,93734,2,0,L|246:123,1,56,0|8,0:0|0:0,0:0:0:0:
100,199,94159,5,0,0:0:0:0:
100,199,94300,2,0,L|121:82,1,112,0|8,1:0|0:0,0:0:0:0:
76,18,94725,1,2,1:2:0:0:
9,192,95008,2,0,P|49:238|83:305,1,112,10|2,0:0|0:0,0:0:0:0:
255,345,95574,6,0,P|314:333|389:337,2,112,6|0|8,1:0|1:0|0:0,0:0:0:0:
221,187,96423,1,2,0:0:0:0:
221,187,96564,2,0,L|287:70,1,112,2|10,1:3|0:0,0:0:0:0:
367,74,96989,2,0,P|405:68|434:57,1,56,0|2,1:0|0:0,0:0:0:0:
488,132,97272,1,8,0:0:0:0:
488,132,97413,2,0,P|498:106|511:81,2,56,2|2|0,0:0|0:0|3:0,0:0:0:0:
395,158,97838,6,0,P|413:209|436:285,2,112,2|0|8,1:0|1:0|0:0,0:0:0:0:
237,287,98687,2,0,P|282:301|312:313,1,56,0|0,0:0|1:0,0:0:0:0:
368,340,98970,2,0,P|305:362|249:392,1,112,0|0,0:0|1:0,0:0:0:0:
177,196,99536,1,12,0:0:0:0:
20,322,99961,2,0,P|32:352|41:379,1,56,8|6,0:3|1:2,0:0:0:0:
34,312,106895,6,0,L|42:388,1,70,2|0,0:0|3:0,0:0:0:0:
153,227,107461,2,0,L|143:318,1,83.9999974365235,8|8,0:0|0:0,0:0:0:0:
255,135,108027,2,0,L|269:246,1,97.9999970092774,10|8,0:0|0:0,0:0:0:0:
387,54,108593,2,0,L|373:165,1,112,10|0,0:0|1:0,0:0:0:0:
441,228,109017,1,4,0:3:0:0:
391,309,109159,6,0,P|352:318|269:354,2,112,6|0|8,1:0|0:0|0:0,0:0:0:0:
218,239,110008,2,0,L|211:297,1,56,2|0,1:0|0:0,0:0:0:0:
132,334,110291,2,0,P|80:311|26:298,1,112,2|2,0:0|1:0,0:0:0:0:
183,158,110857,2,0,P|234:135|256:131,1,56,10|0,0:0|0:0,0:0:0:0:
288,67,111140,2,0,P|236:44|215:40,1,56,2|0,0:0|0:0,0:0:0:0:
146,71,111423,6,0,P|111:62|40:-1,2,112,2|2|8,1:0|1:3|0:0,0:0:0:0:
354,0,112272,2,0,P|461:36|478:140,1,224,2|2,1:3|1:0,0:0:0:0:
378,259,113121,2,0,P|324:236|253:239,1,112,10|2,0:0|0:0,0:0:0:0:
194,273,113546,5,0,0:0:0:0:
194,273,113616,1,0,0:0:0:0:
194,273,113687,2,0,L|212:395,2,112,2|0|8,1:0|1:0|0:0,0:0:0:0:
52,108,114536,2,0,L|40:174,1,56,2|0,1:0|0:0,0:0:0:0:
17,242,114819,2,0,P|72:217|139:200,1,112,2|2,0:0|1:0,0:0:0:0:
314,95,115385,2,0,P|260:79|209:56,1,112,10|2,0:0|0:0,0:0:0:0:
127,0,115810,5,0,0:0:0:0:
127,0,115880,1,0,0:0:0:0:
127,0,115951,2,0,L|154:127,2,112,2|0|8,1:0|1:0|0:0,0:0:0:0:
322,111,116800,1,0,1:0:0:0:
476,19,117083,2,0,P|503:106|512:148,1,112,2|0,0:0|1:0,0:0:0:0:
342,202,117649,2,0,P|315:289|306:331,1,112,10|0,0:3|0:0,0:0:0:0:
474,384,118215,1,6,1:0:0:0:
256,192,118286,12,6,119347,1:0:0:0:
507,126,119772,5,8,0:3:0:0:
310,309,120196,1,12,0:3:0:0:
474,384,120479,1,6,1:0:0:0:
256,192,120550,12,6,121611,1:0:0:0:
507,126,122178,5,8,1:2:0:0:
342,202,122461,2,0,L|419:218,1,56,4|4,0:3|0:3,0:0:0:0:
490,235,122744,6,0,P|444:246|340:334,1,168,6|0,1:0|0:0,0:0:0:0:
273,379,123310,2,0,L|253:248,1,112,8|2,0:0|0:0,0:0:0:0:
174,235,123734,2,0,P|147:255|56:273,1,112,2|8,1:0|0:0,0:0:0:0:
17,210,124159,1,0,1:0:0:0:
130,58,124442,1,10,0:0:0:0:
55,17,124583,2,0,L|-6:34,2,56
130,58,125008,6,0,P|169:79|252:92,2,112,2|0|8,1:0|1:0|0:0,0:0:0:0:
57,111,125715,1,0,0:0:0:0:
57,111,125857,2,0,P|76:159|83:182,1,56,2|0,0:0|1:0,0:0:0:0:
30,248,126140,2,0,L|20:319,2,56,2|8|0,0:0|0:0|1:0,0:0:0:0:
122,255,126564,1,2,0:0:0:0:
122,255,126706,2,0,P|189:261|242:284,1,112,14|0,0:0|3:0,0:0:0:0:
300,345,127130,6,0,L|291:390,2,28,0|0|14,3:0|3:0|1:2,0:0:0:0:
442,250,127555,1,0,3:0:0:0:
375,181,127696,1,2,3:2:0:0:
375,181,127838,2,0,L|367:141,4,28,10|0|0|0|0,3:2|3:0|3:0|3:0|3:0,0:0:0:0:
465,166,128263,5,2,3:2:0:0:
465,166,128404,2,0,P|482:103|502:51,1,112,10|0,1:2|3:0,0:0:0:0:
422,12,128829,1,2,3:2:0:0:
422,12,128970,2,0,L|376:21,4,28,10|0|0|0|0,3:2|3:0|3:0|3:0|3:0,0:0:0:0:
328,77,129395,5,2,3:2:0:0:
328,77,129536,2,0,P|264:45|201:42,1,112,10|0,1:2|0:2,0:2:0:0:
142,75,129961,1,2,3:2:0:0:
142,75,130102,1,10,1:2:0:0:
193,215,130385,2,0,L|235:226,2,28,0|0|2,3:0|3:0|3:2,0:0:0:0:
105,212,130668,6,0,P|123:273|140:333,1,112,10|8,1:2|0:0,0:0:0:0:
226,355,131093,1,2,0:0:0:0:
226,355,131234,1,10,3:2:0:0:
395,307,131517,2,0,L|444:315,2,28,0|0|0,1:0|1:0|1:0,0:0:0:0:
319,265,131800,6,0,L|338:390,2,112,4|0|4,1:0|0:0|0:3,0:0:0:0:
453,142,132649,1,4,0:3:0:0:
308,45,132932,2,0,L|299:108,1,56,4|0,0:3|0:0,0:0:0:0:
210,94,133215,2,0,L|219:157,1,56,4|0,0:3|0:0,0:0:0:0:
121,154,133498,2,0,L|112:217,1,56,4|0,0:3|0:0,0:0:0:0:
41,279,133781,2,0,L|0:291,2,28,8|4|4,0:3|0:3|0:3,0:0:0:0:
122,343,134064,6,0,L|252:365,2,125.999996154785,4|4|4,1:0|0:3|0:3,0:0:0:0:
16,175,134913,1,4,0:3:0:0:
168,52,135196,2,0,L|239:77,1,62.9999980773926,4|0,0:3|0:0,0:0:0:0:
305,11,135479,2,0,L|330:82,1,62.9999980773926,4|0,0:3|0:0,0:0:0:0:
416,58,135763,2,0,L|487:83,1,62.9999980773926,8|4,0:0|0:3,0:0:0:0:
510,170,136046,2,0,L|493:216,2,31.4999990386963,4|4|4,0:3|0:3|0:3,0:0:0:0:
419,156,136329,6,0,L|268:212,2,140,12|0|4,0:0|0:0|0:3,0:0:0:0:
325,354,137178,1,8,0:0:0:0:
142,276,137461,2,0,L|160:182,1,70,8|0,1:2|0:0,0:0:0:0:
61,193,137744,2,0,L|43:99,1,70,8|0,0:0|0:0,0:0:0:0:
131,91,138027,2,0,L|149:-3,1,70,8|0,0:0|0:0,0:0:0:0:
234,66,138310,2,0,L|328:48,1,70,8|0,0:0|0:0,0:0:0:0:
382,6,138593,5,14,1:2:0:0:
501,165,138876,1,8,0:0:0:0:
501,165,138946,1,8,0:0:0:0:
501,165,139017,1,8,0:0:0:0:
415,222,139159,2,0,L|404:273,4,38.5000011749268,4|4|4|4|12,0:3|0:3|0:3|0:3|0:3,0:0:0:0:
361,140,139583,1,14,1:2:0:0:
249,384,140291,6,0,L|260:329,1,56
171,385,140574,2,0,L|181:329,1,56
102,329,140857,1,2,0:0:0:0:
349,60,149206,5,0,1:0:0:0:
349,60,149277,1,0,1:0:0:0:
349,60,149347,2,0,B|385:87|445:83|445:83|382:114|382:171,1,196,14|0,0:0|0:0,0:0:0:0:
372,199,149913,6,0,P|291:179|187:161,2,167.999994873047,6|8|0,1:0|0:0|0:0,0:0:0:0:
431,273,150621,1,0,1:0:0:0:
372,341,150763,1,10,0:0:0:0:
279,317,150904,6,0,P|218:324|108:385,1,167.999994873047,0|0,0:0|1:0,0:0:0:0:
55,301,151329,2,0,P|2:275|17:199,1,125.999996154785,8|0,0:0|0:0,0:0:0:0:
17,204,151612,2,0,L|108:184,1,83.9999974365235,2|0,0:0|1:0,0:0:0:0:
177,111,151895,2,0,L|42:81,1,125.999996154785,10|0,0:0|0:0,0:0:0:0:
46,67,152178,6,0,P|90:17|207:51,1,167.999994873047,2|8,1:0|0:0,0:0:0:0:
266,89,152602,1,2,0:0:0:0:
343,33,152744,2,0,P|393:22|436:8,1,83.9999974365235,0|0,0:0|1:0,0:0:0:0:
509,61,153027,1,10,0:0:0:0:
444,131,153168,6,0,P|468:212|486:303,1,167.999994873047,4|0,1:0|1:0,0:0:0:0:
415,357,153593,2,0,P|335:353|355:260,1,167.999994873047,10|0,0:0|1:0,0:0:0:0:
329,191,154017,1,0,1:0:0:0:
231,196,154159,2,0,B|142:181|142:181|98:214,1,125.999996154785,10|0,0:0|0:0,0:0:0:0:
99,213,154442,6,0,P|38:199|58:90,2,167.999994873047,6|8|0,1:0|0:0|1:0,0:0:0:0:
165,276,155149,1,0,1:0:0:0:
284,114,155432,1,8,0:0:0:0:
213,59,155574,2,0,L|393:38,2,167.999994873047,2|8|0,1:0|0:0|1:0,0:0:0:0:
419,173,156423,1,10,0:0:0:0:
272,324,156706,6,0,P|191:306|154:251,1,125.999996154785,4|0,1:0|0:0,0:0:0:0:
165,275,156989,2,0,L|175:219,2,41.9999987182618,8|8|8,0:0|0:0|0:0,0:0:0:0:
75,305,157272,6,0,P|24:239|31:173,1,125.999996154785,12|0,1:2|0:0,0:0:0:0:
24,198,157555,2,0,L|67:161,2,41.9999987182618,10|8|8,0:0|0:0|0:0,0:0:0:0:
96,80,157838,6,0,L|158:92,4,41.9999987182618,6|8|8|8|8,1:0|0:0|0:0|0:0|0:0,0:0:0:0:
217,41,158263,2,0,L|205:-21,4,41.9999987182618,10|8|8|8|8,1:2|0:0|0:0|0:0|0:0,0:0:0:0:
305,54,158687,1,10,1:2:0:0:
172,233,158970,5,0,1:0:0:0:
241,293,159112,1,12,0:0:0:0:
213,379,159253,2,0,P|253:343|344:346,1,125.999996154785,10|0,0:0|0:0,0:0:0:0:
341,339,159536,2,0,P|388:308|393:261,1,83.9999974365235,14|0,0:0|0:0,0:0:0:0:
333,207,159819,2,0,L|347:138,3,41.9999987182618,10|8|8|8,0:0|0:0|0:0|0:0,0:0:0:0:
390,132,160102,6,0,P|444:102|519:-7,2,167.999994873047,6|8|0,1:0|0:0|1:0,0:0:0:0:
312,86,160810,1,0,1:0:0:0:
222,121,160951,1,10,0:0:0:0:
164,41,161093,6,0,L|138:232,1,167.999994873047,4|0,1:0|1:0,0:0:0:0:
125,310,161517,2,0,P|164:262|243:248,1,125.999996154785,8|0,0:0|0:0,0:0:0:0:
239,261,161800,2,0,P|250:303|257:356,1,83.9999974365235,2|0,1:0|1:0,0:0:0:0:
347,382,162083,2,0,P|357:311|379:238,1,125.999996154785,10|0,0:0|0:0,0:0:0:0:
395,252,162366,6,0,P|458:227|453:114,1,167.999994873047,2|8,1:0|0:0,0:0:0:0:
392,78,162791,1,0,0:0:0:0:
320,138,162932,2,0,L|232:122,1,83.9999974365235,0|0,1:0|1:0,0:0:0:0:
142,95,163215,1,10,0:0:0:0:
48,63,163357,6,0,P|127:47|224:18,1,167.999994873047,6|0,1:0|1:0,0:0:0:0:
317,57,163781,2,0,P|277:125|232:227,1,167.999994873047,8|0,0:0|1:0,0:0:0:0:
149,244,164206,1,0,1:0:0:0:
212,317,164347,2,0,P|154:337|68:380,1,125.999996154785,10|0,0:0|0:0,0:0:0:0:
77,360,164630,6,0,P|43:327|49:281,1,83.9999974365235,2|0,1:0|0:0,0:0:0:0:
69,193,164913,2,0,P|98:126|118:25,1,167.999994873047,8|0,0:0|1:0,0:0:0:0:
210,12,165338,1,0,1:0:0:0:
277,89,165479,1,10,0:0:0:0:
374,39,165621,6,0,P|438:41|471:135,1,167.999994873047,2|0,1:0|1:0,0:0:0:0:
396,192,166046,2,0,P|409:250|423:335,1,125.999996154785,8|0,0:0|0:0,0:0:0:0:
410,330,166329,2,0,L|320:315,1,83.9999974365235,2|0,0:0|1:0,0:0:0:0:
250,384,166612,2,0,P|239:321|225:260,1,125.999996154785,8|0,0:0|0:0,0:0:0:0:
228,236,166895,6,0,B|213:192|252:156|257:175|297:141|277:89,1,167.999994873047,2|12,1:0|0:0,0:0:0:0:
80,25,167461,1,8,0:0:0:0:
80,25,167531,1,8,0:3:0:0:
80,25,167602,1,4,0:3:0:0:
127,106,167744,1,10,0:0:0:0:
49,172,167885,6,0,P|7:295|-5:361,1,167.999994873047,6|0,1:0|1:0,0:0:0:0:
81,384,168310,1,8,0:0:0:0:
284,315,168593,1,2,1:0:0:0:
366,370,168734,1,8,0:0:0:0:
366,370,168805,1,8,0:0:0:0:
366,370,168876,2,0,L|416:384,3,41.9999987182618,10|8|8|8,0:0|0:0|0:0|0:0,0:0:0:0:
455,349,169159,6,0,P|506:319|501:238,1,125.999996154785,6|0,1:0|0:0,0:0:0:0:
497,244,169442,2,0,L|523:54,1,167.999994873047,12|0,0:0|1:0,0:0:0:0:
444,18,169866,1,0,1:0:0:0:
356,65,170008,1,10,0:0:0:0:
265,29,170149,6,0,P|327:68|312:178,1,167.999994873047,0|0,1:0|1:0,0:0:0:0:
254,215,170574,2,0,B|163:200|163:200|122:230,1,125.999996154785,8|0,0:0|0:0,0:0:0:0:
126,228,170857,2,0,P|87:189|85:136,1,83.9999974365235,2|0,1:0|1:0,0:0:0:0:
36,73,171140,2,0,P|11:165|-2:209,1,125.999996154785,10|0,0:0|0:0,0:0:0:0:
4,215,171423,6,0,B|18:345|18:345|68:369,1,167.999994873047,2|8,1:0|0:0,0:0:0:0:
155,383,171847,2,0,P|200:343|236:334,1,83.9999974365235,2|0,0:0|1:0,0:0:0:0:
309,349,172130,1,0,1:0:0:0:
396,292,172272,1,10,0:0:0:0:
354,209,172413,6,0,L|380:31,1,167.999994873047,6|0,1:0|1:0,0:0:0:0:
468,4,172838,2,0,L|492:170,1,167.999994873047,10|0,0:0|1:0,0:0:0:0:
512,266,173263,1,0,1:0:0:0:
482,354,173404,2,0,P|418:343|402:267,1,125.999996154785,10|0,0:0|0:0,0:0:0:0:
379,286,173687,6,0,P|289:311|193:351,2,167.999994873047,6|8|0,1:0|0:0|1:0,0:0:0:0:
412,197,174395,1,0,1:0:0:0:
211,92,174678,1,8,0:0:0:0:
173,177,174819,2,0,P|211:299|222:359,1,167.999994873047,2|8,1:0|0:0,0:0:0:0:
52,382,175385,2,0,P|30:333|-3:291,1,83.9999974365235,0|0,1:0|1:0,0:0:0:0:
10,214,175668,6,0,P|78:231|166:288,1,167.999994873047,10|6,0:0|1:0,0:0:0:0:
211,96,176234,5,8,0:0:0:0:
211,96,176305,1,0,0:0:0:0:
211,96,176376,2,0,P|244:164|257:209,1,83.9999974365235,0|6,0:0|1:0,0:0:0:0:
402,9,176800,6,0,P|401:96|368:204,1,167.999994873047,10|6,0:0|1:0,0:0:0:0:
305,331,177366,5,8,0:0:0:0:
223,297,177508,1,8,0:0:0:0:
152,359,177649,2,0,L|51:391,2,83.9999974365235,2|0|10,1:0|1:0|0:0,0:0:0:0:
401,287,178215,6,0,P|474:274|476:163,2,167.999994873047,6|8|0,1:0|0:0|1:0,0:0:0:0:
361,209,178923,1,0,1:0:0:0:
182,130,179206,1,8,0:0:0:0:
129,206,179347,2,0,P|155:290|181:392,1,167.999994873047,0|8,1:0|0:0,0:0:0:0:
361,209,179913,2,0,P|294:192|267:188,1,83.9999974365235,0|0,1:0|1:0,0:0:0:0:
201,151,180196,6,0,L|343:112,1,125.999996154785,10|0,0:0|0:0,0:0:0:0:
336,113,180479,1,6,1:0:0:0:
264,310,180763,6,0,L|367:205,1,125.999996154785,8|0,0:0|0:0,0:0:0:0:
361,209,181046,1,6,1:0:0:0:
428,384,181329,6,0,L|465:241,1,125.999996154785,10|0,0:0|0:0,0:0:0:0:
461,248,181612,1,6,1:0:0:0:
372,41,181895,5,8,0:0:0:0:
428,117,182036,1,10,0:0:0:0:
512,87,182178,2,0,L|497:-3,2,83.9999974365235,2|4|10,1:0|0:3|0:0,0:0:0:0:
269,68,182744,6,0,P|214:59|177:42,1,83.9999974365235,6|0,1:0|0:0,0:0:0:0:
92,50,183027,2,0,P|111:102|115:142,1,83.9999974365235,8|0,0:0|0:0,0:0:0:0:
165,213,183310,2,0,P|200:169|233:146,2,83.9999974365235,0|8|0,0:0|0:0|0:0,0:0:0:0:
66,221,183734,5,8,0:0:0:0:
66,221,183805,1,8,0:0:0:0:
66,221,183876,2,0,P|96:305|118:397,2,167.999994873047,0|8|2,1:0|0:0|0:0,0:0:0:0:
115,129,184583,1,8,0:0:0:0:
173,221,184725,2,0,P|238:211|286:195,1,83.9999974365235,2|8,0:0|0:0,0:0:0:0:
255,206,184937,1,8,0:0:0:0:
255,206,185008,6,0,P|312:229|350:341,1,167.999994873047,2|12,1:0|0:0,0:0:0:0:
485,199,185574,1,8,0:0:0:0:
485,199,185645,1,8,0:3:0:0:
485,199,185715,2,0,P|502:139|529:100,1,83.9999974365235,4|8,0:3|0:0,0:0:0:0:
511,28,185998,6,0,B|445:44|403:-12|403:-12|432:58|383:105,1,251.999992309571,2|2,1:3|0:0,0:0:0:0:
352,321,186989,6,0,B|328:286|362:263|386:297|353:320,1,83.9999974365235,0|0,0:0|1:0,0:0:0:0:
