osu file format v14

[General]
AudioFilename: audio.mp3
AudioLeadIn: 0
PreviewTime: 390
Countdown: 0
SampleSet: Soft
StackLeniency: 0.4
Mode: 0
LetterboxInBreaks: 0
WidescreenStoryboard: 1

[Editor]
DistanceSpacing: 1.1
BeatDivisor: 4
GridSize: 32
TimelineZoom: 2.2

[Metadata]
Title:Paper Bouquet
TitleUnicode:Paper Bouquet
Artist:Mili
ArtistUnicode:Mili
Creator:SMOKELIND
Version:Chills' Insane
Source:処刑少女の生きる道
Tags:momocashew cassie wei projectmili yamato kasai hamo project rock english conlang opening op バージンロード anime The Executioner and Her Way of Life Mocaotic frozz -Keqing Chills Hey Lululu Hey_lululu shokei shōjo shoujo no ikiru michi
BeatmapID:3625031
BeatmapSetID:1735006

[Difficulty]
HPDrainRate:5
CircleSize:3.8
OverallDifficulty:7
ApproachRate:9
SliderMultiplier:1.8
SliderTickRate:1

[Events]
//Background and Video events
0,0,"BG.jpg",0,0
//Break Periods
2,141057,148606
//Storyboard Layer 0 (Background)
//Storyboard Layer 1 (Fail)
//Storyboard Layer 2 (Pass)
//Storyboard Layer 3 (Foreground)
//Storyboard Layer 4 (Overlay)
//Storyboard Sound Samples

[TimingPoints]
480,283.018867924528,4,2,77,27,1,0
763,-200,4,2,77,27,0,0
3734,-142.857142857143,4,2,77,27,0,0
4159,-100,4,2,77,27,0,0
4371,-100,4,2,77,5,0,0
4442,-100,4,2,77,27,0,0
4583,-200,4,2,77,27,0,0
7272,-250,4,2,77,27,0,0
9253,-133.333333333333,4,2,77,27,0,0
9536,-111.111111111111,4,2,77,77,0,0
10739,-111.111111111111,4,2,77,5,0,0
10810,-111.111111111111,4,2,77,77,0,0
12295,-111.111111111111,4,2,77,5,0,0
12366,-111.111111111111,4,2,77,77,0,0
13003,-111.111111111111,4,2,77,5,0,0
13074,-111.111111111111,4,2,77,77,0,0
14276,-111.111111111111,4,2,77,5,0,0
14347,-111.111111111111,4,2,77,77,0,0
15267,-111.111111111111,4,2,77,5,0,0
15338,-111.111111111111,4,2,77,77,0,0
17319,-222.222222222222,4,2,77,77,0,0
18027,-222.222222222222,4,2,77,47,0,0
20432,-200,4,2,77,47,0,0
20857,-80,4,2,77,77,0,0
20927,-80,4,2,77,5,0,0
20998,-80,4,2,77,77,0,0
21210,-80,4,2,77,5,0,0
21281,-90.9090909090909,4,2,77,77,0,0
21493,-90.9090909090909,4,2,77,5,0,0
21564,-90.9090909090909,4,2,77,77,0,0
21776,-90.9090909090909,4,2,77,5,0,0
21847,-133.333333333333,4,2,77,77,0,0
22059,-133.333333333333,4,2,77,5,0,0
22130,-133.333333333333,4,2,77,77,0,0
22272,-80,4,2,77,77,0,0
22484,-80,4,2,77,5,0,0
22555,-80,4,2,77,77,0,0
22696,-100,4,2,77,77,0,0
23049,-100,4,2,77,5,0,0
23121,-133.333333333333,4,2,77,77,0,0
23616,-133.333333333333,4,2,77,5,0,0
23687,-133.333333333333,4,2,77,77,0,0
24324,-133.333333333333,4,2,77,5,0,0
24395,-133.333333333333,4,2,77,77,0,0
25880,-133.333333333333,4,2,77,5,0,0
25951,-133.333333333333,4,2,77,77,0,0
27012,-133.333333333333,4,2,77,5,0,0
27083,-133.333333333333,4,2,77,77,0,0
27578,-133.333333333333,4,2,77,5,0,0
27649,-133.333333333333,4,2,77,77,0,0
27861,-133.333333333333,4,2,77,5,0,0
27932,-133.333333333333,4,2,77,77,0,0
28144,-133.333333333333,4,2,77,5,0,0
28215,-133.333333333333,4,2,77,77,0,0
28852,-133.333333333333,4,2,77,5,0,0
28923,-133.333333333333,4,2,77,77,0,0
31895,-117.647058823529,4,2,77,77,0,0
32178,-133.333333333333,4,2,77,67,0,0
33380,-133.333333333333,4,2,77,5,0,0
33451,-133.333333333333,4,2,77,67,0,0
33805,-133.333333333333,4,2,77,5,0,0
33876,-166.666666666667,4,2,77,67,0,0
34442,-133.333333333333,4,2,77,67,0,0
36069,-133.333333333333,4,2,77,5,0,0
36140,-125,4,2,77,67,0,0
36706,-166.666666666667,4,2,77,57,0,0
40102,-133.333333333333,4,2,77,57,0,0
40668,-200,4,2,77,57,0,0
41234,-200,4,2,77,67,0,0
43498,-200,4,2,77,77,0,0
45763,-133.333333333333,4,2,77,87,0,0
45975,-133.333333333333,4,2,77,5,0,0
46046,-133.333333333333,4,2,77,87,0,0
48310,-100,4,2,77,87,0,0
50291,-90.9090909090909,4,2,77,87,0,0
50503,-90.9090909090909,4,2,77,5,0,0
50574,-90.9090909090909,4,2,77,87,0,0
51493,-90.9090909090909,4,2,77,5,0,0
51564,-90.9090909090909,4,2,77,87,0,0
51634,-90.9090909090909,4,2,77,5,0,0
51706,-90.9090909090909,4,2,77,87,0,0
51918,-90.9090909090909,4,2,77,5,0,0
51989,-90.9090909090909,4,2,77,87,0,0
52484,-90.9090909090909,4,2,77,5,0,0
52555,-90.9090909090909,4,2,77,87,0,0
54182,-90.9090909090909,4,2,77,5,0,0
54253,-90.9090909090909,4,2,77,87,0,0
54748,-90.9090909090909,4,2,77,5,0,0
54819,-90.9090909090909,4,2,77,87,0,0
55031,-90.9090909090909,4,2,77,5,0,0
55102,-90.9090909090909,4,2,77,87,0,0
57012,-90.9090909090909,4,2,77,5,0,0
57083,-133.333333333333,4,2,77,87,0,0
57295,-133.333333333333,4,2,77,5,0,0
57366,-90.9090909090909,4,2,77,87,0,0
57578,-90.9090909090909,4,2,77,5,0,0
57649,-90.9090909090909,4,2,77,87,0,0
58286,-90.9090909090909,4,2,77,5,0,0
58357,-80,4,2,77,87,0,0
58427,-80,4,2,77,5,0,0
58498,-90.9090909090909,4,2,77,87,0,0
59559,-90.9090909090909,4,2,77,5,0,0
59630,-90.9090909090909,4,2,77,87,0,0
60550,-90.9090909090909,4,2,77,5,0,0
60621,-90.9090909090909,4,2,77,87,0,0
60691,-90.9090909090909,4,2,77,5,0,0
60763,-90.9090909090909,4,2,77,87,0,0
60975,-90.9090909090909,4,2,77,5,0,0
61046,-90.9090909090909,4,2,77,87,0,0
61541,-90.9090909090909,4,2,77,5,0,0
61612,-90.9090909090909,4,2,77,87,0,0
62602,-80,4,2,77,87,0,0
63027,-90.9090909090909,4,2,77,87,0,0
63239,-90.9090909090909,4,2,77,5,0,0
63310,-90.9090909090909,4,2,77,87,0,0
63805,-90.9090909090909,4,2,77,5,0,0
63876,-90.9090909090909,4,2,77,77,0,0
64088,-90.9090909090909,4,2,77,5,0,0
64159,-90.9090909090909,4,2,77,77,0,0
64371,-90.9090909090909,4,2,77,5,0,0
64442,-90.9090909090909,4,2,77,77,0,0
64795,-90.9090909090909,4,2,77,5,0,0
64866,-90.9090909090909,4,2,77,77,0,0
65291,-100,4,2,77,77,0,0
65574,-111.111111111111,4,2,77,77,0,0
65857,-200,4,2,77,77,0,0
66069,-200,4,2,77,5,0,0
66140,-100,4,2,77,77,0,0
66352,-100,4,2,77,5,0,0
66423,-100,4,2,77,77,0,0
68333,-100,4,2,77,5,0,0
68404,-111.111111111111,4,2,77,77,0,0
70597,-111.111111111111,4,2,77,5,0,0
70668,-111.111111111111,4,2,77,77,0,0
70880,-111.111111111111,4,2,77,5,0,0
70951,-111.111111111111,4,2,77,77,0,0
71163,-111.111111111111,4,2,77,5,0,0
71234,-111.111111111111,4,2,77,77,0,0
72012,-111.111111111111,4,2,77,5,0,0
72083,-111.111111111111,4,2,77,77,0,0
72649,-200,4,2,77,77,0,0
72861,-200,4,2,77,5,0,0
72932,-133.333333333333,4,2,77,77,0,0
73144,-133.333333333333,4,2,77,5,0,0
73215,-133.333333333333,4,2,77,77,0,0
73427,-133.333333333333,4,2,77,5,0,0
73498,-133.333333333333,4,2,77,77,0,0
74276,-133.333333333333,4,2,77,5,0,0
74347,-133.333333333333,4,2,77,77,0,0
74559,-133.333333333333,4,2,77,5,0,0
74630,-133.333333333333,4,2,77,77,0,0
75408,-133.333333333333,4,2,77,5,0,0
75479,-80,4,2,77,77,0,0
75691,-80,4,2,77,5,0,0
75763,-80,4,2,77,77,0,0
76187,-133.333333333333,4,2,77,77,0,0
76611,-133.333333333333,4,2,77,27,0,0
77461,-133.333333333333,4,2,77,57,0,0
77956,-133.333333333333,4,2,77,5,0,0
78027,-200,4,2,77,57,0,0
78239,-200,4,2,77,5,0,0
78310,-200,4,2,77,57,0,0
78451,-133.333333333333,4,2,77,57,0,0
80008,-200,4,2,77,57,0,0
80220,-200,4,2,77,5,0,0
80291,-133.333333333333,4,2,77,57,0,0
81140,-100,4,2,77,57,0,0
81352,-100,4,2,77,5,0,0
81423,-100,4,2,77,57,0,0
81706,-166.666666666667,4,2,77,57,0,0
81918,-166.666666666667,4,2,77,5,0,0
81989,-166.666666666667,4,2,77,57,0,0
82272,-100,4,2,77,57,0,0
82484,-100,4,2,77,5,0,0
82555,-100,4,2,77,57,0,0
82979,-133.333333333333,4,2,77,57,0,0
84253,-200,4,2,77,57,0,0
86517,-200,4,2,77,47,0,0
88781,-80,4,2,77,77,0,0
88851,-80,4,2,77,5,0,0
88923,-80,4,2,77,77,0,0
89134,-80,4,2,77,5,0,0
89206,-90.9090909090909,4,2,77,77,0,0
89418,-90.9090909090909,4,2,77,5,0,0
89489,-90.9090909090909,4,2,77,77,0,0
89701,-90.9090909090909,4,2,77,5,0,0
89772,-133.333333333333,4,2,77,77,0,0
89984,-133.333333333333,4,2,77,5,0,0
90055,-133.333333333333,4,2,77,77,0,0
90196,-80,4,2,77,77,0,0
90408,-80,4,2,77,5,0,0
90479,-80,4,2,77,77,0,0
90621,-100,4,2,77,77,0,0
90974,-100,4,2,77,5,0,0
91046,-133.333333333333,4,2,77,77,0,0
91541,-133.333333333333,4,2,77,5,0,0
91612,-133.333333333333,4,2,77,77,0,0
92248,-133.333333333333,4,2,77,5,0,0
92319,-133.333333333333,4,2,77,77,0,0
93805,-133.333333333333,4,2,77,5,0,0
93876,-133.333333333333,4,2,77,77,0,0
94512,-133.333333333333,4,2,77,5,0,0
94583,-133.333333333333,4,2,77,77,0,0
95503,-133.333333333333,4,2,77,5,0,0
95574,-133.333333333333,4,2,77,77,0,0
95786,-133.333333333333,4,2,77,5,0,0
95857,-133.333333333333,4,2,77,77,0,0
96069,-133.333333333333,4,2,77,5,0,0
96140,-133.333333333333,4,2,77,77,0,0
96776,-133.333333333333,4,2,77,5,0,0
96847,-133.333333333333,4,2,77,77,0,0
99536,-200,4,2,77,77,0,0
100102,-200,4,2,77,47,0,0
101800,-285.714285714286,4,2,77,47,0,0
109159,-166.666666666667,4,2,77,57,0,0
118215,-500,4,2,77,57,0,0
119347,-200,4,2,77,57,0,0
120479,-333.333333333333,4,2,77,57,0,0
121612,-200,4,2,77,57,0,0
122744,-133.333333333333,4,2,77,67,0,0
123946,-133.333333333333,4,2,77,5,0,0
124017,-133.333333333333,4,2,77,67,0,0
124371,-133.333333333333,4,2,77,5,0,0
124442,-166.666666666667,4,2,77,67,0,0
125008,-133.333333333333,4,2,77,67,0,0
126635,-133.333333333333,4,2,77,5,0,0
126706,-125,4,2,77,67,0,0
127272,-166.666666666667,4,2,77,57,0,0
131234,-200,4,2,77,57,0,0
131800,-200,4,2,77,67,0,0
134064,-200,4,2,77,77,0,0
136329,-166.666666666667,4,2,77,87,0,0
136541,-166.666666666667,4,2,77,5,0,0
136612,-133.333333333333,4,2,77,87,0,0
138876,-100,4,2,77,87,0,0
139583,-133.333333333333,4,2,77,87,0,0
140291,-400,4,2,77,87,0,0
140857,-400,4,2,77,27,0,0
149206,-400,4,2,77,87,0,0
149347,-86.9565217391304,4,2,77,87,0,0
149842,-86.9565217391304,4,2,77,5,0,0
149913,-90.9090909090909,4,2,77,87,0,0
150125,-90.9090909090909,4,2,77,5,0,0
150196,-90.9090909090909,4,2,77,87,0,0
151116,-90.9090909090909,4,2,77,5,0,0
151187,-90.9090909090909,4,2,77,87,0,0
151257,-90.9090909090909,4,2,77,5,0,0
151329,-90.9090909090909,4,2,77,87,0,0
151541,-90.9090909090909,4,2,77,5,0,0
151612,-90.9090909090909,4,2,77,87,0,0
152107,-90.9090909090909,4,2,77,5,0,0
152178,-90.9090909090909,4,2,77,87,0,0
153168,-80,4,2,77,87,0,0
153593,-90.9090909090909,4,2,77,87,0,0
153805,-90.9090909090909,4,2,77,5,0,0
153876,-90.9090909090909,4,2,77,87,0,0
154371,-90.9090909090909,4,2,77,5,0,0
154442,-90.9090909090909,4,2,77,87,0,0
154654,-90.9090909090909,4,2,77,5,0,0
154725,-90.9090909090909,4,2,77,87,0,0
154937,-90.9090909090909,4,2,77,5,0,0
155008,-90.9090909090909,4,2,77,87,0,0
155361,-90.9090909090909,4,2,77,5,0,0
155432,-90.9090909090909,4,2,77,87,0,0
155857,-100,4,2,77,87,0,0
156140,-111.111111111111,4,2,77,87,0,0
156423,-200,4,2,77,87,0,0
156635,-200,4,2,77,5,0,0
156706,-90.9090909090909,4,2,77,87,0,0
156918,-90.9090909090909,4,2,77,5,0,0
156989,-90.9090909090909,4,2,77,87,0,0
157484,-90.9090909090909,4,2,77,5,0,0
157555,-90.9090909090909,4,2,77,87,0,0
157838,-80,4,2,77,87,0,0
159112,-66.6666666666667,4,2,77,87,0,0
159182,-66.6666666666667,4,2,77,5,0,0
159253,-66.6666666666667,4,2,77,87,0,0
159323,-66.6666666666667,4,2,77,5,0,0
159395,-66.6666666666667,4,2,77,87,0,0
160102,-90.9090909090909,4,2,77,87,0,0
160314,-90.9090909090909,4,2,77,5,0,0
160385,-90.9090909090909,4,2,77,87,0,0
161305,-90.9090909090909,4,2,77,5,0,0
161376,-90.9090909090909,4,2,77,87,0,0
161446,-90.9090909090909,4,2,77,5,0,0
161517,-90.9090909090909,4,2,77,87,0,0
161729,-90.9090909090909,4,2,77,5,0,0
161800,-90.9090909090909,4,2,77,87,0,0
162295,-90.9090909090909,4,2,77,5,0,0
162366,-90.9090909090909,4,2,77,87,0,0
163993,-90.9090909090909,4,2,77,5,0,0
164064,-90.9090909090909,4,2,77,87,0,0
164559,-90.9090909090909,4,2,77,5,0,0
164630,-90.9090909090909,4,2,77,87,0,0
164842,-90.9090909090909,4,2,77,5,0,0
164913,-90.9090909090909,4,2,77,87,0,0
165833,-90.9090909090909,4,2,77,5,0,0
165904,-90.9090909090909,4,2,77,87,0,0
166824,-90.9090909090909,4,2,77,5,0,0
166895,-133.333333333333,4,2,77,87,0,0
167107,-133.333333333333,4,2,77,5,0,0
167178,-90.9090909090909,4,2,77,87,0,0
167390,-90.9090909090909,4,2,77,5,0,0
167461,-90.9090909090909,4,2,77,87,0,0
168097,-90.9090909090909,4,2,77,5,0,0
168168,-90.9090909090909,4,2,77,87,0,0
168238,-90.9090909090909,4,2,77,5,0,0
168310,-90.9090909090909,4,2,77,87,0,0
169371,-90.9090909090909,4,2,77,5,0,0
169442,-90.9090909090909,4,2,77,87,0,0
170361,-90.9090909090909,4,2,77,5,0,0
170432,-90.9090909090909,4,2,77,87,0,0
170502,-90.9090909090909,4,2,77,5,0,0
170574,-90.9090909090909,4,2,77,87,0,0
170786,-90.9090909090909,4,2,77,5,0,0
170857,-90.9090909090909,4,2,77,87,0,0
171352,-90.9090909090909,4,2,77,5,0,0
171423,-90.9090909090909,4,2,77,87,0,0
172413,-80,4,2,77,87,0,0
172838,-90.9090909090909,4,2,77,87,0,0
173050,-90.9090909090909,4,2,77,5,0,0
173121,-90.9090909090909,4,2,77,87,0,0
173616,-90.9090909090909,4,2,77,5,0,0
173687,-90.9090909090909,4,2,77,77,0,0
173899,-90.9090909090909,4,2,77,5,0,0
173970,-90.9090909090909,4,2,77,77,0,0
174182,-90.9090909090909,4,2,77,5,0,0
174253,-90.9090909090909,4,2,77,77,0,0
174606,-90.9090909090909,4,2,77,5,0,0
174677,-90.9090909090909,4,2,77,77,0,0
175102,-100,4,2,77,77,0,0
175385,-111.111111111111,4,2,77,77,0,0
175668,-200,4,2,77,77,0,0
175880,-200,4,2,77,5,0,0
175951,-100,4,2,77,77,0,0
176163,-100,4,2,77,5,0,0
176234,-100,4,2,77,77,0,0
178144,-100,4,2,77,5,0,0
178215,-111.111111111111,4,2,77,77,0,0
180408,-111.111111111111,4,2,77,5,0,0
180479,-111.111111111111,4,2,77,77,0,0
180691,-111.111111111111,4,2,77,5,0,0
180763,-111.111111111111,4,2,77,77,0,0
180975,-111.111111111111,4,2,77,5,0,0
181046,-111.111111111111,4,2,77,77,0,0
181823,-111.111111111111,4,2,77,5,0,0
181894,-111.111111111111,4,2,77,77,0,0
182461,-200,4,2,77,77,0,0
182673,-200,4,2,77,5,0,0
182744,-133.333333333333,4,2,77,77,0,0
182956,-133.333333333333,4,2,77,5,0,0
183027,-133.333333333333,4,2,77,77,0,0
183239,-133.333333333333,4,2,77,5,0,0
183310,-133.333333333333,4,2,77,77,0,0
184088,-133.333333333333,4,2,77,5,0,0
184159,-133.333333333333,4,2,77,77,0,0
184371,-133.333333333333,4,2,77,5,0,0
184442,-133.333333333333,4,2,77,77,0,0
185220,-133.333333333333,4,2,77,5,0,0
185291,-80,4,2,77,77,0,0
185503,-80,4,2,77,5,0,0
185574,-80,4,2,77,77,0,0
185998,-133.333333333333,4,2,77,77,0,0
186422,-133.333333333333,4,2,77,27,0,0
187272,-133.333333333333,4,2,77,57,0,0
188050,-133.333333333333,4,2,77,5,0,0
188121,-133.333333333333,4,2,77,57,0,0
188263,-200,4,2,77,57,0,0
189819,-133.333333333333,4,2,77,57,0,0
190314,-133.333333333333,4,2,77,5,0,0
190385,-133.333333333333,4,2,77,57,0,0
191093,-200,4,2,77,57,0,0
192083,-133.333333333333,4,2,77,57,0,0
192295,-133.333333333333,4,2,77,5,0,0
192366,-133.333333333333,4,2,77,57,0,0
192791,-200,4,2,77,57,0,0
194347,-133.333333333333,4,2,77,57,0,0
196046,-200,4,2,77,57,0,0
196329,-200,4,2,77,47,0,0
196612,-166.666666666667,4,2,77,47,0,0
198876,-222.222222222222,4,2,77,47,0,0
201140,-333.333333333333,4,2,77,47,0,0
206517,-333.333333333333,4,2,77,5,0,0

[Colours]
Combo1 : 121,121,255
Combo2 : 223,223,223

[HitObjects]
71,226,480,5,0,1:0:0:0:
71,226,763,2,0,L|83:172,2,45,2|0|2,2:0|2:0|2:0,2:0:0:0:
169,247,1187,2,0,L|159:290,1,45,2|0,2:0|2:0,2:0:0:0:
126,374,1470,6,0,P|159:329|247:323,1,135,2|0,1:0|2:0,2:0:0:0:
290,239,2178,1,2,2:0:0:0:
290,239,2319,2,0,P|307:252|321:280,2,45,2|0|0,2:0|2:0|1:0,2:0:0:0:
227,179,2744,6,0,L|250:83,1,90,2|0,1:0|2:0,2:0:0:0:
191,26,3168,1,2,2:0:0:0:
191,26,3310,2,0,L|137:40,2,45,2|0|0,2:0|2:0|2:0,2:0:0:0:
247,91,3734,6,0,L|380:58,1,125.999996154785,2|0,1:0|2:0,2:0:0:0:
501,54,4159,2,0,P|440:45|422:106,1,135,10|0,2:0|0:0,2:0:0:0:
434,113,4442,1,8,2:0:0:0:
487,178,4583,2,0,P|486:228|510:183,1,135,2|0,1:0|1:0,2:0:0:0:
360,364,5291,6,0,L|274:337,1,90,2|0,2:0|2:0,2:0:0:0:
193,323,5715,2,0,L|209:383,2,45,2|0|0,2:0|2:0|1:0,2:0:0:0:
117,29,6423,1,2,2:0:0:0:
117,29,6706,1,2,2:0:0:0:
135,105,6847,2,0,L|146:148,2,45,10|8|4,2:0|2:3|2:3,2:0:0:0:
50,207,7272,6,0,P|104:153|98:262,1,252,4|4,1:0|1:0,2:0:0:0:
109,262,9112,1,2,2:0:0:0:
108,262,9253,2,0,P|134:240|180:230,1,67.5000025749208,2|2,2:0|2:0,2:0:0:0:
278,205,9536,6,0,L|99:158,1,161.999995056153,0|2,1:3|2:0,2:0:0:0:
30,64,9961,1,10,2:0:0:0:
101,2,10102,2,0,P|121:35|169:54,1,80.9999975280763,2|2,1:0|2:0,2:0:0:0:
210,155,10385,1,2,2:0:0:0:
295,123,10527,6,0,P|330:72|320:0,1,121.499996292114,2|0,1:0|0:0,2:0:0:0:
310,11,10810,1,10,2:0:0:0:
416,171,10951,2,0,P|452:155|506:144,1,80.9999975280763,2|2,1:0|2:0,2:0:0:0:
355,242,11234,2,0,P|328:211|279:201,2,80.9999975280763,2|8|2,2:0|2:0|2:0,2:0:0:0:
426,183,11659,1,2,2:0:0:0:
373,320,11800,6,0,P|361:358|331:384,1,80.9999975280763,2|2,1:3|2:0,2:0:0:0:
203,273,12083,2,0,P|192:208|170:131,1,121.499996292114,2|0,2:0|0:0,2:0:0:0:
195,147,12366,2,0,P|235:123|251:79,1,80.9999975280763,2|2,2:0|2:0,2:0:0:0:
123,41,12649,1,2,2:0:0:0:
107,209,12791,6,0,P|78:163|2:144,1,121.499996292114,2|0,1:0|0:0,2:0:0:0:
5,152,13074,1,10,2:0:0:0:
69,351,13215,2,0,P|107:333|161:316,1,80.9999975280763,2|2,1:0|2:0,2:0:0:0:
315,306,13498,2,0,P|287:343|289:389,2,80.9999975280763,10|2|2,2:0|2:0|2:0,2:0:0:0:
468,222,13923,1,2,2:0:0:0:
411,279,14064,6,0,P|345:275|304:217,1,121.499996292114,6|0,1:0|0:0,2:0:0:0:
314,216,14347,1,2,2:0:0:0:
461,87,14489,1,10,2:0:0:0:
384,30,14630,2,0,P|353:63|294:78,1,80.9999975280763,2|2,1:0|3:2,2:0:0:0:
209,79,14913,1,2,3:2:0:0:
172,162,15055,6,0,P|129:125|118:40,1,121.499996292114,2|0,1:3|0:0,2:0:0:0:
124,51,15338,1,8,2:0:0:0:
25,160,15479,2,0,L|2:262,1,80.9999975280763,2|8,1:0|2:0,2:0:0:0:
17,246,15692,1,8,2:0:0:0:
27,255,15763,1,8,2:0:0:0:
146,384,15904,1,8,2:0:0:0:
66,347,16046,2,0,P|91:313|147:299,1,80.9999975280763,0|0,3:0|3:0,2:0:0:0:
321,331,16329,6,0,P|275:364|269:248,1,242.999992584229,6|8,1:0|2:3,2:0:0:0:
274,251,16824,1,8,2:3:0:0:
284,258,16895,1,8,2:3:0:0:
332,112,17036,1,8,2:3:0:0:
332,112,17178,1,12,2:3:0:0:
417,142,17319,6,0,P|387:116|376:195,1,161.999995056153,4|0,1:0|2:0,2:0:0:0:
472,12,18027,6,0,L|517:-2,4,40.4999987640381,0|0|0|0|2,2:0|2:0|2:0|2:0|2:0,2:0:0:0:
0,128,19583,1,2,2:0:0:0:
0,128,20291,1,2,2:0:0:0:
0,128,20432,2,0,L|47:113,2,45,0|0|0,2:0|2:0|2:0,2:0:0:0:
82,22,20857,6,0,P|112:31|132:55,1,56.25,10|0,2:0|0:0,2:0:0:0:
140,130,20998,1,0,1:0:0:0:
248,172,21140,2,0,P|225:193|194:198,1,56.25,10|0,2:0|0:0,2:0:0:0:
35,333,21281,6,0,P|35:267|91:208,1,148.50000453186,2|0,1:3|0:0,2:0:0:0:
99,206,21564,2,0,P|163:221|206:290,1,148.50000453186,2|0,1:3|0:0,2:0:0:0:
145,349,21847,6,0,P|181:342|151:362,1,101.250003862381,6|0,1:0|0:0,2:0:0:0:
130,366,22130,1,10,2:0:0:0:
287,318,22272,6,0,P|348:319|292:344,1,168.75,4|0,1:0|0:0,2:0:0:0:
267,336,22555,1,8,2:0:0:0:
426,261,22696,6,0,P|514:274|445:331,1,225,2|0,1:0|0:0,2:0:0:0:
365,315,23121,6,0,L|427:84,1,236.250009012223,6|0,1:0|0:0,2:0:0:0:
437,78,23687,2,0,P|408:57|399:20,2,67.5000025749208,10|0|0,2:0|2:0|2:0,2:0:0:0:
498,177,24112,6,0,P|534:171|503:195,1,101.250003862381,2|0,1:0|0:0,2:0:0:0:
435,225,24395,1,8,2:0:0:0:
336,107,24536,2,0,P|270:122|206:144,2,135.000005149842,2|10|0,1:3|2:0|2:0,2:0:0:0:
85,0,25244,5,0,2:0:0:0:
85,0,25314,1,0,2:0:0:0:
85,0,25385,2,0,P|120:8|143:36,1,67.5000025749208,2|0,1:0|2:0,2:0:0:0:
239,51,25668,2,0,P|234:106|184:140,1,101.250003862381,0|0,1:0|0:0,2:0:0:0:
206,146,25951,2,0,P|270:157|295:225,1,135.000005149842,8|0,2:0|2:0,2:0:0:0:
434,273,26376,6,0,P|391:324|327:317,1,135.000005149842,0|8,1:0|2:0,2:0:0:0:
380,182,26800,2,0,P|330:181|295:216,1,101.250003862381,2|0,1:3|0:0,2:0:0:0:
292,230,27083,1,10,2:0:0:0:
158,310,27225,1,0,2:0:0:0:
231,346,27366,2,0,P|257:371|219:360,1,101.250003862381,2|0,2:0|0:0,2:0:0:0:
83,336,27649,6,0,P|114:297|110:248,1,101.250003862381,6|0,1:0|0:0,2:0:0:0:
100,238,27932,2,0,P|61:206|12:210,1,101.250003862381,0|0,1:0|0:0,2:0:0:0:
0,222,28215,1,8,2:0:0:0:
45,54,28357,2,0,L|25:127,1,67.5000025749208,0|2,2:0|2:0,2:0:0:0:
157,33,28640,6,0,P|130:7|168:18,1,101.250003862381,2|0,1:3|0:0,2:0:0:0:
233,59,28923,1,10,2:0:0:0:
370,137,29064,1,0,1:0:0:0:
308,197,29206,2,0,L|226:219,2,67.5000025749208,2|8|2,2:0|2:0|2:0,2:0:0:0:
430,257,29630,2,0,L|516:233,1,67.5000025749208,2|0,2:0|2:0,2:0:0:0:
378,373,29913,6,0,P|313:375|275:322,2,135.000005149842,2|0|8,1:0|1:0|2:0,2:0:0:0:
441,319,30621,2,0,P|445:283|423:251,1,67.5000025749208,0|0,2:0|2:0,2:0:0:0:
512,51,30904,6,0,P|488:115|471:181,1,135.000005149842,0|8,1:0|2:0,2:0:0:0:
471,179,31329,1,0,1:0:0:0:
399,82,31470,1,8,2:0:0:0:
392,69,31541,1,8,2:0:0:0:
387,59,31612,1,8,2:0:0:0:
282,131,31753,1,8,2:0:0:0:
208,33,31895,2,0,P|181:69|139:77,1,76.5000014591217,2|0,1:3|3:0,2:0:0:0:
10,38,32178,6,0,P|95:52|90:162,1,202.500007724762,6|0,1:0|1:0,2:0:0:0:
17,248,32744,2,0,P|52:210|130:219,1,135.000005149842,8|2,2:0|2:0,2:0:0:0:
159,379,33168,6,0,P|191:342|187:293,1,101.250003862381,2|0,1:0|0:0,2:0:0:0:
181,285,33451,1,8,2:0:0:0:
277,121,33593,2,0,P|313:114|278:123,1,101.250003862381,0|0,1:0|0:0,2:0:0:0:
186,98,33876,2,0,L|208:212,1,107.999996704102,10|0,2:0|2:0,2:0:0:0:
207,203,34300,1,0,2:0:0:0:
390,375,34442,6,0,P|356:330|281:321,2,135.000005149842,2|0|8,1:0|1:0|2:0,2:0:0:0:
360,297,35149,1,0,2:0:0:0:
459,187,35291,1,2,2:0:0:0:
512,246,35432,6,0,L|380:202,1,135.000005149842,0|0,1:0|3:0,2:0:0:0:
285,29,35857,2,0,P|249:22|284:31,1,101.250003862381,0|0,1:0|0:0,2:0:0:0:
362,54,36140,2,0,B|314:32|252:77|280:116|224:151|169:126,1,216,14|0,2:0|2:0,2:0:0:0:
0,58,36706,6,0,P|48:89|87:124,1,107.999996704102,10|0,1:2|3:0,2:0:0:0:
85,122,37130,1,0,2:0:0:0:
75,275,37272,2,0,P|65:289|55:301,4,26.9999991760254,10|0|0|0|0,3:2|3:2|3:2|3:2|3:2,2:0:0:0:
119,204,37696,1,2,3:2:0:0:
306,151,37838,6,0,P|254:177|204:193,1,107.999996704102,10|0,1:2|3:0,2:0:0:0:
206,192,38263,1,2,2:0:0:0:
86,122,38404,2,0,P|78:106|73:91,4,26.9999991760254,10|0|0|0|0,3:2|3:2|3:2|3:2|3:2,2:0:0:0:
119,204,38829,1,2,3:2:0:0:
61,381,38970,6,0,P|64:322|74:271,1,107.999996704102,10|0,1:2|3:0,2:0:0:0:
73,274,39395,1,2,2:0:0:0:
179,111,39536,1,10,2:0:0:0:
179,111,39819,2,0,P|175:93|170:80,3,26.9999991760254,8|0|2|0,3:2|3:2|3:2|3:2,2:0:0:0:
206,192,40102,6,0,P|170:146|87:147,1,135.000005149842,2|8,1:2|2:0,2:0:0:0:
97,141,40527,1,2,2:0:0:0:
289,268,40668,2,0,P|341:242|357:160,1,135.000005149842,10|0,2:0|2:0,2:0:0:0:
329,59,41234,5,4,1:0:0:0:
315,51,41517,1,0,2:0:0:0:
329,43,41800,1,4,2:3:0:0:
354,170,42083,2,0,P|366:156|364:175,1,45,4|0,2:3|2:0,2:0:0:0:
320,59,42366,5,4,2:3:0:0:
320,43,42649,1,4,2:3:0:0:
333,51,42932,1,4,2:3:0:0:
367,172,43215,2,0,L|375:194,1,22.5,8|4,2:3|2:3,2:0:0:0:
424,305,43428,2,0,L|432:327,1,22.5,8|4,2:3|1:0,2:0:0:0:
443,254,43781,5,4,2:3:0:0:
457,350,44064,1,4,2:3:0:0:
366,314,44347,1,4,2:3:0:0:
494,298,44630,1,4,2:3:0:0:
399,371,44913,1,4,2:3:0:0:
381,252,45196,2,0,L|351:245,3,22.5,8|4|4|4,2:0|2:3|2:3|2:3,2:0:0:0:
282,277,45479,2,0,L|252:270,2,22.5,4|4|4,2:3|2:3|2:3,2:0:0:0:
104,229,45763,6,0,P|136:244|105:225,1,101.250003862381,12|0,2:0|0:0,2:0:0:0:
50,102,46046,2,0,P|39:135|47:179,1,67.5000025749208,0|0,2:0|2:0,2:0:0:0:
235,198,46329,2,0,P|211:174|181:158,1,67.5000025749208,4|0,2:3|2:0,2:0:0:0:
66,347,46612,2,0,P|101:337|139:306,1,67.5000025749208,8|0,2:0|2:0,2:0:0:0:
111,218,46895,6,0,P|125:238|103:226,1,67.5000025749208,8|0,1:2|2:0,2:0:0:0:
66,347,47178,2,0,P|33:354|0:351,1,67.5000025749208,8|0,2:0|2:0,2:0:0:0:
231,204,47461,2,0,P|254:229|268:260,1,67.5000025749208,8|0,2:0|2:0,2:0:0:0:
53,102,47744,2,0,P|62:70|82:43,1,67.5000025749208,8|0,2:0|2:0,2:0:0:0:
190,22,48027,5,14,1:2:0:0:
36,256,48310,2,0,P|9:231|-6:197,3,45,8|8|8|8,2:0|2:0|2:0|2:0,2:0:0:0:
140,140,48593,2,0,P|174:129|211:132,3,45,4|4|4|4,2:3|2:3|2:3|2:3,2:0:0:0:
174,296,48876,2,0,P|166:326|149:351,1,45,12|12,2:3|2:3,2:0:0:0:
120,224,49017,6,0,P|160:172|278:166,1,180,14|0,1:2|2:0,2:0:0:0:
300,33,49442,5,8,1:2:0:0:
300,33,49513,1,8,2:0:0:0:
300,33,49583,2,8,P|288:58|279:89,1,45,8|8,2:0|2:0,2:0:0:0:
431,27,49725,1,10,1:2:0:0:
431,27,49796,1,8,2:0:0:0:
431,27,49866,2,0,P|404:36|376:51,1,45,8|8,2:0|2:0,2:0:0:0:
512,125,50008,1,10,1:2:0:0:
512,125,50079,1,8,2:0:0:0:
512,125,50149,2,0,P|487:112|456:103,1,45,8|8,2:0|2:0,2:0:0:0:
267,161,50291,6,0,P|289:216|382:222,1,148.50000453186,6|0,1:0|0:0,2:0:0:0:
384,244,50574,2,0,P|358:286|341:332,1,99.0000030212403,8|0,2:0|2:0,2:0:0:0:
240,384,50857,1,0,1:0:0:0:
240,384,50998,1,0,1:0:0:0:
101,232,51140,1,10,2:0:0:0:
184,254,51281,6,0,P|137:312|53:304,1,148.50000453186,0|0,1:0|0:0,2:0:0:0:
148,348,51564,2,0,P|162:335|145:346,1,49.5000015106202,0|0,1:0|0:0,2:0:0:0:
67,312,51706,2,0,P|14:256|37:175,1,148.50000453186,8|0,2:0|0:0,2:0:0:0:
37,185,51989,1,2,1:0:0:0:
190,51,52130,1,0,1:0:0:0:
247,109,52272,2,0,P|179:85|88:67,1,148.50000453186,10|0,2:0|0:0,2:0:0:0:
0,0,52555,6,0,P|86:32|191:52,1,198.000006042481,2|8,1:0|2:0,2:0:0:0:
376,17,52979,1,2,0:0:0:0:
291,25,53121,2,0,P|338:50|351:98,1,99.0000030212403,2|0,1:2|1:0,2:0:0:0:
306,173,53404,1,10,2:0:0:0:
121,248,53546,6,0,B|169:229|225:261|195:303|243:331|304:320,1,198.000006042481,4|0,1:0|1:0,2:0:0:0:
67,384,53970,2,0,P|2:361|4:285,1,148.50000453186,10|0,2:0|0:0,2:0:0:0:
8,283,54253,1,0,1:0:0:0:
41,195,54395,1,0,1:0:0:0:
147,364,54536,2,0,P|211:339|294:321,1,148.50000453186,10|0,2:0|0:0,2:0:0:0:
309,244,54819,6,0,P|337:309|412:305,1,148.50000453186,2|0,1:0|0:0,2:0:0:0:
418,299,55102,2,0,P|440:256|408:205,1,99.0000030212403,8|0,2:0|2:0,2:0:0:0:
341,165,55385,1,0,2:0:0:0:
341,165,55527,1,0,1:0:0:0:
444,39,55668,1,10,2:0:0:0:
512,102,55810,6,0,P|417:68|316:45,1,198.000006042481,2|0,1:0|1:0,2:0:0:0:
192,173,56234,2,0,P|242:151|253:105,1,99.0000030212403,8|0,2:0|2:0,2:0:0:0:
116,48,56517,1,2,1:0:0:0:
116,48,56659,1,0,1:0:0:0:
7,19,56800,2,0,P|54:49|79:139,1,148.50000453186,10|0,2:0|0:0,2:0:0:0:
51,214,57083,6,0,B|23:239|40:275|74:250|57:203,1,101.250003862381,2|0,1:0|0:0,2:0:0:0:
212,99,57366,2,0,P|156:89|77:137,1,148.50000453186,12|0,2:0|0:0,2:0:0:0:
116,48,57649,1,8,2:0:0:0:
121,37,57720,1,8,2:3:0:0:
126,26,57791,1,0,1:0:0:0:
216,0,57932,1,8,2:0:0:0:
319,144,58074,6,0,P|363:203|364:279,1,148.50000453186,6|0,1:0|0:0,2:0:0:0:
332,349,58357,2,0,P|318:363|336:352,1,56.25,0|0,1:0|0:0,2:0:0:0:
433,216,58498,2,0,P|340:202|282:282,1,198.000006042481,8|2,2:0|1:0,2:0:0:0:
283,278,58923,6,0,P|277:253|261:233,1,49.5000015106202,8|8,2:0|2:0,2:0:0:0:
113,282,59064,1,10,1:2:0:0:
107,322,59135,1,8,2:0:0:0:
125,355,59206,1,8,2:0:0:0:
162,369,59277,1,8,2:0:0:0:
170,360,59347,6,0,P|150:272|121:196,1,148.50000453186,6|0,1:0|0:0,2:0:0:0:
115,206,59630,2,0,P|70:194|46:142,1,99.0000030212403,8|0,2:0|2:0,2:0:0:0:
93,29,59913,1,0,1:0:0:0:
93,29,60055,1,0,1:0:0:0:
282,130,60196,1,10,2:0:0:0:
198,126,60338,6,0,P|218:73|304:49,1,148.50000453186,0|0,1:0|0:0,2:0:0:0:
209,31,60621,2,0,P|195:44|212:33,1,49.5000015106202,0|0,1:0|0:0,2:0:0:0:
300,48,60763,2,0,P|358:91|351:173,1,148.50000453186,8|0,2:0|0:0,2:0:0:0:
341,178,61046,1,2,1:0:0:0:
511,278,61187,1,0,1:0:0:0:
486,355,61329,2,0,P|468:270|434:199,1,148.50000453186,10|0,2:0|0:0,2:0:0:0:
452,90,61612,6,0,P|466:171|513:281,1,198.000006042481,2|8,1:0|2:0,2:0:0:0:
404,339,62036,2,0,P|372:377|317:383,1,99.0000030212403,2|0,0:0|1:0,0:0:0:0:
249,343,62319,1,0,1:0:0:0:
302,212,62461,1,10,2:0:0:0:
119,337,62602,6,0,P|85:297|176:318,1,225,4|0,1:0|1:0,2:0:0:0:
73,173,63027,2,0,P|84:136|7:147,1,148.50000453186,10|0,2:0|0:0,2:0:0:0:
8,148,63310,1,2,1:0:0:0:
13,233,63451,1,0,1:0:0:0:
83,68,63593,2,0,B|155:83|136:6|218:26,1,148.50000453186,10|0,2:0|0:0,2:0:0:0:
238,33,63876,6,0,P|184:75|177:166,1,148.50000453186,6|0,1:0|0:0,2:0:0:0:
142,234,64159,2,0,P|184:180|275:173,1,148.50000453186,8|0,2:0|0:0,2:0:0:0:
266,179,64442,1,0,1:0:0:0:
309,372,64583,2,0,P|352:314|345:242,1,148.50000453186,0|0,1:0|0:0,2:0:0:0:
385,330,64866,1,8,2:0:0:0:
271,294,65008,6,0,P|296:255|352:242,1,99.0000030212403,2|0,1:0|2:0,2:0:0:0:
423,199,65291,2,0,P|396:161|352:150,1,90,8|0,2:0|2:0,2:0:0:0:
512,201,65574,2,0,P|510:240|486:272,1,80.9999975280763,0|0,1:0|1:0,2:0:0:0:
442,95,65857,2,0,P|461:84|443:99,1,67.5,10|0,2:0|0:0,2:0:0:0:
457,0,66140,6,0,P|426:54|351:72,1,135,6|0,1:0|0:0,2:0:0:0:
295,12,66423,2,0,P|308:4|296:15,2,45,8|0|0,2:0|2:0|2:0,2:0:0:0:
0,122,66706,2,0,P|-2:74|27:36,1,90,6|0,1:0|2:0,2:0:0:0:
163,162,66989,2,0,P|187:124|184:80,1,90,10|0,2:0|2:0,2:0:0:0:
115,16,67272,6,0,L|63:200,1,180,6|8,1:0|2:0,2:0:0:0:
113,272,67696,1,8,2:0:0:0:
6,377,67838,1,2,1:0:0:0:
6,377,67979,1,0,1:0:0:0:
31,303,68121,2,0,P|41:368|106:357,1,135,8|0,2:0|0:0,2:0:0:0:
111,356,68404,6,0,B|177:322|270:308,2,161.999995056153,6|8|0,1:0|2:0|1:0,2:0:0:0:
189,299,69112,2,0,P|210:248|310:246,1,161.999995056153,0|8,1:0|2:0,2:0:0:0:
472,384,69536,6,0,P|482:341|495:304,1,80.9999975280763,0|0,1:0|2:0,2:0:0:0:
378,361,69819,2,0,P|388:318|401:281,1,80.9999975280763,8|0,2:0|2:0,2:0:0:0:
295,336,70102,1,0,1:0:0:0:
295,336,70244,1,0,1:0:0:0:
168,214,70385,2,0,P|175:193|172:223,1,121.499996292114,10|0,2:0|0:0,2:0:0:0:
184,309,70668,6,0,P|124:294|91:228,1,121.499996292114,6|0,1:0|0:0,2:0:0:0:
26,334,70951,2,0,P|77:302|89:228,1,121.499996292114,8|0,2:0|0:0,2:0:0:0:
66,235,71234,2,0,P|52:195|28:152,1,80.9999975280763,6|0,1:0|2:0,2:0:0:0:
262,53,71517,2,0,P|244:88|230:127,1,80.9999975280763,10|0,2:0|2:0,2:0:0:0:
0,37,71800,6,0,P|58:51|115:72,1,121.499996292114,6|0,1:0|0:0,2:0:0:0:
120,88,72083,1,8,2:0:0:0:
180,22,72225,1,8,2:0:0:0:
262,53,72366,1,2,1:0:0:0:
262,53,72508,1,4,2:3:0:0:
167,160,72649,2,0,P|158:181|170:161,1,67.5,8|0,2:0|0:0,2:0:0:0:
143,324,72932,6,0,P|127:270|98:226,1,101.250003862381,6|0,1:0|0:0,2:0:0:0:
228,313,73215,2,0,P|228:257|244:206,1,101.250003862381,8|0,2:0|0:0,2:0:0:0:
252,208,73498,1,0,2:0:0:0:
83,382,73640,2,0,P|41:359|-3:350,1,67.5000025749208,8|0,2:0|2:0,2:0:0:0:
304,360,73923,5,8,2:0:0:0:
304,360,73994,1,8,2:0:0:0:
304,360,74064,2,0,P|345:337|418:324,1,101.250003862381,0|0,1:0|0:0,2:0:0:0:
509,204,74347,2,0,P|467:226|395:240,1,101.250003862381,8|0,2:0|0:0,2:0:0:0:
401,233,74630,1,0,2:0:0:0:
315,164,74772,2,0,P|344:149|381:140,1,67.5000025749208,8|2,2:0|2:0,2:0:0:0:
494,20,75055,5,8,2:0:0:0:
494,20,75126,1,8,2:0:0:0:
494,20,75196,2,0,P|452:42|380:56,1,101.250003862381,2|0,1:0|0:0,2:0:0:0:
387,43,75479,6,0,P|314:13|320:88,1,168.75,12|0,2:0|0:0,2:0:0:0:
377,140,75763,1,8,2:0:0:0:
386,135,75833,1,8,2:3:0:0:
395,130,75904,1,4,2:3:0:0:
225,217,76046,1,10,2:0:0:0:
297,282,76187,6,0,P|220:247|97:213,1,202.500007724762,2|2,1:3|2:0,2:0:0:0:
475,384,77461,5,2,1:0:0:0:
475,384,77744,2,0,L|506:287,1,101.250003862381,0|0,1:0|0:0,2:0:0:0:
468,198,78027,2,0,P|449:212|468:200,1,67.5,10|0,2:0|0:0,2:0:0:0:
500,276,78310,1,2,2:0:0:0:
508,122,78451,6,0,L|379:162,1,135.000005149842,2|0,1:3|2:0,2:0:0:0:
346,238,78876,2,0,P|323:214|290:200,2,67.5000025749208,2|0|2,1:0|2:0|2:0,2:0:0:0:
183,284,79300,2,0,P|191:251|211:224,1,67.5000025749208,8|2,2:0|2:0,2:0:0:0:
306,365,79583,5,10,2:0:0:0:
306,365,79654,1,8,2:0:0:0:
306,365,79725,1,0,1:0:0:0:
5,302,80008,2,0,P|-13:316|5:304,1,67.5,2|0,1:0|0:0,2:0:0:0:
37,384,80291,2,0,L|72:253,1,135.000005149842,10|2,2:0|2:0,2:0:0:0:
10,144,80715,6,0,P|40:94|125:93,1,135.000005149842,2|0,1:3|3:0,2:0:0:0:
117,0,81069,1,0,3:0:0:0:
120,9,81140,2,0,P|152:63|226:72,1,135,10|0,2:0|0:0,2:0:0:0:
233,52,81423,1,8,2:0:0:0:
360,104,81564,1,0,1:0:0:0:
262,185,81706,2,0,P|240:201|261:191,1,80.9999975280763,8|0,2:0|0:0,2:0:0:0:
341,206,81989,5,8,2:0:0:0:
316,17,82131,1,8,2:0:0:0:
167,133,82272,2,0,L|200:294,1,135,6|0,1:0|0:0,2:0:0:0:
197,277,82555,1,10,2:0:0:0:
82,241,82696,1,2,2:0:0:0:
116,353,82838,1,0,2:0:0:0:
116,353,82979,6,0,P|203:311|326:279,1,202.500007724762,6|0,1:0|2:0,2:0:0:0:
232,322,83829,2,0,P|255:356|283:366,2,67.5000025749208,8|8|4,2:0|2:3|2:3,2:0:0:0:
304,282,84253,6,0,B|407:262|374:377|468:384|526:357|527:300|503:263|455:258,1,315,4|4,1:0|1:2,2:0:0:0:
256,192,85385,12,2,86517,2:0:0:0:
11,375,87508,5,2,2:0:0:0:
11,375,88215,2,0,L|-4:320,3,45,2|2|2|2,2:0|2:0|2:0|2:0,2:0:0:0:
11,243,88781,6,0,P|31:264|60:274,1,56.25,10|0,2:0|0:0,2:0:0:0:
133,250,88923,1,2,1:0:0:0:
169,380,89064,2,0,P|177:352|171:322,1,56.25,10|0,2:0|0:0,2:0:0:0:
302,120,89206,6,0,P|224:129|171:183,1,148.50000453186,2|0,1:3|0:0,2:0:0:0:
165,171,89489,2,0,P|156:93|102:40,1,148.50000453186,2|0,1:3|0:0,2:0:0:0:
231,20,89772,6,0,P|221:53|240:22,1,101.250003862381,6|0,1:0|0:0,2:0:0:0:
239,9,90055,1,10,2:0:0:0:
172,150,90196,6,0,P|141:185|183:152,1,168.75,4|0,1:0|0:0,2:0:0:0:
193,135,90479,1,8,2:0:0:0:
97,289,90621,6,0,P|81:360|158:299,1,225,0|0,1:0|0:0,2:0:0:0:
160,240,91046,6,0,P|199:313|342:320,1,236.250009012223,6|0,1:0|0:0,2:0:0:0:
346,326,91612,2,0,P|366:297|364:247,2,67.5000025749208,8|0|2,2:0|2:0|2:0,2:0:0:0:
294,225,92036,6,0,P|263:210|292:227,1,101.250003862381,2|0,1:0|0:0,2:0:0:0:
373,257,92319,1,8,2:0:0:0:
481,348,92461,2,0,P|497:278|521:218,2,135.000005149842,0|10|0,1:0|2:0|2:0,2:0:0:0:
468,146,93168,5,0,3:0:0:0:
468,146,93239,1,0,3:0:0:0:
468,146,93310,2,0,P|447:120|414:110,1,67.5000025749208,2|0,1:0|2:0,2:0:0:0:
361,32,93593,2,0,P|314:69|307:122,1,101.250003862381,2|0,1:0|0:0,2:0:0:0:
303,118,93876,2,0,P|252:74|184:89,1,135.000005149842,8|0,2:0|2:0,2:0:0:0:
15,97,94300,6,0,P|6:43|42:3,1,101.250003862381,0|0,1:0|0:0,2:0:0:0:
45,1,94583,1,8,2:0:0:0:
106,130,94725,2,0,P|149:81|139:16,1,135.000005149842,2|10,1:2|2:0,2:0:0:0:
189,84,95149,1,0,2:0:0:0:
40,176,95291,2,0,P|13:183|45:181,1,101.250003862381,2|0,2:0|0:0,2:0:0:0:
75,330,95574,6,0,P|113:292|173:285,1,101.250003862381,6|0,1:0|0:0,2:0:0:0:
170,288,95857,2,0,P|208:326|215:386,1,101.250003862381,0|0,1:0|0:0,2:0:0:0:
208,383,96140,1,8,2:0:0:0:
378,344,96281,2,0,L|289:365,1,67.5000025749208,0|2,2:0|2:0,2:0:0:0:
154,200,96564,6,0,P|127:207|159:205,1,101.250003862381,2|0,1:3|0:0,2:0:0:0:
231,160,96847,1,10,2:0:0:0:
375,90,96989,1,0,1:0:0:0:
435,158,97130,2,0,L|408:246,2,67.5000025749208,2|8|2,2:0|2:0|2:0,2:0:0:0:
467,61,97555,2,0,L|491:-18,1,67.5000025749208,2|0,2:0|3:0,2:0:0:0:
281,36,97838,6,0,P|343:32|374:96,2,135.000005149842,2|0|8,1:0|1:0|2:0,2:0:0:0:
220,95,98546,2,0,P|211:133|228:177,1,67.5000025749208,0|0,2:0|2:0,2:0:0:0:
240,248,98829,6,0,P|210:191|146:194,1,135.000005149842,0|0,1:0|2:0,2:0:0:0:
82,248,99253,1,0,1:0:0:0:
478,332,99536,2,0,B|519:310|492:266|439:302|474:379,1,135,12|8,2:0|2:3,2:0:0:0:
470,371,100102,5,6,1:2:0:0:
0,384,101800,6,0,L|66:368,2,62.9999980773926,2|2|6,2:0|2:0|1:0,2:0:0:0:
119,302,103781,5,8,2:3:0:0:
0,384,104064,2,0,L|66:368,1,62.9999980773926,2|10,2:0|2:3,2:0:0:0:
156,384,104489,1,4,2:3:0:0:
156,384,104630,5,6,1:0:0:0:
206,314,104913,1,2,2:0:0:0:
173,231,105196,1,2,2:3:0:0:
87,218,105480,1,2,2:0:0:0:
30,287,105763,1,2,2:0:0:0:
61,369,106046,2,0,L|127:353,2,62.9999980773926,2|2|0,2:0|2:3|2:0,2:0:0:0:
87,218,106895,5,2,2:0:0:0:
61,369,107178,1,0,3:0:0:0:
206,314,107461,1,8,2:0:0:0:
84,208,107744,5,8,2:0:0:0:
69,376,108027,1,10,2:0:0:0:
222,301,108310,1,8,2:0:0:0:
120,295,108593,5,10,2:0:0:0:
328,276,108876,1,0,1:0:0:0:
328,276,109017,1,4,2:3:0:0:
317,364,109159,6,0,P|302:270|264:142,1,215.999993408203,6|8,1:0|2:0,2:0:0:0:
422,225,110008,1,2,1:0:0:0:
415,138,110291,2,0,P|386:101|311:98,1,107.999996704102,2|2,2:0|1:0,2:0:0:0:
251,18,110857,2,0,P|214:47|211:122,1,107.999996704102,10|2,2:0|2:0,2:0:0:0:
129,130,111281,1,0,2:0:0:0:
129,130,111423,6,0,P|94:89|42:82,1,107.999996704102,2|2,1:0|1:3,2:0:0:0:
223,223,111989,1,8,2:0:0:0:
223,223,112272,2,0,B|132:203|151:285|69:276,1,161.999995056153,2|0,1:3|2:0,2:0:0:0:
60,293,112838,2,0,P|79:340|139:346,1,107.999996704102,2|10,1:0|2:0,2:0:0:0:
235,326,113404,2,0,L|290:342,1,53.9999983520508,2|0,2:0|2:0,2:0:0:0:
292,348,113616,1,0,2:0:0:0:
297,354,113687,6,0,P|349:326|413:308,1,107.999996704102,2|0,1:0|1:0,2:0:0:0:
335,230,114253,1,8,2:0:0:0:
508,224,114536,2,0,P|456:207|409:181,1,107.999996704102,2|2,1:0|2:0,2:0:0:0:
371,92,115102,2,0,P|323:117|272:134,1,107.999996704102,2|10,1:0|2:0,2:0:0:0:
440,6,115668,1,2,2:0:0:0:
330,0,115951,6,0,P|278:16|231:42,2,107.999996704102,2|0|8,1:0|1:0|2:0,2:0:0:0:
14,138,116800,1,0,1:0:0:0:
88,81,117083,2,0,P|139:97|186:123,2,107.999996704102,2|0|10,2:0|1:0|2:3,2:0:0:0:
256,192,117932,1,0,2:0:0:0:
312,340,118215,6,0,B|254:331|268:376|209:371,1,108,6|0,1:0|2:0,2:0:0:0:
322,321,119347,6,0,B|244:308|263:369|184:362,2,135,6|8|12,1:0|2:3|2:3,2:0:0:0:
330,301,120479,6,0,B|244:287|265:353|178:346,1,161.999995056153,6|0,1:0|2:0,2:0:0:0:
337,281,121612,6,0,B|241:266|264:340|166:332,1,180,6|8,1:0|1:2,2:0:0:0:
438,376,122461,1,4,2:3:0:0:
438,376,122602,1,4,2:3:0:0:
512,350,122744,6,0,P|433:325|461:230,1,202.500007724762,6|0,1:0|2:0,2:0:0:0:
499,143,123310,2,0,P|459:192|378:183,1,135.000005149842,8|2,2:0|2:0,2:0:0:0:
265,218,123734,6,0,P|316:231|343:292,1,101.250003862381,2|0,1:0|0:0,2:0:0:0:
339,283,124017,1,8,2:0:0:0:
393,91,124159,2,0,P|422:112|404:80,1,101.250003862381,0|0,1:0|0:0,2:0:0:0:
320,49,124442,2,0,L|206:76,1,107.999996704102,10|0,2:0|2:0,2:0:0:0:
214,73,124866,1,0,2:0:0:0:
66,104,125008,6,0,P|61:47|2:0,2,135.000005149842,2|0|8,1:0|1:0|2:0,2:0:0:0:
22,173,125715,1,0,2:0:0:0:
204,314,125857,1,2,2:0:0:0:
131,260,125998,6,0,P|67:283|2:302,1,135.000005149842,0|8,1:0|2:0,2:0:0:0:
317,363,126423,2,0,P|279:366|311:346,1,101.250003862381,0|0,1:0|0:0,2:0:0:0:
402,326,126706,2,0,B|397:371|346:380|308:356|298:291|371:227,1,216,14|0,2:0|3:0,2:0:0:0:
512,117,127272,6,0,P|490:159|425:177,1,107.999996704102,14|0,1:2|3:0,2:0:0:0:
435,179,127696,1,2,3:2:0:0:
340,81,127838,2,0,P|339:64|347:49,4,26.9999991760254,10|0|0|0|0,3:2|3:0|3:0|3:0|3:0,2:0:0:0:
350,167,128263,1,2,3:2:0:0:
318,333,128404,6,0,P|292:292|308:227,1,107.999996704102,10|0,1:2|3:0,2:0:0:0:
302,235,128829,1,2,3:2:0:0:
435,178,128970,2,0,P|450:185|459:200,4,26.9999991760254,10|0|0|0|0,3:2|3:0|3:0|3:0|3:0,2:0:0:0:
350,167,129395,1,2,3:2:0:0:
248,46,129536,6,0,P|295:43|344:90,1,107.999996704102,10|0,1:2|2:0,2:0:0:0:
339,80,129961,1,2,3:2:0:0:
153,56,130102,1,10,1:2:0:0:
153,56,130385,2,0,P|164:73|157:102,3,26.9999991760254,0|0|2|0,3:0|3:0|3:2|3:0,2:0:0:0:
85,134,130668,6,0,P|63:176|-1:194,1,107.999996704102,10|8,1:2|2:0,2:0:0:0:
8,196,131093,1,2,2:0:0:0:
216,156,131234,6,0,P|249:212|225:282,1,135,10|0,3:2|1:0,2:0:0:0:
154,351,131800,5,4,1:0:0:0:
127,342,132083,1,0,2:0:0:0:
147,324,132366,1,4,2:3:0:0:
40,299,132649,2,0,P|22:292|38:302,1,45,4|0,2:3|2:0,2:0:0:0:
138,354,132932,5,4,2:3:0:0:
132,327,133215,1,4,2:3:0:0:
158,335,133498,1,4,2:3:0:0:
103,204,133781,2,0,L|109:225,3,22.5,8|4|4|8,2:3|2:3|2:3|2:3,2:0:0:0:
70,75,134064,5,4,1:0:0:0:
51,126,134347,1,4,2:3:0:0:
37,30,134630,1,4,2:3:0:0:
128,66,134913,1,4,2:3:0:0:
0,82,135196,1,4,2:3:0:0:
95,9,135479,1,4,2:3:0:0:
113,128,135762,2,0,L|143:135,3,22.5,8|4|4|4,2:0|2:3|2:3|2:3,2:0:0:0:
212,103,136045,2,0,L|242:110,2,22.5,4|4|4,2:3|2:3|2:3,2:0:0:0:
423,132,136329,6,0,P|397:141|422:137,1,80.9999975280763,12|0,2:0|0:0,2:0:0:0:
399,39,136612,2,0,P|362:49|330:77,1,67.5000025749208,0|0,2:0|2:0,2:0:0:0:
328,189,136895,2,0,P|355:216|395:229,1,67.5000025749208,4|0,2:3|2:0,2:0:0:0:
499,179,137178,2,0,P|508:141|500:100,1,67.5000025749208,8|0,2:0|2:0,2:0:0:0:
420,136,137461,6,0,P|395:131|420:130,1,67.5000025749208,8|0,1:2|2:0,2:0:0:0:
489,236,137744,2,0,P|461:255|428:263,1,67.5000025749208,8|0,2:0|2:0,2:0:0:0:
283,162,138027,2,0,P|279:128|289:96,1,67.5000025749208,8|0,2:0|2:0,2:0:0:0:
459,16,138310,2,0,P|489:30|512:54,1,67.5000025749208,8|0,2:0|2:0,2:0:0:0:
347,7,138593,5,14,1:2:0:0:
341,233,138876,6,0,P|352:213|365:195,3,45,8|8|8|8,2:0|2:0|2:0|2:0,2:0:0:0:
512,146,139159,2,0,P|489:146|467:143,3,45,4|4|4|4,2:3|2:3|2:3|2:3,2:0:0:0:
359,58,139442,2,0,P|370:77|379:98,1,45,12|12,2:3|2:3,2:0:0:0:
346,354,139583,6,0,P|307:224|251:95,1,270.000010299683,14|0,1:2|2:0,2:0:0:0:
253,100,140291,6,0,P|241:77|227:55,2,45,0|0|2,2:0|2:0|2:0,2:0:0:0:
38,371,149206,5,0,1:0:0:0:
47,376,149277,1,0,1:0:0:0:
55,382,149347,2,0,P|214:329|439:284,1,362.250006909371,14|0,2:0|0:0,2:0:0:0:
470,240,149913,6,0,P|398:263|317:274,1,148.50000453186,6|0,1:0|0:0,2:0:0:0:
321,289,150196,2,0,P|272:279|249:225,1,99.0000030212403,8|0,2:0|2:0,2:0:0:0:
254,127,150479,1,0,2:0:0:0:
254,127,150621,1,0,1:0:0:0:
434,1,150763,1,10,2:0:0:0:
468,91,150904,6,0,P|421:34|346:51,1,148.50000453186,0|0,1:0|0:0,2:0:0:0:
378,133,151187,2,0,P|392:120|375:131,1,49.5000015106202,0|0,1:0|0:0,2:0:0:0:
353,44,151329,2,0,P|309:99|238:90,1,148.50000453186,8|0,2:0|0:0,2:0:0:0:
231,77,151612,1,2,2:0:0:0:
26,194,151753,1,0,1:0:0:0:
91,132,151895,2,0,P|68:197|50:277,1,148.50000453186,10|0,2:0|0:0,2:0:0:0:
0,368,152178,6,0,P|17:316|36:232,1,99.0000030212403,2|0,1:0|2:0,2:0:0:0:
186,158,152461,1,8,0:0:0:0:
153,255,152602,2,0,P|201:328|301:314,1,198.000006042481,2|0,0:0|1:0,2:0:0:0:
343,196,153027,1,8,0:0:0:0:
380,375,153168,6,0,P|336:309|435:334,1,225,4|0,1:0|1:0,2:0:0:0:
495,224,153593,2,0,P|508:167|432:180,1,148.50000453186,10|0,2:0|0:0,2:0:0:0:
437,178,153876,1,0,1:0:0:0:
512,117,154017,1,0,1:0:0:0:
359,27,154159,2,0,P|284:44|202:74,1,148.50000453186,10|0,2:0|0:0,2:0:0:0:
199,80,154442,6,0,P|208:28|126:46,1,148.50000453186,6|0,1:0|0:0,2:0:0:0:
41,0,154725,2,0,P|99:42|106:113,1,148.50000453186,8|0,2:0|0:0,2:0:0:0:
95,124,155008,1,0,1:0:0:0:
6,276,155149,2,0,P|48:217|119:211,1,148.50000453186,0|0,1:0|0:0,2:0:0:0:
21,192,155432,1,8,2:0:0:0:
119,211,155574,6,0,P|158:236|171:292,1,99.0000030212403,2|0,1:0|2:0,2:0:0:0:
255,295,155857,2,0,P|282:260|284:216,1,90,8|0,2:0|2:0,2:0:0:0:
362,357,156140,2,0,P|323:377|279:370,1,80.9999975280763,0|0,1:0|2:0,2:0:0:0:
100,319,156423,2,0,P|80:329|102:321,1,67.5,10|0,2:0|0:0,2:0:0:0:
172,284,156706,6,0,P|181:213|206:119,1,148.50000453186,4|0,1:0|0:0,2:0:0:0:
115,109,156989,1,8,2:0:0:0:
101,61,157060,1,8,2:0:0:0:
59,35,157130,1,8,2:0:0:0:
6,37,157201,1,8,2:0:0:0:
0,50,157272,6,0,P|77:34|150:12,1,148.50000453186,12|0,1:2|0:0,2:0:0:0:
221,33,157555,1,10,2:0:0:0:
234,38,157626,1,8,2:0:0:0:
247,42,157696,1,8,2:0:0:0:
260,47,157767,1,8,2:0:0:0:
274,51,157838,6,0,P|297:27|339:13,3,56.25,6|8|8|8,1:0|2:0|2:0|2:0,2:0:0:0:
397,42,158121,1,8,2:0:0:0:
403,46,158192,1,8,2:0:0:0:
409,50,158263,2,0,P|424:79|425:123,3,56.25,10|8|8|8,1:2|2:0|2:0|2:0,2:0:0:0:
498,152,158546,5,8,2:0:0:0:
504,146,158616,1,8,2:0:0:0:
512,140,158687,2,0,B|451:127|424:169|424:169|414:162|414:162|372:218|304:200,1,225,10|0,1:2|1:0,2:0:0:0:
309,192,159112,6,0,P|314:213|313:190,1,67.5000025749208,12|0,2:0|0:0,2:0:0:0:
246,135,159253,2,0,P|223:161|222:199,1,67.5000025749208,10|0,2:0|0:0,2:0:0:0:
248,262,159395,1,0,1:0:0:0:
490,360,159536,5,14,2:0:0:0:
501,353,159819,5,10,2:0:0:0:
479,303,159890,1,8,2:0:0:0:
431,276,159961,1,8,2:0:0:0:
377,281,160031,1,8,2:0:0:0:
372,291,160102,6,0,P|302:306|224:331,1,148.50000453186,6|0,1:0|0:0,2:0:0:0:
216,343,160385,2,0,P|189:302|122:296,1,99.0000030212403,8|0,2:0|2:0,2:0:0:0:
0,356,160668,1,0,1:0:0:0:
0,356,160810,1,0,1:0:0:0:
110,194,160951,1,10,2:0:0:0:
34,229,161093,6,0,P|23:162|81:113,1,148.50000453186,4|0,1:0|0:0,2:0:0:0:
0,136,161376,2,0,P|-14:149|3:138,1,49.5000015106202,0|0,1:0|0:0,2:0:0:0:
49,30,161517,2,0,P|83:86|163:97,1,148.50000453186,8|0,2:0|0:0,2:0:0:0:
174,90,161800,1,2,1:0:0:0:
319,198,161942,1,0,1:0:0:0:
262,253,162083,2,0,P|274:179|297:109,1,148.50000453186,10|0,2:0|0:0,2:0:0:0:
355,4,162366,6,0,P|345:96|318:199,1,198.000006042481,2|8,1:0|2:0,2:0:0:0:
473,142,162791,1,0,0:0:0:0:
508,220,162932,2,0,P|489:268|439:285,1,99.0000030212403,0|0,1:2|1:0,2:0:0:0:
319,198,163215,1,10,2:0:0:0:
218,330,163357,6,0,P|119:347|15:378,1,198.000006042481,6|0,1:0|1:0,2:0:0:0:
312,295,163781,2,0,P|307:243|212:238,1,148.50000453186,8|0,2:0|0:0,2:0:0:0:
222,242,164064,1,0,1:0:0:0:
166,165,164206,1,0,1:0:0:0:
40,291,164347,2,0,P|23:209|0:131,1,148.50000453186,10|0,2:0|0:0,2:0:0:0:
0,54,164630,6,0,P|67:39|113:103,1,148.50000453186,2|0,1:0|0:0,2:0:0:0:
107,103,164913,2,0,P|114:57|170:36,1,99.0000030212403,8|0,2:0|2:0,2:0:0:0:
237,79,165196,1,0,1:0:0:0:
237,79,165338,1,0,1:0:0:0:
396,1,165479,1,10,2:0:0:0:
472,71,165621,6,0,B|498:155|424:137|433:218,1,148.50000453186,2|0,1:0|0:0,2:0:0:0:
444,216,165904,1,0,1:0:0:0:
381,99,166046,2,0,P|333:112|316:157,1,99.0000030212403,8|0,2:0|2:0,2:0:0:0:
362,230,166328,1,2,2:0:0:0:
362,230,166470,1,0,1:0:0:0:
476,372,166612,2,0,P|430:321|345:316,1,148.50000453186,8|0,2:0|0:0,2:0:0:0:
265,349,166895,6,0,B|228:357|225:397|267:391|275:342,1,101.250003862381,2|0,1:0|0:0,2:0:0:0:
453,219,167178,2,0,P|399:237|353:317,1,148.50000453186,12|0,2:0|0:0,2:0:0:0:
476,372,167461,1,8,2:0:0:0:
487,377,167532,1,8,2:3:0:0:
498,382,167603,1,4,2:3:0:0:
390,384,167743,1,10,2:0:0:0:
281,198,167885,6,0,B|207:188|229:263|142:257,1,148.50000453186,6|0,1:0|0:0,2:0:0:0:
75,222,168168,2,0,P|64:235|79:225,1,49.5000015106202,0|0,1:0|0:0,2:0:0:0:
46,324,168310,2,0,P|31:222|3:120,1,198.000006042481,8|2,2:0|1:0,2:0:0:0:
6,130,168734,6,0,P|4:103|25:73,1,49.5000015106202,8|8,2:0|2:0,2:0:0:0:
227,5,168875,1,10,2:0:0:0:
208,40,168946,1,8,2:0:0:0:
171,56,169017,1,8,2:0:0:0:
133,43,169088,1,8,2:0:0:0:
123,36,169159,6,0,P|145:110|159:192,1,148.50000453186,6|0,1:0|0:0,2:0:0:0:
171,194,169442,2,0,P|203:160|257:155,1,99.0000030212403,12|0,2:0|2:0,2:0:0:0:
336,187,169725,1,0,1:0:0:0:
336,187,169866,1,0,1:0:0:0:
146,371,170007,1,10,2:0:0:0:
148,283,170149,6,0,P|153:331|244:370,1,148.50000453186,0|0,1:0|0:0,2:0:0:0:
226,279,170432,2,0,P|238:293|228:276,1,49.5000015106202,0|0,1:0|0:0,2:0:0:0:
235,372,170574,2,0,P|282:363|315:270,1,148.50000453186,8|0,2:0|0:0,2:0:0:0:
327,269,170857,1,2,1:0:0:0:
510,308,170998,1,0,1:0:0:0:
481,380,171140,2,0,P|466:296|447:220,1,148.50000453186,10|0,2:0|0:0,2:0:0:0:
457,153,171423,6,0,P|425:193|377:203,1,99.0000030212403,2|0,1:0|2:0,2:0:0:0:
257,75,171706,1,8,0:0:0:0:
306,0,171847,2,0,P|411:3|466:83,1,198.000006042481,0|0,1:0|1:0,2:0:0:0:
374,114,172272,1,10,2:0:0:0:
194,6,172413,6,0,P|133:84|6:119,1,225,6|0,1:0|1:0,2:0:0:0:
173,176,172838,2,0,P|216:231|306:256,1,148.50000453186,10|0,2:0|0:0,2:0:0:0:
303,251,173121,1,0,1:0:0:0:
361,333,173262,1,0,1:0:0:0:
194,270,173404,2,0,P|123:286|36:318,1,148.50000453186,10|0,2:0|0:0,2:0:0:0:
33,315,173687,6,0,P|84:271|87:182,1,148.50000453186,6|0,1:0|0:0,2:0:0:0:
13,152,173970,2,0,P|57:106|141:106,1,148.50000453186,8|0,2:0|0:0,2:0:0:0:
148,112,174253,1,0,1:0:0:0:
161,4,174394,2,0,P|229:28|263:91,1,148.50000453186,0|0,1:0|0:0,2:0:0:0:
255,2,174677,1,8,2:0:0:0:
249,181,174819,6,0,P|239:135|269:86,1,99.0000030212403,2|0,1:0|2:0,2:0:0:0:
386,224,175102,2,0,P|341:228|309:258,1,90,8|0,2:0|2:0,2:0:0:0:
219,318,175385,2,0,P|263:332|290:382,1,80.9999975280763,0|0,1:0|1:0,2:0:0:0:
423,314,175668,2,0,P|411:335|429:319,1,67.5,10|0,2:0|0:0,2:0:0:0:
506,368,175951,6,0,P|500:279|470:247,1,135,6|0,1:0|0:0,2:0:0:0:
509,181,176234,2,0,P|522:173|510:184,2,45,8|0|0,2:0|2:0|2:0,2:0:0:0:
231,0,176517,2,0,P|275:10|304:43,1,90,6|0,1:0|2:0,2:0:0:0:
250,194,176800,2,0,P|292:179|320:146,1,90,10|0,2:0|2:0,2:0:0:0:
397,78,177083,6,0,L|189:120,1,180,6|8,1:0|2:0,2:0:0:0:
143,125,177507,1,8,2:0:0:0:
0,41,177649,1,2,1:0:0:0:
0,41,177790,1,0,1:0:0:0:
87,58,177932,2,0,P|22:68|33:133,1,135,10|0,2:0|0:0,2:0:0:0:
39,140,178215,6,0,P|16:209|2:304,2,161.999995056153,6|8|0,1:0|2:0|1:0,2:0:0:0:
12,384,178923,2,0,P|38:312|119:320,1,161.999995056153,0|8,1:0|2:0,2:0:0:0:
281,194,179347,6,0,P|242:207|203:216,1,80.9999975280763,0|0,1:0|2:0,2:0:0:0:
321,277,179630,2,0,P|282:290|243:299,1,80.9999975280763,8|0,2:0|2:0,2:0:0:0:
365,366,179913,1,0,2:0:0:0:
365,366,180055,1,0,1:0:0:0:
480,211,180196,2,0,P|477:188|487:217,1,121.499996292114,10|0,2:0|0:0,2:0:0:0:
501,302,180479,6,0,P|467:252|409:239,1,121.499996292114,6|0,1:0|0:0,2:0:0:0:
418,129,180763,2,0,P|392:182|409:239,1,121.499996292114,8|0,2:0|0:0,2:0:0:0:
398,254,181046,2,0,P|358:262|320:276,1,80.9999975280763,6|0,1:0|2:0,2:0:0:0:
194,112,181329,2,0,P|233:120|271:134,1,80.9999975280763,10|0,2:0|2:0,2:0:0:0:
499,10,181611,6,0,P|441:24|384:45,1,121.499996292114,6|0,1:0|0:0,2:0:0:0:
370,36,181894,1,8,2:0:0:0:
287,6,182036,1,10,2:0:0:0:
219,70,182177,1,2,1:0:0:0:
219,70,182319,1,4,2:3:0:0:
69,96,182461,2,0,P|60:117|72:97,1,67.5,10|0,2:0|0:0,2:0:0:0:
153,154,182744,6,0,P|182:195|199:242,1,101.250003862381,6|0,1:0|0:0,2:0:0:0:
70,203,183027,2,0,P|87:250|116:291,1,101.250003862381,8|0,2:0|0:0,2:0:0:0:
132,297,183310,1,0,2:0:0:0:
57,372,183451,2,0,P|101:380|147:375,1,67.5000025749208,8|0,2:0|2:0,2:0:0:0:
318,223,183734,5,8,2:0:0:0:
318,223,183805,1,8,2:0:0:0:
318,223,183876,2,0,P|296:268|264:307,1,101.250003862381,0|0,1:0|0:0,2:0:0:0:
361,129,184159,2,0,P|406:150|445:182,1,101.250003862381,8|0,2:0|0:0,2:0:0:0:
452,196,184442,1,2,2:0:0:0:
265,84,184583,2,0,P|282:45|309:13,1,67.5000025749208,8|2,2:0|2:0,2:0:0:0:
220,173,184866,5,8,2:0:0:0:
220,173,184937,1,8,2:0:0:0:
220,173,185008,2,0,P|174:151|135:119,1,101.250003862381,2|0,1:0|0:0,2:0:0:0:
126,127,185291,6,0,P|53:109|89:42,1,168.75,12|0,2:0|0:0,2:0:0:0:
150,0,185574,1,8,2:0:0:0:
160,4,185645,1,8,2:3:0:0:
170,7,185715,1,4,2:3:0:0:
0,163,185857,1,8,2:0:0:0:
57,249,185998,6,0,P|148:285|265:315,1,202.500007724762,2|2,1:3|2:0,2:0:0:0:
512,13,187272,5,0,1:0:0:0:
512,13,187413,1,0,2:0:0:0:
451,74,187555,2,0,L|368:97,1,67.5000025749208,2|0,1:0|2:0,2:0:0:0:
267,65,187838,2,0,P|281:27|344:23,1,101.250003862381,10|0,2:0|0:0,2:0:0:0:
343,25,188121,1,2,2:0:0:0:
441,239,188263,6,0,P|455:195|482:141,1,90,2|0,1:3|2:0,2:0:0:0:
365,281,188687,2,0,P|356:257|348:225,1,45,2|0,1:0|2:0,2:0:0:0:
329,368,188970,1,2,2:0:0:0:
329,368,189112,2,0,P|309:352|286:328,2,45,8|2|2,2:0|2:0|3:2,2:0:0:0:
117,348,189536,5,0,1:0:0:0:
117,348,189678,1,0,2:0:0:0:
166,287,189819,2,0,L|148:216,1,67.5000025749208,2|2,1:0|2:0,2:0:0:0:
24,122,190102,2,0,P|39:157|101:154,1,101.250003862381,10|0,2:0|0:0,2:0:0:0:
103,148,190385,1,2,2:0:0:0:
3,16,190527,6,0,B|86:39|86:39|89:37|89:37|206:70,1,202.500007724762,2|2,1:2|1:0,2:0:0:0:
197,67,191093,2,0,P|241:50|248:7,2,90,0|8|2,2:0|2:0|3:2,2:0:0:0:
42,87,191800,5,0,1:0:0:0:
42,87,191942,1,2,2:0:0:0:
5,175,192083,2,0,L|115:144,1,101.250003862381,2|0,1:0|0:0,2:0:0:0:
115,156,192366,2,0,P|140:199|78:231,1,135.000005149842,10|2,2:0|2:0,2:0:0:0:
0,384,192791,6,0,P|17:340|28:290,1,90,2|0,1:2|2:0,2:0:0:0:
161,257,193215,2,0,P|144:298|133:342,1,90,2|2,1:0|2:0,2:0:0:0:
231,384,193640,2,0,P|240:360|246:332,2,45,8|2|2,2:0|2:0|3:2,2:0:0:0:
440,247,194064,5,0,1:0:0:0:
440,247,194206,1,0,2:0:0:0:
394,319,194347,2,0,L|309:343,1,67.5000025749208,2|2,1:2|2:0,2:0:0:0:
246,258,194630,2,0,L|331:234,2,67.5000025749208,10|2|2,2:0|2:0|2:0,2:0:0:0:
410,93,195055,6,0,P|482:74|464:177,1,202.500007724762,2|2,1:3|1:0,2:0:0:0:
261,5,195763,1,10,2:0:0:0:
241,110,195904,1,10,2:0:0:0:
221,215,196046,2,0,P|204:201|221:220,1,90,10|2,2:0|1:3,2:0:0:0:
480,171,196612,6,0,L|426:188,2,53.9999983520508,0|0|0,2:0|2:0|2:0,2:0:0:0:
483,323,197036,1,0,2:0:0:0:
452,304,197178,1,2,2:0:0:0:
423,288,197319,2,0,L|312:322,1,107.999996704102,10|0,2:0|2:0,2:0:0:0:
258,274,197744,2,0,L|151:307,1,107.999996704102,2|0,1:3|2:0,2:0:0:0:
95,366,198168,2,0,L|36:384,2,53.9999983520508,8|2|10,2:0|2:0|2:0,2:0:0:0:
154,306,198593,1,0,1:0:0:0:
470,120,198876,6,0,L|424:134,2,40.4999987640381,0|0|0,2:0|2:0|2:0,2:0:0:0:
420,239,199300,1,0,2:0:0:0:
401,227,199442,1,0,2:0:0:0:
384,218,199583,2,0,L|299:244,1,80.9999975280763,10|0,2:0|2:0,2:0:0:0:
249,189,200008,2,0,L|164:215,1,80.9999975280763,2|2,1:3|2:0,2:0:0:0:
124,274,200432,1,8,2:0:0:0:
373,37,200715,5,2,3:2:0:0:
373,37,200857,1,0,1:0:0:0:
490,72,201140,2,0,L|453:83,2,26.9999991760254,2|0|0,2:0|2:0|2:0,2:0:0:0:
417,142,201564,1,0,2:0:0:0:
405,136,201706,1,0,2:3:0:0:
394,130,201847,2,0,L|340:146,1,53.9999983520508,10|0,2:0|3:0,2:0:0:0:
301,126,202272,2,0,L|247:142,1,53.9999983520508,2|0,1:3|2:0,2:0:0:0:
220,183,202696,2,0,L|184:194,2,26.9999991760254,10|2|2,2:0|2:0|2:0,2:0:0:0:
409,17,203121,6,0,L|325:45,2,80.9999975280763,2|0|0,1:0|2:0|2:0,2:0:0:0:
409,17,204112,5,4,1:0:0:0:
256,192,204253,12,0,206517,2:0:0:0:
