osu file format v14

[General]
AudioFilename: audio.mp3
AudioLeadIn: 0
PreviewTime: 140220
Countdown: 0
SampleSet: Soft
StackLeniency: 0.8
Mode: 0
LetterboxInBreaks: 0
WidescreenStoryboard: 1

[Editor]
DistanceSpacing: 0.2
BeatDivisor: 3
GridSize: 32
TimelineZoom: 2.9

[Metadata]
Title:Paper Bouquet
TitleUnicode:Paper Bouquet
Artist:Mili
ArtistUnicode:Mili
Creator:Esutarosa
Version:Pepekcz's Extra
Source:処刑少女の生きる道
Tags:momocashew cassie wei projectmili yamato kasai hamo Hinae AsuKow Pepekcz Shikibe Grazuko Mayu Soraka Shikibe_Mayu Kazato Asa Kazato_Asa Tachibana_ Shizuku- Shokei Shoujo no Virgin Road virgin-road project english rock pop conlang opening op バージンロード anime The Executioner and Her Way of Life
BeatmapID:3620243
BeatmapSetID:1767138

[Difficulty]
HPDrainRate:5.2
CircleSize:4.2
OverallDifficulty:8.4
ApproachRate:9.2
SliderMultiplier:1.88
SliderTickRate:1

[Events]
//Background and Video events
0,0,"BG.jpg",0,0
//Break Periods
2,140857,148636
//Storyboard Layer 0 (Background)
//Storyboard Layer 1 (Fail)
//Storyboard Layer 2 (Pass)
//Storyboard Layer 3 (Foreground)
//Storyboard Layer 4 (Overlay)
//Storyboard Sound Samples

[TimingPoints]
480,283.018867924528,4,2,20,40,1,0
480,-147.058823529412,4,2,20,40,0,0
621,-147.058823529412,4,2,21,40,0,0
763,-147.058823529412,4,2,22,40,0,0
904,-147.058823529412,4,2,23,40,0,0
1046,-147.058823529412,4,2,24,40,0,0
1329,-147.058823529412,4,2,23,40,0,0
1470,-147.058823529412,4,2,25,40,0,0
1612,-147.058823529412,4,2,26,25,0,0
1753,-147.058823529412,4,2,22,40,0,0
1895,-147.058823529412,4,2,25,40,0,0
2036,-147.058823529412,4,2,26,25,0,0
2178,-147.058823529412,4,2,25,40,0,0
2319,-147.058823529412,4,2,27,25,0,0
2461,-147.058823529412,4,2,28,25,0,0
2602,-147.058823529412,4,2,29,25,0,0
2744,-147.058823529412,4,2,1,25,0,0
3027,-147.058823529412,4,2,30,40,0,0
3168,-147.058823529412,4,2,31,40,0,0
3310,-147.058823529412,4,2,22,40,0,0
3451,-147.058823529412,4,2,30,25,0,0
3593,-147.058823529412,4,2,22,40,0,0
3734,-147.058823529412,4,2,26,40,0,0
4017,-147.058823529412,4,2,2,50,0,0
4159,-147.058823529412,4,2,32,50,0,0
4442,-147.058823529412,4,2,1,50,0,0
4583,-147.058823529412,4,2,31,50,0,0
5008,-147.058823529412,4,2,20,40,0,0
5149,-147.058823529412,4,2,21,40,0,0
5291,-147.058823529412,4,2,22,40,0,0
5432,-147.058823529412,4,2,23,40,0,0
5574,-147.058823529412,4,2,24,40,0,0
5857,-147.058823529412,4,2,23,40,0,0
5998,-147.058823529412,4,2,25,40,0,0
6140,-147.058823529412,4,2,26,25,0,0
6281,-147.058823529412,4,2,22,25,0,0
6423,-147.058823529412,4,2,25,40,0,0
6564,-147.058823529412,4,2,26,25,0,0
6706,-147.058823529412,4,2,25,40,0,0
6847,-147.058823529412,4,2,27,40,0,0
6989,-147.058823529412,4,2,28,40,0,0
7130,-147.058823529412,4,2,29,40,0,0
7272,-147.058823529412,4,2,33,40,0,0
7413,-147.058823529412,4,2,28,25,0,0
7555,-147.058823529412,4,2,27,25,0,0
7696,-147.058823529412,4,2,34,40,0,0
7838,-147.058823529412,4,2,28,25,0,0
7979,-147.058823529412,4,2,27,25,0,0
8121,-147.058823529412,4,2,29,40,0,0
8263,-147.058823529412,4,2,35,40,0,0
8687,-147.058823529412,4,2,31,40,0,0
8970,-147.058823529412,4,2,36,40,0,0
9112,-208.333333333334,4,2,1,40,0,0
9536,-92.5925925925927,4,2,30,70,0,0
9607,-92.5925925925927,4,2,1,70,0,0
9819,-92.5925925925927,4,2,29,70,0,0
9961,-92.5925925925927,4,2,1,70,0,0
10102,-92.5925925925927,4,2,37,70,0,0
10244,-92.5925925925927,4,2,29,70,0,0
10385,-92.5925925925927,4,2,34,70,0,0
10527,-92.5925925925927,4,2,38,70,0,0
10668,-92.5925925925927,4,2,1,70,0,0
10810,-92.5925925925927,4,2,29,70,0,0
10951,-92.5925925925927,4,2,38,70,0,0
11093,-92.5925925925927,4,2,1,70,0,0
11234,-92.5925925925927,4,2,38,70,0,0
11376,-92.5925925925927,4,2,33,70,0,0
11517,-92.5925925925927,4,2,39,70,0,0
11659,-92.5925925925927,4,2,40,70,0,0
11800,-92.5925925925927,4,2,1,70,0,0
12083,-92.5925925925927,4,2,28,70,0,0
12225,-92.5925925925927,4,2,25,70,0,0
12366,-92.5925925925927,4,2,29,70,0,0
12508,-92.5925925925927,4,2,23,70,0,0
12649,-92.5925925925927,4,2,29,70,0,0
12791,-92.5925925925927,4,2,23,70,0,0
12932,-92.5925925925927,4,2,25,70,0,0
13074,-92.5925925925927,4,2,1,70,0,0
13215,-92.5925925925927,4,2,24,70,0,0
13357,-92.5925925925927,4,2,1,70,0,0
13498,-92.5925925925927,4,2,22,70,0,0
13640,-92.5925925925927,4,2,25,70,0,0
13781,-92.5925925925927,4,2,1,70,0,0
14347,-92.5925925925927,4,2,22,70,0,0
14489,-92.5925925925927,4,2,23,70,0,0
14630,-92.5925925925927,4,2,24,70,0,0
14772,-92.5925925925927,4,2,22,70,0,0
14913,-92.5925925925927,4,2,23,70,0,0
15055,-92.5925925925927,4,2,25,70,0,0
15196,-92.5925925925927,4,2,1,70,0,0
15479,-92.5925925925927,4,2,25,70,0,0
15621,-92.5925925925927,4,2,2,70,0,0
15763,-92.5925925925927,4,2,25,70,0,0
15904,-92.5925925925927,4,2,27,70,0,0
16046,-92.5925925925927,4,2,28,70,0,0
16187,-92.5925925925927,4,2,29,70,0,0
16329,-113.636363636364,4,2,33,70,0,0
16470,-113.636363636364,4,2,28,50,0,0
16612,-113.636363636364,4,2,27,50,0,0
16753,-113.636363636364,4,2,34,70,0,0
16895,-113.636363636364,4,2,28,50,0,0
17036,-113.636363636364,4,2,27,50,0,0
17178,-113.636363636364,4,2,29,70,0,0
17319,-147.058823529412,4,2,35,70,0,0
17390,-147.058823529412,4,2,1,70,0,0
17956,-147.058823529412,4,2,1,70,0,0
18027,-147.058823529412,4,2,1,30,0,0
18168,-147.058823529412,4,2,1,35,0,0
18310,-147.058823529412,4,2,1,40,0,0
18451,-147.058823529412,4,2,1,45,0,0
18593,-208.333333333334,4,2,41,40,0,0
18663,-208.333333333334,4,2,1,40,0,0
19583,-208.333333333334,4,2,42,40,0,0
19654,-208.333333333334,4,2,1,40,0,0
20432,-208.333333333334,4,2,27,40,0,0
20574,-208.333333333334,4,2,23,40,0,0
20715,-208.333333333334,4,2,22,40,0,0
20857,-102.040816326531,4,2,1,60,0,0
23121,-128.205128205128,4,2,1,50,0,0
31470,-128.205128205128,4,2,2,60,0,0
31612,-128.205128205128,4,2,1,60,0,0
32178,-172.413793103449,4,2,1,50,0,0
36706,-147.058823529412,4,2,2,60,0,0
38970,-128.205128205128,4,2,2,60,0,0
39253,-128.205128205128,4,2,1,60,0,0
39536,-128.205128205128,4,2,2,60,0,0
40102,-128.205128205128,4,2,1,60,0,0
40668,-172.413793103448,4,2,1,60,0,0
41234,-172.413793103449,4,2,1,60,0,0
42366,-147.058823529412,4,2,1,62,0,0
43498,-128.205128205128,4,2,1,64,0,0
44630,-128.205128205128,4,2,1,66,0,0
45763,-113.636363636364,4,2,1,68,0,0
48027,-102.040816326531,4,2,1,70,0,0
48310,-102.040816326531,4,2,2,70,0,0
48593,-102.040816326531,4,2,1,70,0,0
49442,-92.5925925925929,4,2,2,70,0,0
50291,-84.7457627118644,4,2,2,85,0,1
50362,-84.7457627118644,4,2,1,85,0,1
58923,-84.7457627118644,4,2,2,80,0,1
59347,-84.7457627118644,4,2,2,85,0,1
59418,-84.7457627118644,4,2,1,85,0,1
63876,-102.040816326531,4,2,1,70,0,0
64442,-102.040816326531,4,2,2,70,0,0
64866,-102.040816326531,4,2,1,70,0,0
66140,-102.040816326531,4,2,5,70,0,0
66777,-102.040816326531,4,2,1,70,0,0
68404,-113.636363636364,4,2,1,70,0,0
68970,-113.636363636364,4,2,2,70,0,0
69536,-113.636363636364,4,2,1,70,0,0
73923,-113.636363636364,4,2,2,70,0,0
74064,-113.636363636364,4,2,1,70,0,0
75055,-113.636363636364,4,2,2,70,0,0
75196,-113.636363636364,4,2,1,70,0,0
76187,-147.058823529412,4,2,43,60,0,0
76612,-147.058823529412,4,2,44,60,0,0
77461,-128.205128205128,4,2,20,50,0,0
77602,-128.205128205128,4,2,21,35,0,0
77744,-128.205128205128,4,2,22,40,0,0
77885,-128.205128205128,4,2,23,45,0,0
78027,-128.205128205128,4,2,24,50,0,0
78310,-128.205128205128,4,2,23,45,0,0
78451,-128.205128205128,4,2,25,50,0,0
78593,-128.205128205128,4,2,26,35,0,0
78734,-128.205128205128,4,2,22,35,0,0
78876,-128.205128205128,4,2,25,50,0,0
79017,-128.205128205128,4,2,26,35,0,0
79159,-128.205128205128,4,2,25,50,0,0
79300,-128.205128205128,4,2,27,40,0,0
79442,-128.205128205128,4,2,28,45,0,0
79583,-128.205128205128,4,2,45,50,0,0
79725,-128.205128205128,4,2,1,50,0,0
80008,-128.205128205128,4,2,30,40,0,0
80149,-128.205128205128,4,2,31,45,0,0
80291,-128.205128205128,4,2,22,50,0,0
80432,-128.205128205128,4,2,30,35,0,0
80574,-128.205128205128,4,2,22,40,0,0
80715,-128.205128205128,4,2,26,50,0,0
80998,-128.205128205128,4,2,2,50,0,0
81140,-128.205128205128,4,2,32,50,0,0
81564,-128.205128205128,4,2,31,50,0,0
81706,-128.205128205128,4,2,1,50,0,0
82272,-128.205128205128,4,2,20,50,0,0
82413,-128.205128205128,4,2,23,35,0,0
82555,-128.205128205128,4,2,24,50,0,0
82696,-128.205128205128,4,2,22,35,0,0
82838,-128.205128205128,4,2,23,40,0,0
82979,-128.205128205128,4,2,25,45,0,0
83121,-128.205128205128,4,2,26,35,0,0
83263,-128.205128205128,4,2,22,35,0,0
83404,-128.205128205128,4,2,25,45,0,0
83546,-128.205128205128,4,2,26,35,0,0
83687,-128.205128205128,4,2,25,45,0,0
83829,-128.205128205128,4,2,27,46,0,0
83970,-128.205128205128,4,2,28,47,0,0
84112,-128.205128205128,4,2,29,48,0,0
84253,-172.413793103448,4,2,33,50,0,0
84395,-172.413793103448,4,2,28,35,0,0
84536,-172.413793103448,4,2,27,35,0,0
84678,-172.413793103448,4,2,34,50,0,0
84819,-172.413793103448,4,2,28,35,0,0
84961,-172.413793103448,4,2,27,35,0,0
85102,-172.413793103448,4,2,29,50,0,0
85244,-208.333333333333,4,2,35,50,0,0
85951,-208.333333333333,4,2,1,40,0,0
86093,-208.333333333333,4,2,1,42,0,0
86234,-208.333333333333,4,2,1,44,0,0
86376,-208.333333333333,4,2,1,46,0,0
86517,-208.333333333333,4,2,41,40,0,0
87508,-208.333333333333,4,2,42,40,0,0
88215,-208.333333333333,4,2,1,40,0,0
88357,-208.333333333333,4,2,27,40,0,0
88498,-208.333333333333,4,2,23,40,0,0
88640,-208.333333333333,4,2,22,40,0,0
88781,-102.040816326531,4,2,1,50,0,0
91046,-128.205128205128,4,2,1,50,0,0
99536,-147.058823529412,4,2,1,50,0,0
100102,-208.333333333335,4,2,25,40,0,0
100173,-208.333333333335,4,2,1,40,0,0
100951,-208.333333333335,4,2,28,40,0,0
101022,-208.333333333335,4,2,1,40,0,0
101800,-208.333333333335,4,2,3,40,0,0
101942,-208.333333333335,4,2,1,40,0,0
102083,-208.333333333335,4,2,20,25,0,0
102366,-208.333333333335,4,2,29,40,0,0
102932,-208.333333333335,4,2,46,30,0,0
103215,-208.333333333335,4,2,47,40,0,0
103286,-208.333333333335,4,2,1,40,0,0
104064,-208.333333333335,4,2,28,40,0,0
104135,-208.333333333335,4,2,1,40,0,0
104630,-208.333333333335,4,2,29,40,0,0
104701,-208.333333333335,4,2,1,40,0,0
105196,-208.333333333335,4,2,24,40,0,0
105267,-208.333333333335,4,2,1,40,0,0
105763,-208.333333333335,4,2,38,40,0,0
105833,-208.333333333335,4,2,1,40,0,0
106329,-208.333333333335,4,2,33,40,0,0
106399,-208.333333333335,4,2,1,40,0,0
106612,-208.333333333335,4,2,26,25,0,0
106682,-208.333333333335,4,2,1,25,0,0
106895,-172.413793103449,4,2,48,40,0,0
106965,-172.413793103449,4,2,1,40,0,0
107461,-172.413793103449,4,2,1,43,0,0
107744,-172.413793103449,4,2,1,46,0,0
108027,-147.058823529412,4,2,1,50,0,0
108310,-147.058823529412,4,2,1,55,0,0
108593,-147.058823529412,4,2,1,60,0,0
108876,-147.058823529412,4,2,1,55,0,0
109159,-128.205128205129,4,2,1,50,0,0
118215,-208.333333333336,4,2,1,50,0,0
120196,-208.333333333336,4,2,2,50,0,0
120479,-172.41379310345,4,2,1,50,0,0
122744,-172.413793103449,4,2,1,50,0,0
127272,-147.058823529412,4,2,2,60,0,0
129536,-128.205128205128,4,2,2,60,0,0
129819,-128.205128205128,4,2,1,60,0,0
130102,-128.205128205128,4,2,2,60,0,0
130668,-128.205128205128,4,2,1,60,0,0
131234,-172.413793103448,4,2,1,60,0,0
131800,-172.413793103448,4,2,1,60,0,0
132932,-147.058823529412,4,2,1,62,0,0
134064,-128.205128205128,4,2,1,64,0,0
135196,-128.205128205128,4,2,1,66,0,0
136329,-113.636363636364,4,2,1,68,0,0
138593,-102.040816326531,4,2,1,70,0,0
138876,-102.040816326531,4,2,2,70,0,0
139159,-102.040816326531,4,2,1,70,0,0
140291,-102.040816326531,4,2,1,30,0,0
140574,-102.040816326531,4,2,1,32,0,0
140857,-102.040816326531,4,2,1,35,0,0
149206,-92.5925925925929,4,2,1,60,0,0
149630,-263.157894736842,4,2,1,60,0,0
149913,-84.7457627118644,4,2,2,85,0,1
149984,-84.7457627118644,4,2,1,85,0,1
154442,-102.040816326531,4,2,1,70,0,0
155008,-102.040816326531,4,2,2,70,0,0
155574,-102.040816326531,4,2,1,70,0,0
156706,-102.040816326531,4,2,1,75,0,0
156989,-102.040816326531,4,2,5,75,0,0
157272,-102.040816326531,4,2,1,75,0,0
157555,-102.040816326531,4,2,2,75,0,0
157838,-92.5925925925926,4,2,2,80,0,0
158970,-92.5925925925926,4,2,1,70,0,0
159536,-92.5925925925926,4,2,1,75,0,0
159819,-92.5925925925926,4,2,2,75,0,0
160102,-84.7457627118644,4,2,2,85,0,1
160173,-84.7457627118644,4,2,1,85,0,1
168734,-84.7457627118644,4,2,2,80,0,1
169159,-84.7457627118644,4,2,1,85,0,1
173687,-102.040816326531,4,2,1,70,0,0
174253,-102.040816326531,4,2,2,70,0,0
174819,-102.040816326531,4,2,1,70,0,0
175951,-102.040816326531,4,2,5,70,0,0
176800,-102.040816326531,4,2,1,70,0,0
178215,-113.636363636364,4,2,1,70,0,0
178781,-113.636363636364,4,2,2,70,0,0
179347,-113.636363636364,4,2,1,70,0,0
183734,-113.636363636364,4,2,2,70,0,0
183876,-113.636363636364,4,2,1,70,0,0
184866,-113.636363636364,4,2,2,70,0,0
185008,-113.636363636364,4,2,1,70,0,0
185998,-147.058823529413,4,2,43,60,0,0
186423,-147.058823529413,4,2,44,60,0,0
187272,-113.636363636364,4,2,20,50,0,0
187413,-113.636363636364,4,2,21,35,0,0
187555,-113.636363636364,4,2,22,35,0,0
187696,-113.636363636364,4,2,23,40,0,0
187838,-113.636363636364,4,2,24,50,0,0
188121,-113.636363636364,4,2,23,40,0,0
188263,-113.636363636364,4,2,25,50,0,0
188404,-113.636363636364,4,2,26,35,0,0
188546,-113.636363636364,4,2,22,35,0,0
188687,-113.636363636364,4,2,25,50,0,0
188829,-113.636363636364,4,2,26,35,0,0
188970,-113.636363636364,4,2,25,50,0,0
189112,-113.636363636364,4,2,27,35,0,0
189253,-113.636363636364,4,2,28,40,0,0
189395,-113.636363636364,4,2,45,50,0,0
189536,-113.636363636364,4,2,1,50,0,0
189819,-113.636363636364,4,2,30,35,0,0
189961,-113.636363636364,4,2,31,35,0,0
190102,-113.636363636364,4,2,22,50,0,0
190244,-113.636363636364,4,2,30,35,0,0
190385,-113.636363636364,4,2,22,50,0,0
190527,-113.636363636364,4,2,26,40,0,0
190951,-113.636363636364,4,2,32,40,0,0
191376,-113.636363636364,4,2,31,40,0,0
191659,-113.636363636364,4,2,2,50,0,0
191800,-113.636363636364,4,2,20,50,0,0
191942,-113.636363636364,4,2,21,35,0,0
192083,-113.636363636364,4,2,22,35,0,0
192225,-113.636363636364,4,2,23,40,0,0
192366,-113.636363636364,4,2,24,50,0,0
192649,-113.636363636364,4,2,23,40,0,0
192791,-113.636363636364,4,2,25,50,0,0
192932,-113.636363636364,4,2,26,35,0,0
193074,-113.636363636364,4,2,22,35,0,0
193215,-113.636363636364,4,2,25,50,0,0
193357,-113.636363636364,4,2,26,35,0,0
193498,-113.636363636364,4,2,25,50,0,0
193640,-113.636363636364,4,2,27,35,0,0
193781,-113.636363636364,4,2,28,40,0,0
193923,-113.636363636364,4,2,45,45,0,0
194064,-113.636363636364,4,2,33,50,0,0
194206,-113.636363636364,4,2,28,35,0,0
194347,-113.636363636364,4,2,27,35,0,0
194489,-113.636363636364,4,2,34,50,0,0
194630,-113.636363636364,4,2,28,35,0,0
194772,-113.636363636364,4,2,27,35,0,0
194913,-113.636363636364,4,2,29,50,0,0
195055,-113.636363636364,4,2,35,50,0,0
195479,-113.636363636364,4,2,1,50,0,0
196329,-128.205128205129,4,2,20,40,0,0
196470,-128.205128205129,4,2,21,25,0,0
196612,-128.205128205129,4,2,50,30,0,0
196753,-128.205128205129,4,2,51,35,0,0
196895,-128.205128205129,4,2,52,40,0,0
197036,-128.205128205129,4,2,50,30,0,0
197178,-128.205128205129,4,2,51,35,0,0
197319,-128.205128205129,4,2,53,40,0,0
197461,-128.205128205129,4,2,54,30,0,0
197602,-128.205128205129,4,2,50,35,0,0
197744,-128.205128205129,4,2,53,40,0,0
197885,-128.205128205129,4,2,54,30,0,0
198027,-128.205128205129,4,2,53,40,0,0
198168,-128.205128205129,4,2,55,30,0,0
198310,-128.205128205129,4,2,56,35,0,0
198451,-128.205128205129,4,2,57,40,0,0
198593,-128.205128205129,4,2,58,25,0,0
198734,-128.205128205129,4,2,59,25,0,0
198876,-128.205128205129,4,2,60,30,0,0
199017,-128.205128205129,4,2,61,35,0,0
199159,-128.205128205129,4,2,50,40,0,0
199300,-128.205128205129,4,2,62,30,0,0
199442,-128.205128205129,4,2,50,40,0,0
199583,-128.205128205129,4,2,54,35,0,0
199725,-128.205128205129,4,2,62,30,0,0
199866,-128.205128205129,4,2,54,40,0,0
200008,-128.205128205129,4,2,63,35,0,0
200149,-128.205128205129,4,2,59,30,0,0
200291,-128.205128205129,4,2,64,30,0,0
200432,-128.205128205129,4,2,61,40,0,0
200574,-128.205128205129,4,2,64,35,0,0
200715,-128.205128205129,4,2,65,30,0,0
200857,-128.205128205129,4,2,20,40,0,0
200998,-128.205128205129,4,2,21,25,0,0
201140,-128.205128205129,4,2,59,30,0,0
201281,-128.205128205129,4,2,62,35,0,0
201423,-128.205128205129,4,2,63,40,0,0
201564,-128.205128205129,4,2,59,25,0,0
201706,-128.205128205129,4,2,62,30,0,0
201847,-128.205128205129,4,2,61,40,0,0
201989,-128.205128205129,4,2,64,30,0,0
202130,-128.205128205129,4,2,59,35,0,0
202272,-128.205128205129,4,2,61,40,0,0
202413,-128.205128205129,4,2,64,30,0,0
202555,-128.205128205129,4,2,61,40,0,0
202696,-128.205128205129,4,2,66,30,0,0
202838,-128.205128205129,4,2,60,35,0,0
202979,-128.205128205129,4,2,50,40,0,0
203121,-128.205128205129,4,2,55,45,0,0
203263,-128.205128205129,4,2,60,40,0,0
203404,-128.205128205129,4,2,66,42,0,0
203546,-128.205128205129,4,2,51,44,0,0
203687,-128.205128205129,4,2,60,46,0,0
203829,-128.205128205129,4,2,66,48,0,0
203970,-128.205128205129,4,2,50,50,0,0
204112,-128.205128205129,4,2,67,55,0,0
204253,-119.047619047619,4,2,67,10,0,0
206517,-128.205128205129,4,2,67,10,0,0

[Colours]
Combo1 : 190,0,0
Combo2 : 191,191,255
Combo3 : 128,128,255
Combo4 : 255,128,128

[HitObjects]
101,168,480,5,10,1:2:0:0:
104,159,621,1,2,3:2:0:0:
228,64,763,5,2,3:2:0:0:
154,84,904,1,10,0:1:0:0:
238,64,1046,2,0,P|221:128|199:207,1,127.840000780273,2|2,0:0|0:0,0:0:0:0:
229,290,1470,38,0,P|260:277|298:265,1,63.9200003901367,2|2,1:2|0:0,0:0:0:0:
133,267,1753,1,2,0:0:0:0:
136,261,1895,2,0,P|105:248|67:236,1,63.9200003901367,2|2,0:0|0:0,0:0:0:0:
164,339,2178,2,0,P|181:277|197:215,1,127.840000780273,2|2,0:0|0:0,0:0:0:0:
308,142,2602,5,2,1:2:0:0:
303,146,2744,2,0,P|268:135|251:109,1,63.9200003901367,0|0,1:2|3:0,0:0:0:0:
389,100,3027,37,2,3:2:0:0:
391,108,3168,1,10,0:1:0:0:
451,180,3310,1,2,0:0:0:0:
445,195,3451,1,2,0:0:0:0:
370,267,3593,5,2,0:0:0:0:
402,333,3734,2,0,P|342:374|288:358,1,127.840000780273,2|0,1:2|3:2,0:0:0:0:
285,354,4088,1,0,3:2:0:0:
277,347,4159,2,0,P|248:335|217:322,1,63.9200003901367,10|0,0:0|0:0,0:0:0:0:
101,351,4371,37,0,0:0:0:0:
101,351,4442,2,0,P|71:362|41:375,1,63.9200003901367,10|10,0:0|1:1,0:0:0:0:
52,187,4866,1,0,0:0:0:0:
112,236,5008,6,0,B|158:224|158:224|185:205|185:205|236:192,1,127.840000780273,10|2,1:2|3:2,0:0:0:0:
340,65,5432,1,10,0:1:0:0:
347,59,5574,2,0,P|336:38|284:24,1,63.9200003901367,2|0,0:0|0:0,0:0:0:0:
224,113,5857,37,2,0:0:0:0:
290,147,5998,2,0,P|352:168|422:194,1,127.840000780273,2|2,1:2|0:0,0:0:0:0:
489,288,6423,2,0,P|457:298|412:315,1,63.9200003901367,2|2,0:0|0:0,0:0:0:0:
289,358,6706,5,2,0:0:0:0:
285,352,6847,2,0,P|294:318|307:280,1,63.9200003901367,10|10,3:2|0:3,0:0:0:0:
410,189,7130,1,10,0:3:0:0:
345,221,7272,38,0,B|312:235|281:209|296:196|257:175|223:188,1,127.840000780273,6|2,1:2|0:0,0:0:0:0:
93,183,7696,1,2,0:0:0:0:
97,178,7838,2,0,P|88:148|76:116,2,63.9200003901367,2|2|2,0:0|0:0|0:0,0:0:0:0:
21,286,8263,5,6,1:2:0:0:
127,359,8687,37,2,0:0:0:0:
196,313,8970,5,0,0:0:0:0:
208,319,9112,2,0,P|223:293|227:261,2,45.1200011015625,2|2|2,0:1|0:1|0:1,0:0:0:0:
135,367,9536,6,0,P|217:337|344:295,1,203.040004957031,6|2,1:2|3:2,0:0:0:0:
489,294,9961,1,8,0:0:0:0:
428,338,10102,2,0,P|398:302|406:237,1,101.520002478516,2|2,1:2|1:2,0:0:0:0:
395,112,10385,1,2,3:2:0:0:
460,153,10527,1,10,0:0:0:0:
327,219,10668,38,0,P|309:159|294:115,1,101.520002478516,0|10,3:2|0:0,0:0:0:0:
125,58,10951,1,2,1:2:0:0:
186,11,11093,1,2,3:1:0:0:
240,68,11234,2,0,P|223:116|209:164,1,101.520002478516,2|10,3:2|0:0,0:0:0:0:
327,219,11517,2,0,P|343:267|357:315,1,101.520002478516,2|2,1:2|1:2,0:0:0:0:
361,330,11729,1,0,1:0:0:0:
365,344,11800,6,0,B|320:383|259:347|290:317|228:283|165:311,1,203.040004957031,2|2,1:1|3:2,0:0:0:0:
34,373,12225,1,10,0:0:0:0:
88,323,12366,2,0,B|78:276|78:276|79:271|79:271|65:207,1,101.520002478516,2|2,3:2|1:2,0:0:0:0:
5,85,12649,37,2,3:2:0:0:
124,153,12791,1,10,0:0:0:0:
124,153,12862,1,0,1:0:0:0:
124,153,12932,2,0,B|175:162|175:162|222:115,1,101.520002478516,2|8,3:2|0:0,0:0:0:0:
277,34,13215,1,2,1:2:0:0:
389,117,13357,5,2,0:1:0:0:
389,117,13428,1,0,0:0:0:0:
389,117,13498,1,10,0:0:0:0:
463,78,13640,1,2,0:0:0:0:
401,37,13781,1,2,3:1:0:0:
455,151,13923,1,2,3:1:0:0:
372,247,14064,38,0,B|324:278|266:246|293:220|235:186|172:214,1,203.040004957031,6|2,1:1|3:2,0:0:0:0:
31,276,14489,1,10,0:0:0:0:
64,212,14630,2,0,P|102:253|97:312,1,101.520002478516,2|10,1:2|0:0,0:0:0:0:
18,102,14913,5,2,3:2:0:0:
79,140,15055,2,0,P|173:167|286:201,1,203.040004957031,2|8,1:2|0:0,0:0:0:0:
403,306,15479,1,2,1:2:0:0:
496,229,15621,37,0,3:0:0:0:
493,214,15691,1,0,3:0:0:0:
489,199,15762,1,10,0:0:0:0:
388,123,15904,1,10,0:0:0:0:
487,85,16046,2,0,B|518:98|493:19|419:36|392:121,1,152.280003717774,10|0,1:3|0:0,0:0:0:0:
393,114,16329,38,0,P|277:77|140:35,1,248.160007573242,6|10,1:2|0:3,0:0:0:0:
62,90,16895,2,0,P|48:53|32:11,1,82.7200025244141,10|2,1:3|1:2,0:0:0:0:
137,115,17178,1,10,0:3:0:0:
117,241,17319,6,0,B|80:178|1:176|1:176|94:159|128:245,1,287.640001755615,6|0,1:2|0:0,0:0:0:0:
33,261,18027,38,0,P|22:290|7:329,2,63.9200003901367,2|2|2,0:1|0:1|0:1,0:0:0:0:
106,372,18451,1,2,0:1:0:0:
103,365,18593,2,0,P|169:334|276:289,1,180.48000440625,2|2,0:0|0:1,0:0:0:0:
345,324,19300,2,0,P|377:337|404:349,1,45.1200011015625,2|2,0:1|0:1,0:0:0:0:
463,376,19583,6,0,P|440:354|502:239,1,180.48000440625,2|0,0:0|0:0,0:0:0:0:
487,150,20291,2,0,L|430:134,1,45.1200011015625,0|0,1:2|0:0,0:0:0:0:
364,188,20574,2,0,L|307:204,1,45.1200011015625,2|2,0:0|0:0,0:0:0:0:
196,160,20857,5,10,0:0:0:0:
263,253,20998,1,2,1:2:0:0:
121,343,21140,37,10,0:0:0:0:
176,248,21281,1,10,1:1:0:0:
182,257,21564,5,10,1:1:0:0:
187,265,21847,38,0,P|267:287|373:317,1,184.239998313232,6|10,1:1|0:0,0:0:0:0:
498,359,22272,1,4,1:2:0:0:
449,306,22413,2,0,P|433:268|445:221,1,92.1199991566162,2|8,0:0|0:0,0:0:0:0:
506,86,22696,1,8,1:3:0:0:
439,117,22838,2,0,B|398:110|374:80|374:80|370:78|370:78|386:109|375:138,1,138.179998734924,2|0,1:2|0:0,0:0:0:0:
372,143,23121,38,0,B|319:176|256:132|288:106|229:64|161:103,1,219.960007383911,6|0,1:2|0:0,0:0:0:0:
93,167,23687,2,0,P|71:122|56:93,1,73.3200024613038,8|0,0:0|0:0,0:0:0:0:
13,223,23970,5,0,0:0:0:0:
17,228,24112,2,0,P|88:252|176:285,1,146.640004922608,2|8,1:2|0:0,0:0:0:0:
235,232,24536,2,0,P|189:295|212:357,2,146.640004922608,0|10|0,1:2|0:0|3:2,0:0:0:0:
368,180,25244,37,0,3:0:0:0:
373,170,25314,1,0,3:0:0:0:
372,158,25385,1,2,1:2:0:0:
291,162,25527,2,0,P|308:228|332:315,1,146.640004922608,2|0,0:0|0:0,0:0:0:0:
396,348,25951,5,8,0:0:0:0:
402,353,26234,37,2,1:2:0:0:
464,311,26376,2,0,P|483:265|498:230,1,73.3200024613038,0|0,1:2|0:0,0:0:0:0:
427,151,26659,5,8,0:0:0:0:
427,66,26800,2,0,B|476:72|486:110|486:110|467:82|423:76,2,146.640004922608,10|10|2,1:1|0:0|1:2,0:0:0:0:
172,144,27649,38,0,P|107:135|87:50,2,146.640004922608,6|0|8,1:2|1:2|0:0,0:0:0:0:
179,137,28498,5,2,0:0:0:0:
245,171,28640,2,0,P|284:201|290:236,1,73.3200024613038,2|0,1:2|0:0,0:0:0:0:
208,244,28923,2,0,P|201:292|174:315,1,73.3200024613038,10|0,0:0|1:2,0:0:0:0:
124,248,29206,1,2,0:0:0:0:
119,242,29347,2,0,B|89:218|89:218|43:222,2,73.3200024613038,8|2|2,0:0|0:0|1:2,0:0:0:0:
189,315,29772,37,2,0:0:0:0:
193,320,29913,2,0,P|266:340|351:366,1,146.640004922608,2|0,1:2|1:2,0:0:0:0:
472,333,30338,1,2,0:0:0:0:
413,380,30479,2,0,B|391:311|391:311|386:308|386:308|365:244,1,146.640004922608,8|2,0:0|0:0,0:0:0:0:
468,88,31046,5,2,0:0:0:0:
406,132,31187,2,0,P|369:130|335:95,1,73.3200024613038,10|2,0:0|1:2,0:0:0:0:
259,32,31470,1,0,3:2:0:0:
259,32,31541,1,0,3:2:0:0:
259,32,31612,1,10,0:0:0:0:
168,91,31753,1,8,0:0:0:0:
73,48,31895,2,0,B|27:22|27:22|83:39,1,109.980003691956,0|0,1:2|0:0,0:0:0:0:
92,32,32178,38,0,P|65:103|33:208,1,163.560004991455,6|0,1:2|1:2,0:0:0:0:
43,298,32744,2,0,P|77:259|146:263,1,109.040003327637,8|2,0:0|0:0,0:0:0:0:
195,300,33168,1,2,1:2:0:0:
200,306,33451,5,8,0:0:0:0:
269,273,33593,2,0,L|333:246,1,54.5200016638184,0|0,1:2|0:0,0:0:0:0:
421,317,33876,2,0,P|448:263|476:211,1,109.040003327637,10|2,0:0|0:0,0:0:0:0:
432,132,34300,37,2,0:0:0:0:
432,132,34371,1,2,0:0:0:0:
432,132,34442,2,0,P|373:127|354:75,2,109.040003327637,2|0|8,1:2|1:2|0:0,0:0:0:0:
496,67,35291,6,0,L|513:131,1,54.5200016638184,2|0,0:0|1:2,0:0:0:0:
475,196,35574,2,0,L|439:319,1,109.040003327637,2|0,0:0|1:2,0:0:0:0:
506,373,35998,37,2,0:0:0:0:
447,308,36140,2,0,B|396:283|351:319|377:340|318:378|267:342,1,190.820005823364,14|0,0:1|0:0,0:0:0:0:
224,272,36706,22,0,P|174:233|100:248,1,127.840000780273,2|8,1:2|0:0,0:0:0:0:
15,324,37130,1,2,0:0:0:0:
83,373,37272,1,2,3:2:0:0:
83,373,37343,1,0,3:0:0:0:
83,373,37413,2,0,L|97:329,2,31.9600001950684,0|0|0,3:0|3:0|3:0,0:0:0:0:
108,234,37696,21,2,0:0:0:0:
49,186,37838,2,0,P|30:124|9:58,1,127.840000780273,2|8,1:2|0:0,0:0:0:0:
142,72,38262,1,2,0:0:0:0:
233,19,38404,1,2,3:2:0:0:
233,19,38475,1,0,3:0:0:0:
233,19,38546,2,0,P|249:7|269:6,2,31.9600001950684,0|0|0,3:0|3:0|3:0,0:0:0:0:
139,77,38829,21,2,0:0:0:0:
193,132,38970,2,0,P|239:152|341:196,1,146.640004922608,2|0,1:2|3:0,0:0:0:0:
441,90,39395,1,2,0:0:0:0:
365,74,39536,2,0,B|353:113|378:146|391:132|419:169|397:214,1,146.640004922608,2|0,1:2|3:0,0:0:0:0:
464,310,39961,21,2,3:2:0:0:
464,310,40031,1,0,3:0:0:0:
464,310,40102,2,0,P|428:325|386:341,1,73.3200024613038,2|0,1:2|0:0,0:0:0:0:
288,275,40385,1,8,0:0:0:0:
182,357,40527,1,2,0:0:0:0:
295,271,40668,6,0,B|314:220|278:176|260:191|223:145|252:89,1,190.820005823364,10|0,1:3|0:0,0:0:0:0:
315,67,41234,38,0,P|262:65|234:8,2,109.040003327637,6|0|0,1:2|1:2|1:2,0:0:0:0:
399,21,42083,2,0,L|416:80,1,54.5200016638184,2|0,1:2|0:0,0:0:0:0:
476,183,42366,6,0,B|430:171|430:171|403:152|403:152|352:139,1,127.840000780273,10|8,1:3|1:3,0:0:0:0:
248,198,42932,1,10,1:3:0:0:
118,117,43215,2,0,P|107:149|94:196,1,63.9200003901367,10|8,1:3|1:3,0:0:0:0:
96,187,43428,1,8,1:3:0:0:
95,197,43498,38,0,P|119:268|145:351,1,146.640004922608,6|2,1:2|1:2,0:0:0:0:
287,371,44064,6,0,P|297:332|310:283,1,73.3200024613038,2|0,1:2|0:0,0:0:0:0:
369,255,44347,1,2,1:2:0:0:
268,144,44630,38,0,P|296:112|331:102,1,73.3200024613038,10|0,1:3|0:0,0:0:0:0:
373,15,44913,2,0,P|414:23|440:48,1,73.3200024613038,8|2,1:3|0:0,0:0:0:0:
468,162,45196,2,0,P|451:205|439:243,1,73.3200024613038,10|0,0:0|0:0,0:0:0:0:
484,297,45432,6,0,L|497:339,2,36.6600012306519,8|8|8,1:3|1:3|1:3,0:0:0:0:
355,364,45763,38,0,B|296:400|227:351|262:323|197:277|122:320,1,248.160007573242,6|0,1:2|0:0,0:0:0:0:
27,382,46329,6,0,B|16:346|16:346|12:343|12:343|-1:297,1,82.7200025244141,0|0,1:2|0:0,0:0:0:0:
90,244,46612,2,0,B|100:208|100:208|104:205|104:205|118:159,1,82.7200025244141,2|0,1:2|0:0,0:0:0:0:
35,63,46895,38,0,P|62:35|116:28,1,82.7200025244141,10|0,1:3|0:0,0:0:0:0:
252,130,47178,2,0,P|212:121|183:92,1,82.7200025244141,8|0,1:3|0:0,0:0:0:0:
365,22,47461,6,0,P|388:58|382:106,1,82.7200025244141,10|0,1:3|0:0,0:0:0:0:
260,122,47744,2,0,P|237:86|243:38,1,82.7200025244141,8|0,1:3|0:0,0:0:0:0:
346,180,48027,37,6,1:2:0:0:
348,189,48310,5,0,3:0:0:0:
312,217,48380,1,0,3:0:0:0:
268,226,48451,1,0,3:0:0:0:
224,211,48522,1,0,3:0:0:0:
217,195,48593,37,8,1:3:0:0:
203,162,48663,1,8,1:3:0:0:
176,142,48734,1,8,1:3:0:0:
142,135,48805,1,8,1:3:0:0:
133,141,48876,6,0,P|119:166|121:202,1,46.0599995783081,8|0,1:3|0:0,0:0:0:0:
182,279,49017,1,10,0:0:0:0:
182,279,49442,38,0,P|209:280|236:297,1,50.7600012392578,0|0,3:0|3:0,0:0:0:0:
205,362,49583,2,0,P|178:361|151:344,1,50.7600012392578,0|0,3:0|3:0,0:0:0:0:
302,344,49725,5,2,3:2:0:0:
329,318,49795,1,0,3:0:0:0:
333,282,49866,1,0,3:0:0:0:
313,251,49937,1,0,3:0:0:0:
307,245,50008,37,2,3:2:0:0:
264,206,50078,1,0,3:0:0:0:
257,151,50149,1,0,3:0:0:0:
289,105,50220,1,0,3:0:0:0:
297,103,50291,22,0,B|332:55|370:41|370:41|369:48|369:48|339:74|352:119,1,166.379994160858,6|0,1:2|0:0,0:0:0:0:
417,100,50574,2,0,P|358:128|202:199,1,221.839992214478,8|0,0:0|1:2,0:0:0:0:
150,154,50998,1,0,1:2:0:0:
28,298,51140,1,10,0:0:0:0:
97,334,51281,2,0,P|140:336|179:270,1,110.919996107239,0|0,1:2|0:0,0:0:0:0:
78,137,51564,5,0,1:2:0:0:
131,77,51706,2,0,B|175:60|214:89|198:104|237:135|282:114,1,166.379994160858,8|0,0:0|0:0,0:0:0:0:
350,84,51989,37,2,1:2:0:0:
291,43,52130,1,0,1:2:0:0:
426,182,52272,2,0,B|437:139|472:118|472:118|418:132|420:195,1,166.379994160858,10|0,0:0|0:0,0:0:0:0:
500,189,52555,6,0,P|442:214|280:283,1,221.839992214478,2|8,1:2|0:0,0:0:0:0:
235,331,52979,1,2,0:0:0:0:
91,249,53121,1,0,1:2:0:0:
145,192,53263,1,0,1:2:0:0:
56,356,53404,37,10,0:0:0:0:
22,286,53546,2,0,B|79:262|135:301|113:324|167:371|238:326,1,221.839992214478,4|0,1:2|1:2,0:0:0:0:
368,236,53970,2,0,P|283:261|280:383,1,221.839992214478,10|2,0:0|1:2,0:0:0:0:
444,260,54395,1,0,1:2:0:0:
473,184,54536,2,0,B|438:136|400:122|400:122|401:129|401:129|431:155|418:200,1,166.379994160858,10|0,0:0|0:0,0:0:0:0:
439,268,54819,22,0,B|382:292|326:253|348:230|292:181|223:228,1,221.839992214478,6|8,1:2|0:0,0:0:0:0:
128,304,55244,1,0,0:0:0:0:
16,223,55385,1,0,1:2:0:0:
129,139,55527,1,0,1:2:0:0:
25,296,55668,37,10,0:0:0:0:
134,133,55810,2,0,P|229:98|355:52,1,221.839992214478,2|0,1:2|1:2,0:0:0:0:
465,187,56234,5,8,0:0:0:0:
509,103,56376,1,0,0:0:0:0:
308,170,56517,37,2,1:2:0:0:
352,254,56659,1,0,1:2:0:0:
392,116,56800,5,10,0:0:0:0:
242,225,56942,1,0,0:0:0:0:
438,325,57083,38,0,B|449:282|484:261|484:261|430:275|432:338,1,166.379994160858,2|0,1:2|0:0,0:0:0:0:
512,327,57366,2,0,B|435:351|435:351|433:356|433:356|357:381,1,166.379994160858,8|0,0:0|0:0,0:0:0:0:
288,342,57649,5,8,0:0:0:0:
272,335,57720,1,0,1:0:0:0:
256,328,57790,1,8,1:3:0:0:
119,375,57932,1,8,0:0:0:0:
242,321,58074,38,0,B|259:277|230:238|215:254|184:215|205:170,1,166.379994160858,6|0,1:2|0:0,0:0:0:0:
245,109,58357,1,0,1:2:0:0:
167,19,58498,6,0,B|150:63|179:102|194:86|225:125|204:170,1,166.379994160858,8|0,0:0|0:0,0:0:0:0:
164,231,58781,1,2,1:2:0:0:
256,328,58923,37,0,3:0:0:0:
311,325,58993,1,0,3:0:0:0:
341,279,59064,1,2,3:2:0:0:
343,266,59135,5,0,3:0:0:0:
365,231,59206,1,0,3:0:0:0:
406,228,59276,1,0,3:0:0:0:
414,236,59347,22,0,P|440:164|470:75,1,166.379994160858,6|0,1:2|0:0,0:0:0:0:
392,51,59630,2,0,B|421:-1|480:0|480:0|412:-14|386:52,1,221.839992214478,8|0,0:0|1:2,0:0:0:0:
327,110,60055,1,0,1:2:0:0:
130,34,60196,1,10,0:0:0:0:
181,96,60338,2,0,P|159:152|136:212,1,110.919996107239,0|0,1:2|0:0,0:0:0:0:
231,348,60621,5,0,1:2:0:0:
152,324,60763,2,0,P|193:277|290:289,1,166.379994160858,8|0,0:0|0:0,0:0:0:0:
352,334,61046,37,2,1:2:0:0:
299,382,61187,1,0,1:2:0:0:
329,203,61329,2,0,B|282:199|282:199|396:251,1,166.379994160858,10|0,0:0|0:0,0:0:0:0:
444,314,61612,6,0,B|469:273|501:254|501:254|467:236|445:184,1,166.379994160858,2|0,1:2|0:0,0:0:0:0:
507,145,61895,1,8,0:0:0:0:
391,36,62036,2,0,P|339:52|281:75,1,110.919996107239,2|0,0:0|1:2,0:0:0:0:
220,119,62319,1,2,1:2:0:0:
79,32,62461,37,10,0:0:0:0:
227,128,62602,2,0,P|191:232|151:351,1,221.839992214478,4|0,1:2|1:2,0:0:0:0:
342,363,63027,6,0,P|313:315|257:308,1,110.919996107239,10|0,0:0|0:0,0:0:0:0:
149,344,63310,1,2,1:2:0:0:
67,249,63451,1,0,1:2:0:0:
256,298,63593,2,0,B|291:250|329:236|329:236|328:243|328:243|298:269|311:314,1,166.379994160858,10|0,0:0|0:0,0:0:0:0:
378,298,63876,6,0,P|343:205|301:95,1,184.239998313232,6|8,1:2|0:0,0:0:0:0:
512,41,64442,1,2,1:3:0:0:
508,52,64584,1,0,1:2:0:0:
416,123,64725,5,2,0:3:0:0:
425,140,64867,1,8,0:0:0:0:
495,237,65008,38,0,B|447:265|404:231|424:210|368:172|311:206,1,184.239998313232,2|8,1:2|0:0,0:0:0:0:
163,295,65574,2,0,P|128:263|126:203,1,92.1199991566162,0|0,1:2|1:2,0:0:0:0:
34,190,65857,2,0,P|58:143|147:133,1,138.179998734924,10|0,0:0|0:0,0:0:0:0:
210,188,66140,6,0,P|225:132|257:19,1,138.179998734924,6|0,1:2|0:0,0:0:0:0:
312,21,66423,1,10,0:0:0:0:
312,21,66494,1,2,0:0:0:0:
312,21,66564,1,2,0:0:0:0:
487,83,66706,38,0,B|468:49|433:43|433:43|474:41|490:83,1,138.179998734924,6|0,1:2|0:0,0:0:0:0:
418,120,66989,2,0,B|380:119|356:146|356:146|375:110|420:117,1,138.179998734924,10|0,0:0|0:0,0:0:0:0:
421,197,67272,6,0,P|456:250|425:333,1,138.179998734924,6|0,1:2|0:0,0:0:0:0:
384,363,67556,37,8,0:0:0:0:
329,283,67697,1,8,0:0:0:0:
171,226,67839,5,2,1:2:0:0:
206,162,67980,1,0,1:0:0:0:
236,298,68121,38,0,P|192:313|145:333,1,92.1199991566162,8|0,0:0|0:0,0:0:0:0:
42,378,68404,6,0,B|61:299|61:299|64:295|64:295|87:201,1,165.440005048828,6|8,1:2|0:0,0:0:0:0:
155,76,68970,37,2,1:3:0:0:
82,32,69112,1,0,1:2:0:0:
122,145,69254,5,2,0:3:0:0:
232,80,69395,1,8,0:0:0:0:
353,166,69536,38,0,P|380:96|413:2,1,165.440005048828,0|8,1:2|0:0,0:0:0:0:
425,215,70103,1,0,1:2:0:0:
507,166,70244,1,0,1:2:0:0:
416,222,70385,2,0,P|368:245|299:282,1,124.080003786621,10|0,0:0|0:0,0:0:0:0:
245,340,70668,6,0,P|287:285|245:199,1,165.440005048828,6|8,1:2|0:0,0:0:0:0:
128,85,71234,38,0,P|62:98|53:157,1,124.080003786621,6|0,1:2|0:0,0:0:0:0:
55,157,71517,2,0,P|113:177|171:198,1,124.080003786621,10|0,0:0|0:0,0:0:0:0:
183,194,71800,2,0,P|241:173|299:152,1,124.080003786621,6|0,1:2|0:0,0:0:0:0:
366,125,72084,5,10,0:0:0:0:
435,174,72225,1,8,0:0:0:0:
421,261,72366,37,2,1:2:0:0:
362,222,72508,1,0,1:2:0:0:
440,170,72649,6,0,P|473:140|516:137,1,82.7200025244141,8|0,0:0|0:0,0:0:0:0:
418,272,72932,2,0,B|374:297|336:266|354:247|303:213|252:244,1,165.440005048828,2|10,1:2|0:0,0:0:0:0:
52,352,73498,1,2,3:2:0:0:
104,304,73640,2,0,P|113:265|125:218,1,82.7200025244141,8|2,0:0|0:0,0:0:0:0:
66,152,73923,1,0,3:0:0:0:
60,140,73994,1,0,3:0:0:0:
55,128,74064,1,2,1:2:0:0:
49,118,74347,38,0,P|132:107|185:185,1,165.440005048828,10|2,0:0|1:2,0:0:0:0:
219,282,74773,1,8,0:0:0:0:
283,239,74914,1,2,0:0:0:0:
382,285,75055,1,0,3:0:0:0:
387,297,75125,1,0,3:0:0:0:
393,309,75196,1,2,1:2:0:0:
398,318,75479,6,0,P|429:233|461:151,1,165.440005048828,14|8,0:0|0:0,0:0:0:0:
412,44,75905,1,8,1:3:0:0:
512,112,76046,1,10,0:0:0:0:
402,39,76187,38,0,B|353:13|306:46|326:64|275:105|215:72,1,191.76000117041,6|2,1:2|0:0,0:0:0:0:
14,22,77461,5,2,1:2:0:0:
17,31,77602,1,2,0:0:0:0:
89,136,77744,37,2,1:2:0:0:
28,198,77885,1,2,0:0:0:0:
93,130,78027,2,0,P|129:88|237:109,1,146.640004922608,10|2,0:0|3:2,0:0:0:0:
288,161,78451,6,0,P|301:125|321:78,1,73.3200024613038,10|2,1:1|0:0,0:0:0:0:
203,211,78734,1,2,0:0:0:0:
196,215,78876,2,0,P|182:179|163:132,1,73.3200024613038,2|2,1:2|0:0,0:0:0:0:
330,261,79159,1,2,3:2:0:0:
337,265,79301,2,0,P|351:229|370:182,1,73.3200024613038,10|2,0:0|3:2,0:0:0:0:
297,348,79583,37,2,3:2:0:0:
297,348,79654,1,0,3:2:0:0:
297,348,79725,2,0,B|333:364|371:338|359:328|393:303|438:321,1,146.640004922608,0|2,1:2|1:2,0:0:0:0:
497,231,80149,1,2,0:0:0:0:
469,163,80291,2,0,P|447:143|397:134,1,73.3200024613038,10|2,0:0|0:0,0:0:0:0:
287,197,80574,5,2,3:2:0:0:
290,190,80715,2,0,L|239:33,1,146.640004922608,10|0,1:1|3:0,0:0:0:0:
236,43,81069,1,0,3:0:0:0:
230,33,81140,2,0,P|194:32|162:0,1,73.3200024613038,10|0,0:0|0:0,0:0:0:0:
45,85,81423,2,0,P|72:61|108:60,1,73.3200024613038,8|2,0:0|1:2,0:0:0:0:
178,108,81706,1,8,0:0:0:0:
185,115,81989,37,8,0:0:0:0:
114,189,82130,1,8,0:0:0:0:
190,121,82272,2,0,B|226:137|264:111|252:101|286:76|331:94,1,146.640004922608,6|10,1:2|0:0,0:0:0:0:
445,160,82696,1,2,1:2:0:0:
401,96,82838,1,2,3:2:0:0:
502,30,82979,1,10,1:1:0:0:
445,160,83404,5,2,0:0:0:0:
450,164,83546,2,0,P|474:194|477:237,1,73.3200024613038,2|2,0:0|0:0,0:0:0:0:
383,226,83829,1,10,0:0:0:0:
382,232,83971,2,0,P|368:267|332:291,1,73.3200024613038,10|8,0:3|0:3,0:0:0:0:
260,277,84253,38,0,P|334:315|418:364,1,163.560004991455,6|2,1:2|0:0,0:0:0:0:
472,326,84819,1,2,0:0:0:0:
194,340,85102,5,2,0:0:0:0:
116,330,85244,2,0,B|125:280|165:261|165:261|112:270|110:335,1,180.48000440625,6|0,1:2|0:0,0:0:0:0:
34,346,85951,38,0,P|23:327|19:297,1,45.1200011015625,2|2,0:1|0:1,0:0:0:0:
91,278,86234,2,0,P|102:297|106:327,1,45.1200011015625,2|2,0:1|0:1,0:0:0:0:
23,203,86517,6,0,B|76:231|134:188|107:163|169:129|229:164,1,225.600005507813,2|0,0:0|0:0,0:0:0:0:
362,228,87508,38,0,B|372:180|414:164|414:164|361:170|354:227,1,180.48000440625,2|0,0:0|0:0,0:0:0:0:
432,293,88215,6,0,P|448:325|448:346,1,45.1200011015625,0|2,1:2|0:0,0:0:0:0:
376,359,88498,2,0,P|360:327|360:306,1,45.1200011015625,2|2,0:0|0:0,0:0:0:0:
369,236,88781,5,10,0:0:0:0:
444,137,88923,1,2,1:2:0:0:
305,35,89064,37,10,0:0:0:0:
366,145,89206,1,10,1:1:0:0:
370,153,89489,5,10,1:1:0:0:
374,161,89772,38,0,B|331:186|283:149|299:132|249:99|198:127,1,184.239998313232,6|10,1:1|0:0,0:0:0:0:
49,205,90196,1,4,1:2:0:0:
92,142,90338,2,0,P|123:182|120:234,1,92.1199991566162,2|8,0:0|0:0,0:0:0:0:
31,360,90621,1,8,1:3:0:0:
39,280,90763,2,0,B|83:285|92:319|92:319|75:294|35:289,1,138.179998734924,2|0,1:2|0:0,0:0:0:0:
33,366,91046,38,0,P|134:330|251:290,1,219.960007383911,6|0,1:2|0:0,0:0:0:0:
353,349,91612,2,0,P|395:369|434:359,1,73.3200024613038,8|0,0:0|0:0,0:0:0:0:
319,272,91895,5,2,0:0:0:0:
322,265,92036,2,0,P|306:211|278:113,1,146.640004922608,2|8,1:2|0:0,0:0:0:0:
351,62,92461,2,0,P|409:69|458:-10,2,146.640004922608,0|10|0,1:2|0:0|3:2,0:0:0:0:
254,20,93168,37,0,3:0:0:0:
243,18,93239,1,0,3:0:0:0:
233,23,93310,1,2,1:2:0:0:
146,88,93451,2,0,P|82:87|38:20,1,146.640004922608,2|0,0:0|0:0,0:0:0:0:
120,12,93876,5,8,0:0:0:0:
116,21,94159,37,2,1:2:0:0:
146,88,94300,2,0,P|166:132|181:168,1,73.3200024613038,0|0,1:2|0:0,0:0:0:0:
100,265,94583,5,8,0:0:0:0:
59,201,94725,2,0,P|93:154|195:173,2,146.640004922608,10|10|2,1:1|0:0|1:2,0:0:0:0:
223,347,95574,38,0,P|242:281|265:195,2,146.640004922608,6|0|8,1:2|1:2|0:0,0:0:0:0:
226,356,96423,5,2,0:0:0:0:
304,378,96564,2,0,P|339:369|364:344,1,73.3200024613038,2|0,1:2|0:0,0:0:0:0:
328,258,96847,2,0,P|292:266|267:291,1,73.3200024613038,10|0,0:0|1:2,0:0:0:0:
418,274,97130,1,2,0:0:0:0:
421,267,97272,2,0,P|441:208|450:181,2,73.3200024613038,8|2|2,0:0|0:0|1:2,0:0:0:0:
326,251,97696,37,2,0:0:0:0:
323,244,97838,2,0,B|301:175|301:175|296:172|296:172|275:108,1,146.640004922608,2|0,1:2|1:2,0:0:0:0:
284,19,98263,1,2,0:0:0:0:
209,46,98404,2,0,B|173:65|140:37|151:27|106:-3|62:17,1,146.640004922608,8|2,0:0|0:0,0:0:0:0:
0,102,98829,5,0,1:2:0:0:
58,161,98970,2,0,P|118:183|197:211,1,146.640004922608,2|2,0:0|1:2,0:0:0:0:
276,141,99347,37,2,0:0:0:0:
285,137,99442,5,2,0:0:0:0:
293,139,99536,38,0,B|274:190|310:234|328:219|365:265|336:321,1,191.76000117041,12|8,0:0|0:3,0:0:0:0:
250,357,100102,6,0,B|303:389|365:345|333:320|392:278|459:317,1,225.600005507813,6|0,1:2|0:0,0:0:0:0:
428,384,100951,2,0,P|386:344|473:241,1,225.600005507813,2|0,0:0|3:0,0:0:0:0:
483,163,101800,37,2,0:3:0:0:
475,157,102083,5,2,0:0:0:0:
467,152,102366,38,0,B|517:137|496:99|491:51|421:47|352:127|409:207,1,270.720006609375,6|2,1:2|0:0,0:0:0:0:
258,344,103781,5,8,0:3:0:0:
251,337,104064,2,0,P|234:290|217:234,1,90.2400022031251,2|0,0:0|1:2,0:0:0:0:
153,185,104489,1,0,1:2:0:0:
199,125,104630,38,0,P|233:91|284:92,2,90.2400022031251,6|0|2,1:2|0:0|0:0,0:0:0:0:
93,252,105479,1,0,0:0:0:0:
89,260,105763,6,0,P|109:310|125:349,1,90.2400022031251,2|0,0:0|0:0,0:0:0:0:
291,382,106328,37,2,0:0:0:0:
295,374,106611,5,2,0:0:0:0:
298,363,106895,38,0,P|279:344|242:334,1,54.5200016638184,2|0,0:0|0:0,0:0:0:0:
238,263,107178,2,0,P|212:269|184:296,1,54.5200016638184
108,354,107461,6,0,L|82:287,1,54.5200016638184,0|0,1:2|0:0,0:0:0:0:
132,233,107744,2,0,L|158:166,1,54.5200016638184,0|0,1:2|0:0,0:0:0:0:
16,62,108027,38,0,P|40:41|90:38,1,63.9200003901367,8|0,1:2|0:0,0:0:0:0:
112,119,108310,2,0,P|88:140|38:143,1,63.9200003901367,8|0,1:2|0:0,0:0:0:0:
225,42,108593,6,0,P|268:57|330:80,1,95.8800005852051,0|0,1:2|0:0,0:0:0:0:
327,80,108875,1,8,1:3:0:0:
443,30,109017,1,8,1:3:0:0:
334,84,109159,38,0,B|358:148|381:215|381:215|363:162|389:117,1,219.960007383911,6|0,1:2|0:0,0:0:0:0:
449,176,109725,5,8,0:0:0:0:
456,185,110008,1,2,1:2:0:0:
456,195,110291,38,0,P|501:230|509:284,1,109.980003691956,2|0,0:0|0:0,0:0:0:0:
429,267,110574,2,0,P|421:323|378:357,1,109.980003691956,2|0,1:2|0:0,0:0:0:0:
349,281,110857,1,10,0:0:0:0:
210,326,111140,6,0,L|224:367,3,36.6600012306519,2|0|0|0,3:2|3:0|3:0|3:0,0:0:0:0:
146,286,111423,37,2,1:2:0:0:
151,276,111706,5,0,1:2:0:0:
156,265,111989,38,0,B|138:221|106:146,1,109.980003691956,8|0,0:0|0:0,0:0:0:0:
55,121,112272,2,0,P|111:108|109:29,1,146.640004922608,2|0,1:2|0:0,0:0:0:0:
47,211,112838,6,0,P|105:236|170:267,1,109.980003691956,2|0,1:2|0:0,0:0:0:0:
211,212,113121,2,0,P|260:188|311:167,1,109.980003691956,10|0,0:0|0:0,0:0:0:0:
382,186,113404,1,2,3:2:0:0:
409,284,113546,37,0,3:2:0:0:
409,284,113616,1,0,3:2:0:0:
409,284,113687,2,0,P|378:239|390:171,1,109.980003691956,2|0,1:2|0:0,0:0:0:0:
455,171,113970,2,0,P|486:216|474:284,1,109.980003691956,0|0,1:2|0:0,0:0:0:0:
463,338,114253,5,8,0:0:0:0:
459,347,114536,37,2,1:2:0:0:
455,356,114819,6,0,P|406:367|354:330,1,109.980003691956,2|0,0:0|0:0,0:0:0:0:
279,357,115102,2,0,P|226:346|181:376,1,109.980003691956,2|0,1:2|0:0,0:0:0:0:
114,336,115385,37,10,0:0:0:0:
119,325,115668,5,2,3:2:0:0:
54,262,115810,37,0,3:2:0:0:
54,262,115880,1,0,3:2:0:0:
54,262,115951,2,0,P|36:210|17:149,1,109.980003691956,2|0,1:2|0:0,0:0:0:0:
41,84,116234,2,0,B|101:79|84:118|156:111,1,109.980003691956,0|0,1:2|0:0,0:0:0:0:
213,91,116517,2,0,P|171:129|180:185,1,109.980003691956,8|0,0:0|0:0,0:0:0:0:
184,188,116800,1,0,1:2:0:0:
265,153,116942,1,0,0:0:0:0:
353,234,117083,6,0,P|389:276|459:273,1,109.980003691956,2|0,3:2|0:0,0:0:0:0:
425,199,117366,2,0,P|479:188|511:126,1,109.980003691956,0|0,1:2|0:0,0:0:0:0:
436,121,117649,2,0,B|400:140|365:112|376:97|333:72|289:92,1,146.640004922608,12|0,0:2|3:0,0:0:0:0:
139,195,118215,38,0,B|44:123|114:19|193:1|206:55|239:96|174:124,1,315.840007710938,4|0,1:2|0:0,0:0:0:0:
67,131,119347,6,0,P|40:108|55:15,2,135.360003304688,4|8|8,1:2|0:3|0:3,0:0:0:0:
217,239,120479,38,0,B|292:227|335:152|335:152|294:223|322:268,1,272.600008319092,4|0,1:2|0:0,0:0:0:0:
395,217,121329,5,0,3:2:0:0:
402,212,121470,1,0,3:2:0:0:
502,152,121612,38,0,P|472:247|433:368,1,218.080006655274,4|8,1:2|1:3,0:0:0:0:
429,368,122461,5,0,3:2:0:0:
376,290,122602,1,0,3:2:0:0:
422,376,122744,38,0,B|376:394|340:368|357:349|307:317|260:345,1,163.560004991455,6|0,1:2|1:2,0:0:0:0:
154,363,123310,2,0,P|141:318|120:243,1,109.040003327637,8|2,0:0|0:0,0:0:0:0:
72,201,123734,1,2,1:2:0:0:
75,194,124017,5,8,0:0:0:0:
138,158,124159,2,0,P|164:138|201:135,1,54.5200016638184,0|0,1:2|0:0,0:0:0:0:
274,206,124442,2,0,P|310:241|377:240,1,109.040003327637,10|2,0:0|0:0,0:0:0:0:
456,205,124866,37,2,0:0:0:0:
456,205,124937,1,2,0:0:0:0:
456,205,125008,2,0,P|469:260|484:326,2,109.040003327637,2|0|8,1:2|1:2|0:0,0:0:0:0:
463,85,125857,6,0,P|484:62|513:56,1,54.5200016638184,2|0,0:0|1:2,0:0:0:0:
402,137,126140,2,0,P|366:141|309:92,1,109.040003327637,2|0,0:0|1:2,0:0:0:0:
226,25,126564,37,2,0:0:0:0:
305,91,126706,2,0,P|284:179|262:262,1,163.560004991455,14|2,0:1|0:0,0:0:0:0:
166,351,127272,22,0,P|111:315|118:250,1,127.840000780273,2|8,1:2|0:0,0:0:0:0:
201,192,127696,1,2,0:0:0:0:
128,154,127838,1,2,3:2:0:0:
128,154,127909,1,0,3:0:0:0:
128,154,127979,2,0,L|94:165,2,31.9600001950684,0|0|0,3:0|3:0|3:0,0:0:0:0:
176,84,128263,21,2,0:0:0:0:
254,123,128404,2,0,B|289:133|318:111|306:99|338:74|380:94,1,127.840000780273,2|8,1:2|0:0,0:0:0:0:
463,168,128828,1,2,0:0:0:0:
390,202,128970,1,2,3:2:0:0:
390,202,129041,1,0,3:0:0:0:
390,202,129112,2,0,L|379:172,2,31.9600001950684,0|0|0,3:0|3:0|3:0,0:0:0:0:
461,250,129395,21,2,0:0:0:0:
403,314,129536,2,0,P|357:334|255:378,1,146.640004922608,2|0,1:2|3:0,0:0:0:0:
118,313,129961,1,2,0:0:0:0:
147,241,130102,2,0,P|190:281|170:370,1,146.640004922608,2|0,1:2|3:0,0:0:0:0:
47,274,130527,21,2,3:2:0:0:
47,274,130597,1,0,3:0:0:0:
47,274,130668,2,0,L|82:182,1,73.3200024613038,2|0,1:2|0:0,0:0:0:0:
129,95,130951,1,8,0:0:0:0:
8,160,131093,1,2,0:0:0:0:
137,91,131234,6,0,B|187:72|232:108|217:126|263:163|319:134,1,190.820005823364,10|0,1:3|0:0,0:0:0:0:
382,108,131800,38,0,P|348:67|288:63,2,109.040003327637,6|0|0,1:2|1:2|1:2,0:0:0:0:
466,169,132649,2,0,L|488:106,1,54.5200016638184,2|0,1:2|0:0,0:0:0:0:
372,219,132932,6,0,P|391:281|414:354,1,127.840000780273,10|8,1:3|1:3,0:0:0:0:
476,262,133498,1,10,1:3:0:0:
328,331,133781,2,0,P|289:327|263:300,1,63.9200003901367,10|8,1:3|1:3,0:0:0:0:
264,304,133994,1,8,1:3:0:0:
257,295,134064,38,0,P|211:245|132:248,1,146.640004922608,6|2,1:2|1:2,0:0:0:0:
28,382,134630,6,0,L|0:296,1,73.3200024613038,2|0,1:2|0:0,0:0:0:0:
54,254,134913,1,2,1:2:0:0:
20,88,135196,38,0,P|50:65|99:68,1,73.3200024613038,10|0,1:3|0:0,0:0:0:0:
117,148,135479,2,0,P|87:171|38:168,1,73.3200024613038,8|2,1:3|0:0,0:0:0:0:
176,84,135763,1,10,0:0:0:0:
261,155,135904,1,0,3:0:0:0:
261,155,135975,1,0,3:0:0:0:
261,155,136046,2,0,L|300:172,1,36.6600012306519,8|8,1:3|1:3,0:0:0:0:
360,106,136187,2,0,L|393:91,1,36.6600012306519,8|8,1:3|1:3,0:0:0:0:
503,147,136329,6,0,B|481:108|499:65|499:65|468:134|425:228,1,248.160007573242,6|0,1:2|0:0,0:0:0:0:
470,296,136895,38,0,P|440:326|388:328,1,82.7200025244141,0|0,1:2|0:0,0:0:0:0:
366,257,137178,2,0,P|394:227|434:221,1,82.7200025244141,2|0,1:2|0:0,0:0:0:0:
274,361,137461,6,0,B|295:324|295:324|272:276,1,82.7200025244141,10|0,1:3|0:0,0:0:0:0:
165,283,137744,2,0,B|144:320|144:320|161:356,1,82.7200025244141,8|0,1:3|0:0,0:0:0:0:
237,177,138027,38,0,P|206:146|164:138,1,82.7200025244141,10|0,1:3|0:0,0:0:0:0:
36,249,138310,2,0,P|75:239|103:209,1,82.7200025244141,8|0,1:3|0:0,0:0:0:0:
81,80,138593,5,6,1:2:0:0:
76,72,138876,37,0,3:0:0:0:
112,44,138946,1,0,3:0:0:0:
156,35,139017,1,0,3:0:0:0:
200,50,139088,1,0,3:0:0:0:
206,60,139159,5,8,1:3:0:0:
227,89,139229,1,8,1:3:0:0:
257,102,139300,1,8,1:3:0:0:
292,101,139371,1,8,1:3:0:0:
299,93,139442,38,0,L|314:34,1,46.0599995783081,8|0,1:3|0:0,0:0:0:0:
438,14,139583,1,10,0:0:0:0:
497,359,149206,5,0,1:2:0:0:
497,359,149277,1,0,1:2:0:0:
497,359,149347,2,0,P|459:308|375:313,1,152.280003717774,10|0,0:0|0:0,0:0:0:0:
315,352,149630,38,0,P|288:367|254:367,1,53.5799993459473,2|0,0:0|0:0,0:0:0:0:
182,309,149913,22,0,B|171:266|136:245|136:245|190:259|188:322,1,166.379994160858,6|0,1:2|0:0,0:0:0:0:
108,319,150196,2,0,B|165:343|221:304|199:281|253:234|324:279,1,221.839992214478,8|0,0:0|1:2,0:0:0:0:
376,311,150621,1,0,1:2:0:0:
482,165,150763,1,10,0:0:0:0:
446,102,150904,2,0,P|414:57|346:55,1,110.919996107239,0|0,1:2|0:0,0:0:0:0:
194,146,151187,5,0,1:2:0:0:
254,195,151329,2,0,P|270:125|295:19,1,166.379994160858,8|0,0:0|0:0,0:0:0:0:
230,0,151612,37,2,1:2:0:0:
166,31,151753,1,0,1:2:0:0:
298,37,151895,2,0,B|339:62|358:94|358:94|376:60|428:38,1,166.379994160858,10|0,0:0|0:0,0:0:0:0:
492,8,152178,6,0,B|516:65|477:121|454:99|407:153|452:224,1,221.839992214478,2|8,1:2|0:0,0:0:0:0:
504,283,152602,1,2,0:0:0:0:
340,363,152744,1,0,1:2:0:0:
289,285,152885,1,0,1:2:0:0:
399,289,153027,37,10,0:0:0:0:
337,371,153168,2,0,B|280:395|224:356|246:333|192:286|121:331,1,221.839992214478,4|0,1:2|1:2,0:0:0:0:
31,381,153593,2,0,B|64:326|106:301|106:301|61:277|32:207,1,221.839992214478,10|0,0:0|1:2,0:0:0:0:
14,83,154017,1,0,1:2:0:0:
88,76,154159,6,0,B|77:33|42:12|42:12|96:26|94:89,1,166.379994160858,10|0,0:0|0:0,0:0:0:0:
73,147,154442,6,0,B|116:173|168:138|144:120|197:84|257:116,1,184.239998313232,2|8,1:2|0:0,0:0:0:0:
366,172,155008,1,2,1:3:0:0:
376,151,155150,1,0,1:2:0:0:
324,72,155291,5,2,0:3:0:0:
358,11,155433,1,8,0:0:0:0:
479,63,155574,38,0,P|423:84|442:193,1,184.239998313232,0|8,1:2|0:0,0:0:0:0:
488,341,156140,2,0,P|442:321|401:307,1,92.1199991566162,0|0,1:2|0:0,0:0:0:0:
289,366,156423,2,0,P|325:317|289:245,1,138.179998734924,8|0,0:0|0:0,0:0:0:0:
247,308,156706,6,0,P|211:259|247:187,1,138.179998734924,4|0,1:2|0:0,0:0:0:0:
308,150,156989,2,0,P|322:134|330:102,1,46.0599995783081,2|2,3:2|3:2,0:0:0:0:
256,103,157130,2,0,P|249:82|225:59,1,46.0599995783081,2|2,3:2|3:2,0:0:0:0:
180,120,157272,2,0,P|129:108|65:181,1,138.179998734924,4|0,1:2|0:0,0:0:0:0:
36,250,157555,38,0,L|82:270,1,46.0599995783081,0|0,3:2|3:2,0:0:0:0:
68,340,157696,2,0,L|25:321,1,46.0599995783081,0|0,3:2|3:2,0:0:0:0:
174,315,157838,1,12,3:1:0:0:
174,315,157909,1,0,3:0:0:0:
174,315,157979,2,0,P|199:309|227:285,1,50.7600012392578,0|0,3:0|3:0,0:0:0:0:
313,343,158121,2,0,P|338:349|366:373,1,50.7600012392578,0|0,3:0|3:0,0:0:0:0:
477,289,158263,5,12,3:1:0:0:
477,289,158333,1,0,3:0:0:0:
477,289,158404,2,0,B|482:264|482:264|468:239,1,50.7600012392578,0|0,3:0|3:0,0:0:0:0:
336,176,158546,2,0,B|323:153|323:153|328:129,1,50.7600012392578,0|0,3:0|3:0,0:0:0:0:
447,50,158687,37,12,3:1:0:0:
453,42,158970,5,0,1:2:0:0:
332,123,159112,1,8,0:0:0:0:
323,8,159253,37,0,1:2:0:0:
443,150,159395,1,0,1:2:0:0:
270,269,159536,5,8,0:0:0:0:
332,123,159819,37,0,3:0:0:0:
275,112,159889,1,0,3:0:0:0:
226,138,159960,1,0,3:0:0:0:
208,191,160031,1,0,3:0:0:0:
212,200,160102,22,0,P|282:228|378:266,1,166.379994160858,6|0,1:2|0:0,0:0:0:0:
430,296,160385,2,0,B|373:272|317:311|339:334|285:381|214:336,1,221.839992214478,8|0,0:0|1:2,0:0:0:0:
167,310,160810,1,0,1:2:0:0:
36,171,160951,1,10,0:0:0:0:
113,161,161093,2,0,P|91:231|75:280,1,110.919996107239,4|0,1:2|0:0,0:0:0:0:
28,68,161375,5,0,1:2:0:0:
99,40,161517,2,0,B|143:23|182:52|166:67|205:98|250:77,1,166.379994160858,8|0,0:0|0:0,0:0:0:0:
327,51,161800,37,2,1:2:0:0:
269,9,161942,1,0,1:2:0:0:
423,162,162083,2,0,P|490:144|485:51,1,166.379994160858,10|0,0:0|0:0,0:0:0:0:
442,8,162366,6,0,P|474:105|520:239,1,221.839992214478,2|8,1:2|0:0,0:0:0:0:
486,291,162791,1,2,0:0:0:0:
297,360,162932,1,0,1:2:0:0:
332,287,163074,1,0,1:2:0:0:
223,208,163215,37,10,0:0:0:0:
236,126,163357,2,0,B|291:143|316:201|316:201|333:144|410:126,1,221.839992214478,4|0,1:2|1:2,0:0:0:0:
458,15,163781,6,0,B|434:72|473:128|496:106|541:162|498:231,1,221.839992214478,10|0,0:0|1:2,0:0:0:0:
397,330,164206,1,0,1:2:0:0:
475,322,164347,2,0,B|464:279|429:258|429:258|483:272|481:335,1,166.379994160858,10|0,0:0|0:0,0:0:0:0:
392,336,164630,6,0,B|335:360|279:321|301:298|245:253|176:296,1,221.839992214478,2|8,1:2|0:0,0:0:0:0:
68,347,165055,1,0,0:0:0:0:
196,362,165196,1,0,1:2:0:0:
148,216,165338,1,0,1:2:0:0:
73,339,165479,37,10,0:0:0:0:
150,208,165621,2,0,P|188:151|339:153,1,221.839992214478,2|0,1:2|1:2,0:0:0:0:
434,260,166046,5,8,0:0:0:0:
478,176,166187,1,0,0:0:0:0:
336,139,166329,37,2,1:2:0:0:
292,55,166470,1,0,1:2:0:0:
412,41,166612,5,10,0:0:0:0:
259,178,166753,1,0,0:0:0:0:
438,267,166895,38,0,B|485:263|485:263|371:315,1,166.379994160858,2|0,1:2|0:0,0:0:0:0:
321,380,167178,2,0,P|262:327|284:251,1,166.379994160858,8|0,0:0|0:0,0:0:0:0:
358,218,167461,5,8,0:0:0:0:
368,205,167531,1,0,1:0:0:0:
366,188,167602,1,8,1:3:0:0:
241,86,167744,1,10,0:0:0:0:
394,43,167885,38,0,B|350:26|311:54|327:70|288:101|243:80,1,166.379994160858,6|0,1:2|0:0,0:0:0:0:
182,40,168168,1,0,1:2:0:0:
20,154,168310,6,0,B|64:171|103:142|87:127|126:96|171:117,1,166.379994160858,8|0,0:0|0:0,0:0:0:0:
232,157,168593,1,2,1:2:0:0:
385,228,168734,37,0,3:2:0:0:
331,214,168805,1,0,3:2:0:0:
289,250,168876,1,2,3:2:0:0:
283,261,168946,5,0,3:2:0:0:
252,288,169017,1,0,3:2:0:0:
212,279,169088,1,0,3:2:0:0:
207,269,169159,22,0,B|172:221|134:207|134:207|135:214|135:214|165:240|152:285,1,166.379994160858,2|0,1:2|0:0,0:0:0:0:
84,268,169442,2,0,P|115:155|146:48,1,221.839992214478,12|0,0:0|1:2,0:0:0:0:
87,1,169866,1,0,1:2:0:0:
294,112,170008,1,10,0:0:0:0:
257,45,170149,2,0,P|217:93|226:151,1,110.919996107239,0|0,1:2|0:0,0:0:0:0:
350,288,170432,5,0,1:2:0:0:
333,212,170574,2,0,B|288:234|273:269|273:269|257:234|203:213,1,166.379994160858,8|0,0:0|0:0,0:0:0:0:
149,173,170857,37,2,1:2:0:0:
219,138,170998,1,0,1:2:0:0:
145,304,171140,2,0,B|189:287|228:316|212:331|251:362|296:341,1,166.379994160858,10|0,0:0|0:0,0:0:0:0:
350,288,171423,6,0,P|426:272|484:342,1,166.379994160858,2|0,1:2|0:0,0:0:0:0:
402,348,171706,1,8,0:0:0:0:
333,212,171847,2,0,P|384:191|437:175,1,110.919996107239,2|0,0:0|1:2,0:0:0:0:
494,128,172130,1,2,1:2:0:0:
350,288,172272,37,10,0:0:0:0:
251,140,172413,2,0,B|194:116|138:155|160:178|106:225|35:180,1,221.839992214478,4|0,1:2|1:2,0:0:0:0:
8,9,172838,6,0,P|60:18|87:65,1,110.919996107239,10|0,0:0|0:0,0:0:0:0:
24,115,173121,1,0,1:2:0:0:
131,271,173263,1,0,1:2:0:0:
198,236,173404,2,0,B|242:219|281:248|265:263|304:294|349:273,1,166.379994160858,10|0,0:0|0:0,0:0:0:0:
432,274,173687,6,0,B|424:223|385:200|385:200|435:217|439:276,1,184.239998313232,6|8,1:2|0:0,0:0:0:0:
237,342,174253,1,2,1:3:0:0:
233,353,174395,1,0,1:2:0:0:
135,279,174536,5,2,0:3:0:0:
126,262,174678,1,8,0:0:0:0:
74,367,174819,38,0,B|122:395|165:361|145:340|201:302|258:336,1,184.239998313232,2|8,1:2|0:0,0:0:0:0:
440,365,175385,2,0,P|475:323|471:285,1,92.1199991566162,0|0,1:2|1:2,0:0:0:0:
389,218,175668,2,0,P|342:176|351:91,1,138.179998734924,10|0,0:0|0:0,0:0:0:0:
398,48,175951,6,0,P|329:68|257:93,1,138.179998734924,6|0,1:2|0:0,0:0:0:0:
189,55,176234,1,10,0:0:0:0:
189,55,176305,1,2,0:0:0:0:
189,55,176375,1,2,0:0:0:0:
54,150,176517,38,0,B|73:116|108:110|108:110|67:108|51:150,1,138.179998734924,6|0,1:2|0:0,0:0:0:0:
103,37,176800,2,0,B|141:36|165:63|165:63|146:27|101:34,1,138.179998734924,10|0,0:0|0:0,0:0:0:0:
182,136,177083,6,0,P|158:197|123:286,1,138.179998734924,6|0,1:2|0:0,0:0:0:0:
94,332,177366,37,8,0:0:0:0:
39,252,177508,1,8,0:0:0:0:
206,299,177650,5,2,1:2:0:0:
171,363,177791,1,0,1:0:0:0:
129,257,177932,38,0,P|161:225|210:219,1,92.1199991566162,8|0,0:0|0:0,0:0:0:0:
287,287,178215,6,0,B|364:312|364:312|367:316|367:316|459:347,1,165.440005048828,6|8,1:2|0:0,0:0:0:0:
418,175,178781,37,2,1:3:0:0:
348,126,178923,1,0,1:2:0:0:
396,251,179064,5,2,0:3:0:0:
506,186,179206,1,8,0:0:0:0:
392,260,179347,38,0,B|348:285|310:254|328:235|277:201|226:232,1,165.440005048828,0|8,1:2|0:0,0:0:0:0:
129,303,179914,1,0,1:2:0:0:
53,222,180055,1,0,1:2:0:0:
134,308,180196,2,0,P|170:258|147:199,1,124.080003786621,10|0,0:0|0:0,0:0:0:0:
89,151,180479,6,0,P|149:127|260:88,1,165.440005048828,6|8,1:2|0:0,0:0:0:0:
458,27,181046,2,0,P|435:79|408:150,1,124.080003786621,6|0,1:2|0:0,0:0:0:0:
404,152,181329,2,0,P|368:167|346:251,1,124.080003786621,10|0,0:0|0:0,0:0:0:0:
350,253,181612,2,0,P|386:268|408:352,1,124.080003786621,6|0,1:2|0:0,0:0:0:0:
343,373,181895,37,10,0:0:0:0:
274,324,182036,1,8,0:0:0:0:
187,338,182178,5,2,1:2:0:0:
128,299,182319,1,0,1:2:0:0:
216,263,182461,38,0,P|200:217|186:173,1,82.7200025244141,8|0,0:0|0:0,0:0:0:0:
84,135,182744,6,0,P|141:119|148:20,1,165.440005048828,2|10,1:2|0:0,0:0:0:0:
1,207,183309,1,2,3:2:0:0:
50,269,183451,2,0,P|90:283|137:302,1,82.7200025244141,8|2,0:0|0:0,0:0:0:0:
229,272,183734,1,0,3:0:0:0:
237,263,183805,1,0,3:0:0:0:
249,261,183875,1,2,1:2:0:0:
258,266,184159,38,0,P|315:328|394:306,1,165.440005048828,10|2,0:0|1:2,0:0:0:0:
471,224,184583,1,8,0:0:0:0:
425,160,184725,1,2,0:0:0:0:
301,171,184866,1,0,3:0:0:0:
293,180,184937,1,0,3:0:0:0:
281,182,185007,1,2,1:2:0:0:
272,177,185291,6,0,B|228:152|190:183|208:202|157:236|106:205,1,165.440005048828,14|8,0:0|0:0,0:0:0:0:
17,125,185715,1,8,1:3:0:0:
57,260,185857,1,10,0:0:0:0:
15,116,185998,38,0,B|64:142|111:109|91:91|142:50|202:83,1,191.76000117041,6|2,1:2|0:0,0:0:0:0:
491,28,187272,5,6,1:2:0:0:
487,39,187413,1,2,0:0:0:0:
356,87,187555,2,0,P|381:41|484:54,1,165.440005048828,2|10,1:2|0:0,0:0:0:0:
487,172,188121,37,2,0:0:0:0:
486,163,188263,2,0,P|447:177|404:195,2,82.7200025244141,10|2|2,1:1|0:0|0:0,0:0:0:0:
423,272,188687,1,2,1:2:0:0:
425,279,188829,2,0,P|386:264|343:247,1,82.7200025244141,2|2,0:0|0:0,0:0:0:0:
275,170,189112,6,0,P|218:222|250:303,1,165.440005048828,10|2,0:0|3:2,0:0:0:0:
251,305,189465,1,0,3:2:0:0:
261,311,189536,2,0,P|293:332|301:376,2,82.7200025244141,0|0|2,1:2|0:0|1:2,0:0:0:0:
148,284,189960,1,2,0:0:0:0:
52,352,190102,38,0,P|38:317|19:269,1,82.7200025244141,10|2,0:0|0:0,0:0:0:0:
105,217,190385,1,2,0:0:0:0:
112,213,190527,2,0,P|125:178|145:130,1,82.7200025244141,10|0,1:1|0:0,0:0:0:0:
45,35,190951,1,2,1:2:0:0:
108,69,191093,6,0,B|167:53|167:53|202:28|202:28|269:11,1,165.440005048828,0|10,0:0|0:0,0:0:0:0:
324,58,191517,1,0,0:0:0:0:
448,19,191658,1,0,3:2:0:0:
496,79,191800,38,0,L|461:167,1,82.7200025244141,2|2,1:2|0:0,0:0:0:0:
420,245,192083,2,0,B|376:233|359:194|359:194|368:241|421:249,1,165.440005048828,2|10,1:2|0:0,0:0:0:0:
512,357,192649,5,2,0:0:0:0:
505,351,192791,2,0,P|470:323|419:322,2,82.7200025244141,10|2|2,1:1|0:0|0:0,0:0:0:0:
352,329,193215,1,2,1:2:0:0:
346,335,193357,2,0,P|311:363|260:364,1,82.7200025244141,2|2,0:0|0:0,0:0:0:0:
202,315,193640,38,0,B|158:290|120:321|138:340|87:374|36:343,1,165.440005048828,10|2,0:0|3:2,0:0:0:0:
41,345,193993,1,0,3:2:0:0:
32,335,194064,2,0,P|12:293|21:259,1,82.7200025244141,2|2,1:2|0:0,0:0:0:0:
79,215,194347,5,2,1:2:0:0:
17,125,194489,1,2,0:0:0:0:
22,118,194630,2,0,P|55:97|105:94,1,82.7200025244141,10|2,0:0|0:0,0:0:0:0:
230,154,194913,1,2,0:0:0:0:
288,113,195055,38,0,L|320:24,2,82.7200025244141,2|0|0,1:2|0:0|0:0,0:0:0:0:
307,184,195479,1,0,1:2:0:0:
313,191,195763,5,8,0:0:0:0:
388,178,195904,1,8,0:0:0:0:
419,250,196046,1,8,0:0:0:0:
420,259,196329,38,0,P|434:290|414:341,1,73.3200024613038,10|2,1:1|0:0,0:0:0:0:
331,336,196612,2,0,P|317:305|337:254,1,73.3200024613038,2|2,3:2|3:2,0:0:0:0:
360,192,196895,2,0,P|344:128|324:45,1,146.640004922608,2|2,3:2|3:2,0:0:0:0:
259,17,197319,5,10,0:0:0:0:
136,68,197602,1,2,3:2:0:0:
136,68,197673,1,0,3:2:0:0:
136,68,197744,2,0,P|88:63|62:38,1,73.3200024613038,10|2,1:1|0:0,0:0:0:0:
6,129,198027,2,0,P|54:134|80:159,1,73.3200024613038,2|10,0:0|0:0,0:0:0:0:
149,144,198310,1,2,3:2:0:0:
79,228,198451,37,10,0:0:0:0:
81,234,198593,2,0,P|116:250|165:270,1,73.3200024613038,2|2,1:2|0:0,0:0:0:0:
228,224,198876,2,0,P|261:209|295:194,1,73.3200024613038,2|2,3:2|3:2,0:0:0:0:
408,240,199159,2,0,P|381:205|384:167,2,73.3200024613038,2|2|2,3:2|3:2|3:2,0:0:0:0:
497,308,199583,6,0,B|461:289|428:317|439:327|394:357|350:337,1,146.640004922608,10|2,0:0|3:2,0:0:0:0:
289,270,200008,1,10,1:1:0:0:
284,264,200149,2,0,P|262:226|271:194,1,73.3200024613038,2|2,0:0|0:0,0:0:0:0:
375,171,200432,1,10,0:0:0:0:
380,177,200573,2,0,P|402:215|393:247,1,73.3200024613038,2|2,1:2|1:2,0:0:0:0:
304,108,200857,37,10,1:1:0:0:
413,22,201140,2,0,B|481:53,1,73.3200024613038,2|2,3:2|3:2,0:0:0:0:
475,136,201423,2,0,B|408:105,1,73.3200024613038,2|2,3:2|3:2,0:0:0:0:
325,31,201706,5,2,3:2:0:0:
318,26,201847,2,0,P|281:25|249:49,2,73.3200024613038,10|2|2,0:0|0:0|3:2,0:0:0:0:
238,126,202272,2,0,P|275:127|307:103,2,73.3200024613038,10|2|2,1:1|0:0|0:0,0:0:0:0:
174,72,202696,1,10,0:0:0:0:
167,69,202838,2,0,L|141:151,1,73.3200024613038,2|2,1:2|1:2,0:0:0:0:
59,192,203121,38,0,P|102:197|112:299,1,146.640004922608,2|2,1:2|3:2,0:0:0:0:
44,361,203546,1,2,3:2:0:0:
38,355,203687,2,0,L|14:283,1,73.3200024613038,2|2,3:2|3:2,0:0:0:0:
59,192,203970,5,2,3:2:0:0:
7,127,204112,1,6,1:2:0:0:
256,192,204182,12,0,206517,0:0:0:0:
