osu file format v14

[General]
AudioFilename: audio.mp3
AudioLeadIn: 0
PreviewTime: 140220
Countdown: 0
SampleSet: Soft
StackLeniency: 0.8
Mode: 0
LetterboxInBreaks: 0
WidescreenStoryboard: 0

[Editor]
DistanceSpacing: 0.5
BeatDivisor: 4
GridSize: 32
TimelineZoom: 3.699998

[Metadata]
Title:Paper Bouquet
TitleUnicode:Paper Bouquet
Artist:Mili
ArtistUnicode:Mili
Creator:Esutarosa
Version:Paper Flowers of Each and Every Colour
Source:処刑少女の生きる道
Tags:momocashew cassie wei projectmili yamato kasai hamo Hinae AsuKow Pepekcz Shikibe Grazuko Mayu Soraka Shikibe_Mayu Kazato Asa Kazato_Asa Tachibana_ Shizuku- Shokei Shoujo no Virgin Road virgin-road project english rock pop conlang opening op バージンロード anime The Executioner and Her Way of Life
BeatmapID:3617239
BeatmapSetID:1767138

[Difficulty]
HPDrainRate:5.6
CircleSize:4.2
OverallDifficulty:9
ApproachRate:9.6
SliderMultiplier:1.74
SliderTickRate:1

[Events]
//Background and Video events
0,0,"BG.jpg",0,0
//Break Periods
2,140857,148697
//Storyboard Layer 0 (Background)
//Storyboard Layer 1 (Fail)
//Storyboard Layer 2 (Pass)
//Storyboard Layer 3 (Foreground)
//Storyboard Layer 4 (Overlay)
//Storyboard Sound Samples

[TimingPoints]
480,283.018867924528,4,2,20,40,1,0
480,-135.135135135135,4,2,20,40,0,0
621,-135.135135135135,4,2,21,40,0,0
763,-135.135135135135,4,2,22,40,0,0
904,-135.135135135135,4,2,23,40,0,0
1046,-135.135135135135,4,2,24,40,0,0
1329,-135.135135135135,4,2,23,40,0,0
1470,-135.135135135135,4,2,25,40,0,0
1612,-135.135135135135,4,2,26,25,0,0
1753,-135.135135135135,4,2,22,40,0,0
1895,-135.135135135135,4,2,25,40,0,0
2036,-135.135135135135,4,2,26,25,0,0
2178,-135.135135135135,4,2,25,40,0,0
2319,-135.135135135135,4,2,27,25,0,0
2461,-135.135135135135,4,2,28,25,0,0
2602,-135.135135135135,4,2,29,25,0,0
2744,-135.135135135135,4,2,1,25,0,0
3027,-135.135135135135,4,2,30,40,0,0
3168,-135.135135135135,4,2,31,40,0,0
3310,-135.135135135135,4,2,22,40,0,0
3451,-135.135135135135,4,2,30,25,0,0
3593,-135.135135135135,4,2,22,40,0,0
3734,-135.135135135135,4,2,26,40,0,0
4017,-135.135135135135,4,2,2,50,0,0
4159,-135.135135135135,4,2,32,50,0,0
4300,-135.135135135135,4,2,1,50,0,0
4442,-135.135135135135,4,2,1,50,0,0
4583,-135.135135135135,4,2,31,50,0,0
5008,-135.135135135135,4,2,20,40,0,0
5149,-135.135135135135,4,2,21,40,0,0
5291,-135.135135135135,4,2,22,40,0,0
5432,-135.135135135135,4,2,23,40,0,0
5574,-135.135135135135,4,2,24,40,0,0
5857,-135.135135135135,4,2,23,40,0,0
5998,-135.135135135135,4,2,25,40,0,0
6140,-135.135135135135,4,2,26,25,0,0
6281,-135.135135135135,4,2,22,25,0,0
6423,-135.135135135135,4,2,25,40,0,0
6564,-135.135135135135,4,2,26,25,0,0
6706,-135.135135135135,4,2,25,40,0,0
6847,-135.135135135135,4,2,27,40,0,0
6989,-135.135135135135,4,2,28,40,0,0
7130,-135.135135135135,4,2,29,40,0,0
7272,-135.135135135135,4,2,33,40,0,0
7413,-135.135135135135,4,2,28,25,0,0
7555,-135.135135135135,4,2,27,25,0,0
7696,-135.135135135135,4,2,34,40,0,0
7838,-135.135135135135,4,2,28,25,0,0
7979,-135.135135135135,4,2,27,25,0,0
8121,-135.135135135135,4,2,29,40,0,0
8263,-135.135135135135,4,2,35,40,0,0
8687,-135.135135135135,4,2,31,40,0,0
8970,-135.135135135135,4,2,36,40,0,0
9112,-185.185185185185,4,2,1,40,0,0
9536,-96.1538461538461,4,2,30,70,0,0
9607,-96.1538461538461,4,2,1,70,0,0
9819,-96.1538461538461,4,2,29,70,0,0
9961,-96.1538461538461,4,2,1,70,0,0
10102,-96.1538461538461,4,2,37,70,0,0
10244,-96.1538461538461,4,2,29,70,0,0
10385,-96.1538461538461,4,2,34,70,0,0
10527,-96.1538461538461,4,2,38,70,0,0
10668,-96.1538461538461,4,2,1,70,0,0
10810,-96.1538461538461,4,2,29,70,0,0
10951,-96.1538461538461,4,2,38,70,0,0
11093,-96.1538461538461,4,2,1,70,0,0
11234,-96.1538461538461,4,2,38,70,0,0
11376,-96.1538461538461,4,2,33,70,0,0
11517,-96.1538461538461,4,2,39,70,0,0
11659,-96.1538461538461,4,2,40,70,0,0
11800,-96.1538461538461,4,2,1,70,0,0
12013,-96.1538461538461,4,2,1,5,0,0
12083,-96.1538461538461,4,2,28,70,0,0
12225,-96.1538461538461,4,2,25,70,0,0
12366,-96.1538461538461,4,2,29,70,0,0
12508,-96.1538461538461,4,2,23,70,0,0
12649,-96.1538461538461,4,2,29,70,0,0
12791,-96.1538461538461,4,2,23,70,0,0
12932,-96.1538461538461,4,2,25,70,0,0
13074,-96.1538461538461,4,2,1,70,0,0
13215,-96.1538461538461,4,2,24,70,0,0
13357,-96.1538461538461,4,2,1,70,0,0
13498,-96.1538461538461,4,2,22,70,0,0
13640,-96.1538461538461,4,2,25,70,0,0
13781,-96.1538461538461,4,2,1,70,0,0
14347,-96.1538461538461,4,2,22,70,0,0
14489,-96.1538461538461,4,2,23,70,0,0
14630,-96.1538461538461,4,2,24,70,0,0
14772,-96.1538461538461,4,2,22,70,0,0
14913,-96.1538461538461,4,2,23,70,0,0
15055,-96.1538461538461,4,2,25,70,0,0
15196,-96.1538461538461,4,2,1,70,0,0
15479,-96.1538461538461,4,2,25,70,0,0
15621,-96.1538461538461,4,2,2,70,0,0
15763,-96.1538461538461,4,2,25,70,0,0
15904,-96.1538461538461,4,2,27,70,0,0
16046,-96.1538461538461,4,2,28,70,0,0
16187,-96.1538461538461,4,2,29,70,0,0
16258,-96.1538461538461,4,2,29,70,0,0
16329,-119.047619047619,4,2,33,70,0,0
16470,-119.047619047619,4,2,28,50,0,0
16612,-119.047619047619,4,2,27,50,0,0
16753,-119.047619047619,4,2,34,70,0,0
16895,-119.047619047619,4,2,28,50,0,0
17036,-119.047619047619,4,2,27,50,0,0
17178,-119.047619047619,4,2,29,70,0,0
17213,-119.047619047619,4,2,29,70,0,0
17319,-156.25,4,2,35,70,0,0
17390,-156.25,4,2,1,70,0,0
17956,-156.25,4,2,1,70,0,0
18027,-227.272727272727,4,2,1,30,0,0
18168,-227.272727272727,4,2,1,35,0,0
18310,-227.272727272727,4,2,1,40,0,0
18451,-227.272727272727,4,2,1,45,0,0
18593,-185.185185185185,4,2,41,40,0,0
18663,-185.185185185185,4,2,1,40,0,0
19088,-185.185185185185,4,2,1,5,0,0
19159,-156.25,4,2,1,40,0,0
19583,-156.25,4,2,42,40,0,0
19654,-156.25,4,2,1,40,0,0
20220,-156.25,4,2,1,5,0,0
20291,-156.25,4,2,1,40,0,0
20432,-135.135135135135,4,2,27,40,0,0
20574,-135.135135135135,4,2,23,40,0,0
20715,-135.135135135135,4,2,22,40,0,0
20857,-106.382978723404,4,2,1,60,0,0
23050,-106.382978723404,4,2,1,60,0,0
23121,-156.25,4,2,1,50,0,0
24112,-135.135135135135,4,2,1,50,0,0
31470,-135.135135135135,4,2,2,60,0,0
31612,-135.135135135135,4,2,1,60,0,0
32107,-135.135135135135,4,2,1,5,0,0
32178,-185.185185185185,4,2,1,50,0,0
36635,-185.185185185185,4,2,1,5,0,0
36706,-156.25,4,2,2,60,0,0
38970,-135.135135135135,4,2,2,60,0,0
39253,-135.135135135135,4,2,1,60,0,0
39536,-135.135135135135,4,2,2,60,0,0
40102,-135.135135135135,4,2,1,60,0,0
40668,-119.047619047619,4,2,1,60,0,0
41163,-119.047619047619,4,2,1,5,0,0
41234,-185.185185185185,4,2,1,60,0,0
42366,-156.25,4,2,1,62,0,0
43498,-156.25,4,2,1,64,0,0
43781,-135.135135135135,4,2,1,64,0,0
44630,-135.135135135135,4,2,1,66,0,0
45763,-135.135135135135,4,2,1,68,0,0
46258,-135.135135135135,4,2,1,5,0,0
46329,-135.135135135135,4,2,1,68,0,0
46895,-119.047619047619,4,2,1,68,0,0
48027,-106.382978723404,4,2,1,70,0,0
48310,-106.382978723404,4,2,2,70,0,0
48593,-106.382978723404,4,2,1,70,0,0
49442,-87.7192982456139,4,2,2,70,0,0
50291,-80.6451612903226,4,2,2,85,0,1
50362,-80.6451612903226,4,2,1,85,0,1
54536,-119.047619047619,4,2,1,85,0,1
54819,-80.6451612903226,4,2,1,85,0,1
56800,-119.047619047619,4,2,1,85,0,1
57083,-80.6451612903226,4,2,1,85,0,1
58498,-156.25,4,2,1,85,0,1
58781,-80.6451612903226,4,2,1,85,0,1
58923,-80.6451612903226,4,2,2,80,0,1
59347,-80.6451612903226,4,2,2,85,0,1
59418,-80.6451612903226,4,2,1,85,0,1
63026,-87.719298245614,4,2,1,85,0,1
63592,-119.047619047619,4,2,1,85,0,1
63805,-119.047619047619,4,2,1,5,0,1
63876,-96.1538461538461,4,2,1,70,0,0
64442,-96.1538461538461,4,2,2,70,0,0
64866,-96.1538461538461,4,2,1,70,0,0
65007,-106.382978723404,4,2,1,70,0,0
66069,-106.382978723404,4,2,1,70,0,0
66140,-106.382978723404,4,2,5,70,0,0
66777,-106.382978723404,4,2,1,70,0,0
66918,-106.382978723404,4,2,1,5,0,0
66989,-106.382978723404,4,2,1,70,0,0
67201,-106.382978723404,4,2,1,5,0,0
67272,-106.382978723404,4,2,1,70,0,0
67484,-106.382978723404,4,2,1,5,0,0
67555,-106.382978723404,4,2,1,70,0,0
68121,-185.185185185184,4,2,1,70,0,0
68333,-185.185185185184,4,2,1,5,0,0
68404,-119.047619047619,4,2,1,70,0,0
68970,-119.047619047619,4,2,2,70,0,0
69536,-119.047619047619,4,2,1,70,0,0
70597,-119.047619047619,4,2,1,5,0,0
70668,-119.047619047619,4,2,1,70,0,0
71446,-119.047619047619,4,2,1,5,0,0
71517,-119.047619047619,4,2,1,70,0,0
71729,-119.047619047619,4,2,1,5,0,0
71800,-119.047619047619,4,2,1,70,0,0
72013,-119.047619047619,4,2,1,5,0,0
72083,-119.047619047619,4,2,1,70,0,0
72649,-185.185185185185,4,2,1,70,0,0
72861,-185.185185185185,4,2,1,5,0,0
72932,-119.047619047619,4,2,1,70,0,0
73923,-119.047619047619,4,2,2,70,0,0
74064,-119.047619047619,4,2,1,70,0,0
75055,-119.047619047619,4,2,2,70,0,0
75196,-119.047619047619,4,2,1,70,0,0
76187,-135.135135135135,4,2,43,60,0,0
76612,-135.135135135135,4,2,44,60,0,0
77460,-135.135135135135,4,2,20,50,0,0
77602,-135.135135135135,4,2,21,35,0,0
77744,-135.135135135135,4,2,22,40,0,0
77885,-135.135135135135,4,2,23,45,0,0
78027,-135.135135135135,4,2,24,50,0,0
78310,-135.135135135135,4,2,23,45,0,0
78451,-135.135135135135,4,2,25,50,0,0
78593,-135.135135135135,4,2,26,35,0,0
78734,-135.135135135135,4,2,22,35,0,0
78876,-135.135135135135,4,2,25,50,0,0
79017,-135.135135135135,4,2,26,35,0,0
79159,-135.135135135135,4,2,25,50,0,0
79300,-135.135135135135,4,2,27,40,0,0
79442,-135.135135135135,4,2,28,45,0,0
79583,-135.135135135135,4,2,45,50,0,0
79725,-135.135135135135,4,2,1,50,0,0
80008,-135.135135135135,4,2,30,40,0,0
80149,-135.135135135135,4,2,31,45,0,0
80291,-135.135135135135,4,2,22,50,0,0
80432,-135.135135135135,4,2,30,35,0,0
80574,-135.135135135135,4,2,22,40,0,0
80715,-135.135135135135,4,2,26,50,0,0
80998,-135.135135135135,4,2,2,50,0,0
81140,-135.135135135135,4,2,32,50,0,0
81564,-135.135135135135,4,2,31,50,0,0
81706,-135.135135135135,4,2,1,50,0,0
82272,-135.135135135135,4,2,20,50,0,0
82413,-135.135135135135,4,2,23,35,0,0
82555,-135.135135135135,4,2,24,50,0,0
82696,-135.135135135135,4,2,22,35,0,0
82838,-135.135135135135,4,2,23,40,0,0
82979,-135.135135135135,4,2,25,45,0,0
83121,-135.135135135135,4,2,26,35,0,0
83263,-135.135135135135,4,2,22,35,0,0
83404,-135.135135135135,4,2,25,45,0,0
83546,-135.135135135135,4,2,26,35,0,0
83687,-135.135135135135,4,2,25,45,0,0
83829,-135.135135135135,4,2,27,46,0,0
83970,-135.135135135135,4,2,28,47,0,0
84112,-135.135135135135,4,2,29,48,0,0
84253,-156.25,4,2,33,50,0,0
84395,-156.25,4,2,28,35,0,0
84536,-156.25,4,2,27,35,0,0
84678,-156.25,4,2,34,50,0,0
84819,-156.25,4,2,28,35,0,0
84961,-156.25,4,2,27,35,0,0
85102,-156.25,4,2,29,50,0,0
85243,-185.185185185185,4,2,35,50,0,0
85951,-156.25,4,2,1,40,0,0
86093,-156.25,4,2,1,42,0,0
86234,-156.25,4,2,1,44,0,0
86376,-156.25,4,2,1,46,0,0
86517,-227.272727272727,4,2,41,40,0,0
87507,-185.185185185185,4,2,42,40,0,0
88145,-185.185185185185,4,2,42,5,0,0
88215,-135.135135135135,4,2,1,40,0,0
88357,-135.135135135135,4,2,27,40,0,0
88498,-135.135135135135,4,2,23,40,0,0
88640,-135.135135135135,4,2,22,40,0,0
88781,-106.382978723404,4,2,1,50,0,0
90974,-106.382978723404,4,2,1,50,0,0
91045,-156.25,4,2,1,50,0,0
92036,-135.135135135135,4,2,1,50,0,0
93805,-135.135135135135,4,2,1,5,0,0
93876,-135.135135135135,4,2,1,50,0,0
99536,-185.185185185185,4,2,1,50,0,0
100102,-227.272727272727,4,2,25,40,0,0
100173,-227.272727272727,4,2,1,40,0,0
100951,-227.272727272727,4,2,28,40,0,0
101022,-227.272727272727,4,2,1,40,0,0
101800,-227.272727272727,4,2,3,40,0,0
101942,-227.272727272727,4,2,1,40,0,0
102083,-227.272727272727,4,2,20,25,0,0
102366,-227.272727272727,4,2,29,40,0,0
102932,-227.272727272727,4,2,46,30,0,0
103215,-227.272727272727,4,2,47,40,0,0
103286,-227.272727272727,4,2,1,40,0,0
104064,-227.272727272727,4,2,28,40,0,0
104135,-227.272727272727,4,2,1,40,0,0
104630,-185.185185185185,4,2,29,40,0,0
104701,-185.185185185185,4,2,1,40,0,0
105196,-185.185185185185,4,2,24,40,0,0
105267,-185.185185185185,4,2,1,40,0,0
105763,-185.185185185185,4,2,38,40,0,0
105833,-185.185185185185,4,2,1,40,0,0
106329,-185.185185185185,4,2,33,40,0,0
106399,-185.185185185185,4,2,1,40,0,0
106612,-185.185185185185,4,2,26,25,0,0
106682,-185.185185185185,4,2,1,25,0,0
106894,-156.25,4,2,48,40,0,0
106965,-156.25,4,2,1,40,0,0
107460,-135.135135135135,4,2,1,43,0,0
107744,-135.135135135135,4,2,1,46,0,0
108026,-119.047619047619,4,2,1,50,0,0
108310,-119.047619047619,4,2,1,55,0,0
108592,-135.135135135135,4,2,1,60,0,0
108876,-135.135135135135,4,2,1,55,0,0
109158,-135.135135135135,4,2,1,50,0,0
109654,-135.135135135135,4,2,1,5,0,0
109725,-135.135135135135,4,2,1,50,0,0
110220,-135.135135135135,4,2,1,5,0,0
110291,-135.135135135135,4,2,1,50,0,0
110503,-135.135135135135,4,2,1,5,0,0
110574,-135.135135135135,4,2,1,50,0,0
110786,-135.135135135135,4,2,1,5,0,0
110857,-135.135135135135,4,2,1,50,0,0
111635,-135.135135135135,4,2,1,5,0,0
111706,-135.135135135135,4,2,1,50,0,0
111918,-135.135135135135,4,2,1,5,0,0
111989,-135.135135135135,4,2,1,50,0,0
112201,-135.135135135135,4,2,1,5,0,0
112272,-135.135135135135,4,2,1,50,0,0
113050,-135.135135135135,4,2,1,5,0,0
113121,-135.135135135135,4,2,1,50,0,0
113333,-135.135135135135,4,2,1,5,0,0
113404,-135.135135135135,4,2,1,50,0,0
113899,-135.135135135135,4,2,1,5,0,0
113970,-135.135135135135,4,2,1,50,0,0
114182,-135.135135135135,4,2,1,5,0,0
114253,-135.135135135135,4,2,1,50,0,0
114748,-135.135135135135,4,2,1,5,0,0
114819,-135.135135135135,4,2,1,50,0,0
115031,-135.135135135135,4,2,1,5,0,0
115102,-135.135135135135,4,2,1,50,0,0
115314,-135.135135135135,4,2,1,5,0,0
115385,-135.135135135135,4,2,1,50,0,0
116163,-135.135135135135,4,2,1,5,0,0
116234,-135.135135135135,4,2,1,50,0,0
116446,-135.135135135135,4,2,1,5,0,0
116517,-135.135135135135,4,2,1,50,0,0
116729,-135.135135135135,4,2,1,5,0,0
116800,-135.135135135135,4,2,1,50,0,0
117296,-135.135135135135,4,2,1,5,0,0
117366,-135.135135135135,4,2,1,50,0,0
117579,-135.135135135135,4,2,1,5,0,0
117649,-135.135135135135,4,2,1,50,0,0
118215,-227.272727272727,4,2,1,50,0,0
119277,-227.272727272727,4,2,1,5,0,0
119347,-185.185185185185,4,2,1,50,0,0
119701,-185.185185185185,4,2,1,5,0,0
119772,-185.185185185185,4,2,1,50,0,0
120196,-185.185185185185,4,2,2,50,0,0
120479,-185.185185185185,4,2,1,50,0,0
121258,-185.185185185185,4,2,1,5,0,0
121329,-185.185185185185,4,2,1,50,0,0
121611,-185.185185185185,4,2,1,50,0,0
122743,-185.185185185185,4,2,1,50,0,0
127201,-185.185185185185,4,2,1,5,0,0
127272,-156.25,4,2,2,60,0,0
129536,-135.135135135135,4,2,2,60,0,0
129819,-135.135135135135,4,2,1,60,0,0
130102,-135.135135135135,4,2,2,60,0,0
130668,-135.135135135135,4,2,1,60,0,0
131234,-119.047619047619,4,2,1,60,0,0
131729,-119.047619047619,4,2,1,5,0,0
131800,-185.185185185185,4,2,1,60,0,0
132932,-156.25,4,2,1,62,0,0
134064,-156.25,4,2,1,64,0,0
134347,-135.135135135135,4,2,1,64,0,0
135196,-135.135135135135,4,2,1,66,0,0
136329,-135.135135135135,4,2,1,68,0,0
136824,-135.135135135135,4,2,1,5,0,0
136894,-135.135135135135,4,2,1,68,0,0
137460,-119.047619047619,4,2,1,68,0,0
138592,-106.382978723404,4,2,1,70,0,0
138805,-106.382978723404,4,2,1,5,0,0
138876,-106.382978723404,4,2,2,70,0,0
139159,-106.382978723404,4,2,1,70,0,0
140291,-106.382978723404,4,2,1,30,0,0
140574,-106.382978723404,4,2,1,32,0,0
140857,-106.382978723404,4,2,1,35,0,0
149206,-96.153846153846,4,2,1,60,0,0
149560,-96.153846153846,4,2,1,5,0,0
149630,-227.272727272727,4,2,1,60,0,0
149843,-227.272727272727,4,2,1,5,0,0
149913,-74.6268656716418,4,2,2,85,0,1
149984,-74.6268656716418,4,2,1,85,0,1
154158,-119.047619047619,4,2,1,85,0,1
154442,-96.1538461538461,4,2,1,70,0,0
154654,-96.1538461538461,4,2,1,5,0,0
154725,-96.1538461538461,4,2,1,70,0,0
155008,-96.1538461538461,4,2,2,70,0,0
155574,-96.1538461538461,4,2,1,70,0,0
156635,-96.1538461538461,4,2,1,5,0,0
156706,-96.1538461538461,4,2,1,75,0,0
156989,-96.1538461538461,4,2,5,75,0,0
157272,-80.6451612903226,4,2,1,75,0,0
157555,-96.1538461538461,4,2,2,75,0,0
157838,-96.1538461538461,4,2,2,80,0,0
158970,-96.1538461538461,4,2,1,70,0,0
159536,-96.1538461538461,4,2,1,75,0,0
159819,-96.1538461538461,4,2,2,75,0,0
160102,-74.6268656716418,4,2,2,85,0,1
160173,-74.6268656716418,4,2,1,85,0,1
162083,-119.047619047619,4,2,1,85,0,1
162366,-74.6268656716418,4,2,1,85,0,1
163781,-80.6451612903226,4,2,1,85,0,1
164347,-119.047619047619,4,2,1,85,0,1
164630,-87.719298245614,4,2,1,85,0,1
166612,-119.047619047619,4,2,1,85,0,1
166895,-87.719298245614,4,2,1,85,0,1
168310,-119.047619047619,4,2,1,85,0,1
168593,-87.719298245614,4,2,1,85,0,1
168734,-87.719298245614,4,2,2,80,0,1
169159,-74.6268656716418,4,2,1,85,0,1
171140,-119.047619047619,4,2,1,85,0,1
171423,-74.6268656716418,4,2,1,85,0,1
172838,-87.719298245614,4,2,1,85,0,1
173404,-119.047619047619,4,2,1,85,0,1
173687,-96.1538461538461,4,2,1,70,0,0
173899,-96.1538461538461,4,2,1,5,0,0
173970,-96.1538461538461,4,2,1,70,0,0
174253,-96.1538461538461,4,2,2,70,0,0
174819,-106.382978723404,4,2,1,70,0,0
175881,-106.382978723404,4,2,1,5,0,0
175952,-106.382978723404,4,2,5,70,0,0
176729,-106.382978723404,4,2,5,5,0,0
176800,-106.382978723404,4,2,1,70,0,0
177013,-106.382978723404,4,2,1,5,0,0
177083,-106.382978723404,4,2,1,70,0,0
177296,-106.382978723404,4,2,1,5,0,0
177366,-106.382978723404,4,2,1,70,0,0
177932,-185.185185185184,4,2,1,70,0,0
178145,-185.185185185184,4,2,1,5,0,0
178215,-119.047619047618,4,2,1,70,0,0
178781,-119.047619047618,4,2,2,70,0,0
179347,-119.047619047618,4,2,1,70,0,0
180409,-119.047619047618,4,2,1,5,0,0
180479,-119.047619047618,4,2,1,70,0,0
181258,-119.047619047618,4,2,1,5,0,0
181329,-119.047619047618,4,2,1,70,0,0
181541,-119.047619047618,4,2,1,5,0,0
181612,-119.047619047618,4,2,1,70,0,0
181824,-119.047619047618,4,2,1,5,0,0
181895,-119.047619047618,4,2,1,70,0,0
182673,-185.185185185185,4,2,1,5,0,0
182743,-119.047619047619,4,2,1,70,0,0
183734,-119.047619047619,4,2,2,70,0,0
183876,-119.047619047619,4,2,1,70,0,0
184866,-119.047619047619,4,2,2,70,0,0
185008,-119.047619047619,4,2,1,70,0,0
185503,-119.047619047619,4,2,1,5,0,0
185574,-119.047619047619,4,2,1,70,0,0
185998,-135.135135135135,4,2,43,60,0,0
186423,-135.135135135135,4,2,44,60,0,0
187272,-135.135135135135,4,2,20,50,0,0
187413,-135.135135135135,4,2,21,35,0,0
187555,-135.135135135135,4,2,22,35,0,0
187696,-135.135135135135,4,2,23,40,0,0
187838,-135.135135135135,4,2,24,50,0,0
188121,-135.135135135135,4,2,23,40,0,0
188263,-135.135135135135,4,2,25,50,0,0
188404,-135.135135135135,4,2,26,35,0,0
188546,-135.135135135135,4,2,22,35,0,0
188687,-135.135135135135,4,2,25,50,0,0
188829,-135.135135135135,4,2,26,35,0,0
188970,-135.135135135135,4,2,25,50,0,0
189112,-135.135135135135,4,2,27,35,0,0
189253,-135.135135135135,4,2,28,40,0,0
189395,-135.135135135135,4,2,45,50,0,0
189536,-135.135135135135,4,2,1,50,0,0
189819,-135.135135135135,4,2,30,35,0,0
189961,-135.135135135135,4,2,31,35,0,0
190102,-135.135135135135,4,2,22,50,0,0
190244,-135.135135135135,4,2,30,35,0,0
190385,-135.135135135135,4,2,22,50,0,0
190527,-135.135135135135,4,2,26,40,0,0
190951,-135.135135135135,4,2,32,40,0,0
191376,-135.135135135135,4,2,31,40,0,0
191659,-135.135135135135,4,2,2,50,0,0
191800,-135.135135135135,4,2,20,50,0,0
191942,-135.135135135135,4,2,21,35,0,0
192083,-135.135135135135,4,2,22,35,0,0
192225,-135.135135135135,4,2,23,40,0,0
192366,-135.135135135135,4,2,24,50,0,0
192579,-135.135135135135,4,2,24,5,0,0
192649,-135.135135135135,4,2,23,40,0,0
192791,-135.135135135135,4,2,25,50,0,0
192932,-135.135135135135,4,2,26,35,0,0
193074,-135.135135135135,4,2,22,35,0,0
193215,-135.135135135135,4,2,25,50,0,0
193357,-135.135135135135,4,2,26,35,0,0
193498,-135.135135135135,4,2,25,50,0,0
193640,-135.135135135135,4,2,27,35,0,0
193781,-135.135135135135,4,2,28,40,0,0
193923,-135.135135135135,4,2,45,45,0,0
194064,-135.135135135135,4,2,33,50,0,0
194206,-135.135135135135,4,2,28,35,0,0
194347,-135.135135135135,4,2,27,35,0,0
194489,-135.135135135135,4,2,34,50,0,0
194630,-135.135135135135,4,2,28,35,0,0
194772,-135.135135135135,4,2,27,35,0,0
194913,-135.135135135135,4,2,29,50,0,0
195055,-135.135135135135,4,2,35,50,0,0
195479,-135.135135135135,4,2,1,50,0,0
196328,-119.047619047619,4,2,20,40,0,0
196470,-119.047619047619,4,2,21,25,0,0
196612,-119.047619047619,4,2,50,30,0,0
196753,-119.047619047619,4,2,51,35,0,0
196895,-119.047619047619,4,2,52,40,0,0
197036,-119.047619047619,4,2,50,30,0,0
197178,-119.047619047619,4,2,51,35,0,0
197319,-119.047619047619,4,2,53,40,0,0
197461,-119.047619047619,4,2,54,30,0,0
197602,-119.047619047619,4,2,50,35,0,0
197744,-119.047619047619,4,2,53,40,0,0
197885,-119.047619047619,4,2,54,30,0,0
198027,-119.047619047619,4,2,53,40,0,0
198168,-119.047619047619,4,2,55,30,0,0
198310,-119.047619047619,4,2,56,35,0,0
198451,-119.047619047619,4,2,57,40,0,0
198593,-119.047619047619,4,2,58,25,0,0
198734,-119.047619047619,4,2,59,25,0,0
198876,-119.047619047619,4,2,60,30,0,0
199017,-119.047619047619,4,2,61,35,0,0
199159,-119.047619047619,4,2,50,40,0,0
199300,-119.047619047619,4,2,62,30,0,0
199442,-119.047619047619,4,2,50,40,0,0
199583,-119.047619047619,4,2,54,35,0,0
199725,-119.047619047619,4,2,62,30,0,0
199866,-119.047619047619,4,2,54,40,0,0
200008,-119.047619047619,4,2,63,35,0,0
200149,-119.047619047619,4,2,59,30,0,0
200291,-119.047619047619,4,2,64,30,0,0
200432,-119.047619047619,4,2,61,40,0,0
200574,-119.047619047619,4,2,64,35,0,0
200715,-119.047619047619,4,2,65,30,0,0
200857,-119.047619047619,4,2,20,40,0,0
200998,-119.047619047619,4,2,21,25,0,0
201140,-119.047619047619,4,2,59,30,0,0
201281,-119.047619047619,4,2,62,35,0,0
201423,-119.047619047619,4,2,63,40,0,0
201564,-119.047619047619,4,2,59,25,0,0
201706,-119.047619047619,4,2,62,30,0,0
201847,-119.047619047619,4,2,61,40,0,0
201989,-119.047619047619,4,2,64,30,0,0
202130,-119.047619047619,4,2,59,35,0,0
202272,-119.047619047619,4,2,61,40,0,0
202413,-119.047619047619,4,2,64,30,0,0
202555,-119.047619047619,4,2,61,40,0,0
202696,-119.047619047619,4,2,66,30,0,0
202838,-119.047619047619,4,2,60,35,0,0
202979,-119.047619047619,4,2,50,40,0,0
203121,-119.047619047619,4,2,55,45,0,0
203263,-119.047619047619,4,2,60,40,0,0
203404,-119.047619047619,4,2,66,42,0,0
203546,-119.047619047619,4,2,51,44,0,0
203687,-119.047619047619,4,2,60,46,0,0
203829,-119.047619047619,4,2,66,48,0,0
203970,-119.047619047619,4,2,50,50,0,0
204112,-119.047619047619,4,2,67,55,0,0
204253,-119.047619047619,4,2,67,10,0,0
206517,-119.047619047619,4,2,67,10,0,0

[Colours]
Combo1 : 190,0,0
Combo2 : 191,191,255
Combo3 : 128,128,255
Combo4 : 255,128,128

[HitObjects]
459,280,480,5,10,1:2:0:0:
464,292,621,1,2,3:2:0:0:
376,219,763,5,2,3:2:0:0:
426,157,904,1,10,0:1:0:0:
488,202,1046,2,0,B|462:176|427:187|427:187|411:219|366:217,1,128.760003143555,2|2,0:0|0:0,0:0:0:0:
290,104,1470,38,0,P|319:117|350:123,1,64.3800015717774,2|2,1:2|0:0,0:0:0:0:
244,268,1753,1,2,0:0:0:0:
304,248,1895,2,0,P|272:254|243:267,1,64.3800015717774,2|2,0:0|0:0,0:0:0:0:
72,133,2178,6,0,P|126:160|126:222,1,128.760003143555,2|2,0:0|0:0,0:0:0:0:
63,260,2602,1,2,1:2:0:0:
200,375,2744,2,0,P|192:343|186:312,1,64.3800015717774,0|0,1:2|3:0,0:0:0:0:
125,222,3027,37,2,3:2:0:0:
121,237,3168,1,10,0:1:0:0:
200,375,3310,1,2,0:0:0:0:
263,343,3451,1,2,0:0:0:0:
241,275,3593,1,2,0:0:0:0:
369,115,3734,6,0,P|315:142|315:204,1,128.760003143555,2|0,1:2|3:2,0:0:0:0:
347,276,4088,1,0,3:2:0:0:
356,273,4159,2,0,P|386:282|415:297,1,64.3800015717774,10|0,0:0|3:0,0:0:0:0:
496,226,4371,37,0,3:2:0:0:
487,229,4442,2,0,P|456:219|427:204,2,64.3800015717774,10|10|0,0:0|1:1|0:0,0:0:0:0:
339,78,4866,1,0,0:0:0:0:
315,203,5008,6,0,P|332:142|339:78,1,128.760003143555,10|2,1:2|3:2,0:0:0:0:
448,39,5432,1,10,0:1:0:0:
503,1,5574,2,0,P|471:5|449:27,1,64.3800015717774,2|0,0:0|0:0,0:0:0:0:
267,140,5857,37,2,0:0:0:0:
315,202,5998,2,0,P|346:148|330:87,1,128.760003143555,2|2,1:2|0:0,0:0:0:0:
313,15,6423,2,0,P|282:22|260:46,1,64.3800015717774,2|2,0:0|0:0,0:0:0:0:
127,184,6706,5,2,0:0:0:0:
182,215,6847,2,0,P|156:195|126:183,1,64.3800015717774,10|10,3:2|0:3,0:0:0:0:
94,113,7130,1,10,0:3:0:0:
199,55,7272,38,0,P|136:67|94:114,1,128.760003143555,6|2,1:2|0:0,0:0:0:0:
39,166,7696,1,2,0:0:0:0:
94,113,7838,2,0,P|85:82|71:52,2,64.3800015717774,2|2|2,0:0|0:0|0:0,0:0:0:0:
182,215,8263,5,6,1:2:0:0:
269,149,8687,37,2,0:0:0:0:
211,42,8970,5,0,0:0:0:0:
226,38,9112,38,0,P|213:57|207:80,2,46.9800011469727,2|2|2,0:1|0:1|0:1,0:0:0:0:
129,148,9536,22,0,B|168:152|202:107|202:107|175:163|212:202,1,180.959998895508,6|2,1:2|3:2,0:0:0:0:
318,287,9961,1,8,0:0:0:0:
233,315,10102,2,0,B|265:302|265:302|288:301|288:301|317:287,1,90.4799994477539,2|2,1:2|1:2,0:0:0:0:
203,109,10385,1,2,3:2:0:0:
274,129,10527,1,10,0:0:0:0:
154,306,10668,38,0,P|125:272|134:230,1,90.4799994477539,0|10,3:2|0:0,0:0:0:0:
78,74,10951,1,2,1:2:0:0:
118,137,11093,1,2,3:1:0:0:
192,114,11234,1,2,3:2:0:0:
39,234,11376,5,10,0:0:0:0:
116,148,11517,2,0,L|107:192,1,45.239999723877,2|0,1:2|0:0,0:0:0:0:
161,321,11659,1,2,1:2:0:0:
158,314,11729,1,0,1:0:0:0:
154,306,11800,38,0,P|88:305|51:358,1,135.719999171631,2|0,1:1|0:0,0:0:0:0:
39,234,12083,1,2,3:2:0:0:
106,192,12225,1,10,0:0:0:0:
51,357,12366,2,0,B|42:314|42:314|45:315|45:315|36:272,1,90.4799994477539,2|2,3:2|1:2,0:0:0:0:
222,384,12649,5,2,3:2:0:0:
156,346,12791,2,0,P|168:327|188:317,1,45.239999723877,10|0,0:0|0:0,0:0:0:0:
297,204,12932,38,0,P|340:210|370:244,1,90.4799994477539,2|8,3:2|0:0,0:0:0:0:
170,118,13215,1,2,1:2:0:0:
187,236,13357,2,0,L|197:191,1,45.239999723877,2|0,0:1|0:0,0:0:0:0:
272,62,13498,5,10,0:0:0:0:
218,10,13640,1,2,0:0:0:0:
149,40,13781,1,2,3:1:0:0:
50,155,13923,1,2,3:1:0:0:
0,96,14064,38,0,B|66:85|72:135|67:130|73:187|140:182,1,180.959998895508,6|2,1:1|3:2,0:0:0:0:
253,267,14489,1,10,0:0:0:0:
300,209,14630,2,0,B|337:179|337:179|296:233,1,90.4799994477539,2|10,1:2|0:0,0:0:0:0:
198,323,14913,1,2,3:2:0:0:
279,384,15055,6,0,L|269:330,1,45.239999723877,2|0,1:2|0:0,0:0:0:0:
159,141,15196,2,0,P|182:178|225:186,1,90.4799994477539,0|8,3:2|0:0,0:0:0:0:
347,235,15479,2,0,P|328:224|306:218,1,45.239999723877,2|0,1:2|0:0,0:0:0:0:
460,120,15621,37,0,3:0:0:0:
448,127,15691,1,0,3:0:0:0:
436,133,15762,1,10,0:0:0:0:
337,79,15904,1,10,0:0:0:0:
424,251,16046,6,0,B|487:247|499:179|451:145|431:178|433:206,1,135.719999171631,10|0,1:3|0:0,0:0:0:0:
505,316,16329,22,0,B|454:329|416:257|416:257|410:254|410:254|438:308|403:353,1,219.239993309326,6|10,1:2|0:3,0:0:0:0:
397,354,16824,1,8,1:3:0:0:
397,354,16895,1,10,1:3:0:0:
274,282,17036,5,2,1:2:0:0:
189,344,17178,38,0,L|172:351,1,18.2699994424439,10|0,0:3|0:0,0:0:0:0:
279,278,17319,6,0,B|350:256|355:185|355:185|327:249|269:265,1,250.56,6|0,1:2|0:0,0:0:0:0:
206,327,18027,38,0,P|189:317|170:313,2,38.2800011682129,2|2|2,0:1|0:1|0:1,0:0:0:0:
262,381,18451,1,2,0:1:0:0:
146,289,18593,6,0,P|127:208|108:128,1,164.430004014404,2|0,0:0|0:0,0:0:0:0:
42,95,19159,38,0,P|17:83|4:58,2,55.68,2|2|2,0:1|0:1|0:1,0:0:0:0:
233,228,19583,6,0,B|271:160|362:152|430:219|350:268|300:214,1,250.56,2|0,0:0|0:0,0:0:0:0:
231,92,20291,38,0,L|241:37,1,55.68,0|0,1:2|0:0,0:0:0:0:
169,150,20574,5,2,0:0:0:0:
229,102,20715,1,2,0:0:0:0:
305,177,20857,6,0,L|265:164,1,40.8899993760681,10|0,0:0|0:0,0:0:0:0:
153,72,20998,1,2,1:2:0:0:
15,211,21140,38,0,L|54:198,1,40.8899993760681,10|0,0:0|0:0,0:0:0:0:
157,65,21281,1,10,1:1:0:0:
184,233,21564,5,10,1:1:0:0:
49,50,21847,38,0,B|54:7|106:3|106:3|63:40|82:101,1,163.559997504273,6|10,1:1|0:0,0:0:0:0:
190,210,22272,1,4,1:2:0:0:
263,176,22413,2,0,B|212:189|242:198|189:210,1,81.7799987521363,2|8,0:0|0:0,0:0:0:0:
102,343,22696,5,8,1:3:0:0:
41,301,22838,2,0,B|15:284|-1:259|-1:259|22:281|61:282,1,122.669998128204,2|0,1:2|0:0,0:0:0:0:
263,176,23121,22,0,B|283:110|232:69|232:69|266:124|247:176,1,222.72,6|8,1:2|0:0,0:0:0:0:
420,357,23970,1,0,0:0:0:0:
484,313,24112,2,0,P|447:262|385:252,1,128.760003143555,2|8,1:2|0:0,0:0:0:0:
249,167,24536,6,0,B|228:202|254:233|257:226|282:253|262:287,2,128.760003143555,0|10|0,1:2|0:0|3:2,0:0:0:0:
316,99,25173,21,0,3:0:0:0:
330,79,25244,1,0,3:0:0:0:
331,63,25314,1,0,3:0:0:0:
324,56,25385,2,0,P|302:79|300:111,1,64.3800015717774,2|2,1:2|0:0,0:0:0:0:
385,252,25668,22,0,P|431:264|467:295,1,96.5700023576661,0|0,1:2|0:0,0:0:0:0:
475,290,25951,1,8,0:0:0:0:
187,83,26234,38,0,P|156:92|133:117,2,64.3800015717774,2|0|0,1:2|1:2|0:0,0:0:0:0:
240,26,26659,1,8,0:0:0:0:
204,157,26800,6,0,B|244:149|263:185|256:185|272:218|311:212,2,128.760003143555,10|10|2,1:1|0:0|1:2,0:0:0:0:
0,310,27649,38,0,P|51:272|114:260,2,128.760003143555,6|0|8,1:2|1:2|0:0,0:0:0:0:
225,75,28498,1,2,0:0:0:0:
108,31,28640,6,0,P|161:65|224:74,1,128.760003143555,2|10,1:2|0:0,0:0:0:0:
277,131,29064,2,0,P|271:162|248:183,1,64.3800015717774,0|2,1:2|0:0,0:0:0:0:
426,49,29347,38,0,P|449:29|481:24,2,64.3800015717774,8|2|2,0:0|0:0|1:2,0:0:0:0:
368,101,29772,1,2,0:0:0:0:
428,149,29913,2,0,P|464:200|455:262,1,128.760003143555,2|0,1:2|1:2,0:0:0:0:
387,301,30338,1,2,0:0:0:0:
492,373,30479,2,0,P|440:336|376:327,2,128.760003143555,8|2|2,0:0|0:0|0:0,0:0:0:0:
302,266,31187,37,10,0:0:0:0:
249,277,31258,1,2,0:0:0:0:
231,324,31329,1,2,1:2:0:0:
251,357,31399,1,2,0:0:0:0:
279,365,31470,2,0,P|293:358|309:354,2,32.1900007858887,0|0|10,3:2|3:2|0:0,0:0:0:0:
376,293,31753,5,8,0:0:0:0:
191,224,31895,2,0,B|138:243|138:243|165:236|200:250,1,96.5700023576661,0|0,1:2|0:0,0:0:0:0:
177,243,32178,6,0,B|198:205|170:175|168:182|138:148|161:111,1,140.940003440918,6|0,1:2|1:2,0:0:0:0:
126,45,32744,1,8,0:0:0:0:
438,121,33027,37,2,0:0:0:0:
395,186,33168,2,0,P|349:196|304:210,1,93.9600022939454,2|8,1:2|0:0,0:0:0:0:
440,253,33593,1,0,1:2:0:0:
355,373,33876,6,0,P|346:328|375:293,1,93.9600022939454,10|2,0:0|0:0,0:0:0:0:
440,253,34300,1,2,0:0:0:0:
375,293,34442,38,0,B|317:306|352:320|291:332,2,93.9600022939454,2|0|8,1:2|1:2|0:0,0:0:0:0:
208,170,35291,1,2,0:0:0:0:
159,228,35432,1,0,1:2:0:0:
211,286,35574,2,0,P|201:239|192:193,1,93.9600022939454,2|0,0:0|1:2,0:0:0:0:
71,106,35998,5,2,0:0:0:0:
127,51,36140,2,0,B|159:39|180:11|180:11|147:56|166:110,1,164.430004014404,14|0,0:1|0:0,0:0:0:0:
208,170,36706,38,0,P|261:174|294:132,1,111.36,2|8,1:2|0:0,0:0:0:0:
247,74,37130,1,2,0:0:0:0:
139,213,37272,1,2,3:2:0:0:
120,218,37342,1,0,3:0:0:0:
101,224,37413,1,0,3:0:0:0:
83,230,37484,1,0,3:0:0:0:
64,235,37555,1,0,3:0:0:0:
163,103,37696,1,2,0:0:0:0:
206,252,37838,22,0,P|259:247|292:289,1,111.36,2|8,1:2|0:0,0:0:0:0:
256,353,38262,1,2,0:0:0:0:
405,201,38404,1,2,3:2:0:0:
401,214,38474,1,0,3:0:0:0:
398,228,38545,1,0,3:0:0:0:
395,241,38616,1,0,3:0:0:0:
391,255,38687,1,0,3:0:0:0:
433,384,38829,1,2,0:0:0:0:
510,291,38970,22,0,B|490:219|490:219|497:253|485:276,1,128.760003143555,2|0,1:2|3:0,0:0:0:0:
387,120,39395,1,2,0:0:0:0:
295,169,39536,22,0,B|315:97|315:97|308:131|320:154,1,128.760003143555,2|0,1:2|3:0,0:0:0:0:
473,0,39961,1,2,3:2:0:0:
478,3,40031,1,0,3:0:0:0:
483,6,40102,22,0,B|475:31|475:31|477:46|477:46|469:67,1,64.3800015717774,2|0,1:2|0:0,0:0:0:0:
492,136,40385,1,8,0:0:0:0:
324,69,40527,1,2,0:0:0:0:
168,245,40668,6,0,B|240:247|285:180|285:180|292:176|292:176|251:237|290:294,1,255.779992194214,10|0,1:3|0:0,0:0:0:0:
380,314,41234,38,0,P|385:268|352:237,2,93.9600022939454,6|0|0,1:2|1:2|1:2,0:0:0:0:
297,170,42083,1,2,1:2:0:0:
470,278,42366,2,0,B|442:261|416:278|416:278|409:308|371:315,1,111.36,10|8,1:3|1:3,0:0:0:0:
485,182,42932,1,10,1:3:0:0:
380,314,43215,5,10,1:3:0:0:
377,300,43285,1,8,1:3:0:0:
374,286,43356,1,8,1:3:0:0:
372,273,43427,1,8,1:3:0:0:
369,259,43498,1,6,1:2:0:0:
271,123,43781,38,0,B|257:88|211:90|211:90|251:100|265:136,1,128.760003143555,2|2,1:2|1:2,0:0:0:0:
378,2,44347,1,2,1:2:0:0:
500,139,44630,6,0,P|473:121|442:111,1,64.3800015717774,10|0,1:3|0:0,0:0:0:0:
305,18,44913,2,0,P|273:22|244:35,1,64.3800015717774,8|2,1:3|0:0,0:0:0:0:
92,173,45196,38,0,P|62:164|45:137,1,64.3800015717774,10|0,0:0|0:0,0:0:0:0:
33,63,45432,5,8,1:3:0:0:
48,59,45503,37,8,1:3:0:0:
62,65,45574,5,8,1:3:0:0:
213,213,45763,38,0,B|254:159|317:178|317:178|253:181|220:225,1,225.330005501221,6|0,1:2|0:0,0:0:0:0:
182,286,46329,2,0,B|190:327|199:303|208:343,1,64.3800015717774,0|0,1:2|0:0,0:0:0:0:
340,188,46612,2,0,B|331:228|322:204|314:245,1,64.3800015717774,2|0,1:2|0:0,0:0:0:0:
187,125,46895,6,0,P|212:99|248:96,1,73.0799977697755,10|0,1:3|0:0,0:0:0:0:
393,256,47178,2,0,P|417:281|453:285,1,73.0799977697755,8|0,1:3|0:0,0:0:0:0:
508,93,47461,38,0,P|479:114|444:122,1,73.0799977697755,10|0,1:3|0:0,0:0:0:0:
238,230,47744,2,0,P|202:226|171:208,1,73.0799977697755,8|0,1:3|0:0,0:0:0:0:
365,8,48027,6,0,B|390:65|344:89|347:83|307:104|326:153,1,163.559997504273,6|0,1:2|3:0,0:0:0:0:
468,239,48380,1,0,3:0:0:0:
419,206,48450,1,0,3:0:0:0:
367,233,48521,1,0,3:0:0:0:
355,282,48593,37,8,1:3:0:0:
335,312,48663,1,8,1:3:0:0:
299,319,48734,1,8,1:3:0:0:
266,303,48805,1,8,1:3:0:0:
256,266,48876,6,0,P|271:254|290:247,1,40.8899993760681,8|0,1:3|0:0,0:0:0:0:
502,338,49017,37,10,0:0:0:0:
157,63,49442,6,0,P|177:79|199:88,1,49.5899993946533,0|0,3:0|3:0,0:0:0:0:
352,6,49583,2,0,P|329:15|310:30,1,49.5899993946533,0|0,3:0|3:0,0:0:0:0:
275,166,49725,37,2,3:2:0:0:
313,151,49795,1,0,3:0:0:0:
351,166,49866,1,0,3:0:0:0:
373,200,49937,1,0,3:0:0:0:
448,219,50008,5,2,3:2:0:0:
500,207,50079,1,0,3:0:0:0:
512,153,50149,1,0,3:0:0:0:
481,108,50220,1,0,3:0:0:0:
410,119,50291,6,0,B|366:119|340:66|340:66|358:103|340:140,1,161.819993580139,6|0,1:2|0:0,0:0:0:0:
275,166,50574,2,0,B|284:156|284:156|335:172|335:172|372:226|312:261,1,161.819993580139,8|0,0:0|0:0,0:0:0:0:
432,384,50857,1,0,1:2:0:0:
322,254,50998,1,0,1:2:0:0:
210,384,51140,6,0,B|279:366|240:358|306:339,1,107.879995720093,10|0,0:0|1:2,0:0:0:0:
177,238,51423,1,0,0:0:0:0:
247,267,51564,1,0,1:2:0:0:
459,149,51706,38,0,B|421:145|403:111|403:111|396:109|396:109|428:159|398:208,1,161.819993580139,8|0,0:0|0:0,0:0:0:0:
335,158,51989,1,2,1:2:0:0:
482,62,52130,1,0,1:2:0:0:
299,34,52272,6,0,B|323:124|323:124|313:85|341:56,1,161.819993580139,10|0,0:0|0:0,0:0:0:0:
337,59,52555,2,0,B|296:47|268:84|268:84|259:133|209:136,1,161.819993580139,2|0,1:2|0:0,0:0:0:0:
58,72,52838,1,8,0:0:0:0:
212,135,52979,1,2,0:0:0:0:
88,246,53121,37,0,1:2:0:0:
112,172,53262,1,0,1:2:0:0:
196,301,53404,6,0,L|183:248,1,53.9399978600465,10|0,0:0|0:0,0:0:0:0:
125,384,53545,38,0,P|200:315|292:357,1,215.759991440186,4|0,1:2|1:2,0:0:0:0:
425,227,53970,6,0,B|467:222|486:174|486:174|455:212|422:212,1,161.819993580139,10|0,0:0|0:0,0:0:0:0:
353,196,54253,1,2,1:2:0:0:
200,129,54394,1,0,1:2:0:0:
130,153,54536,38,0,P|91:189|103:240,1,109.619996654663,10|0,0:0|0:0,0:0:0:0:
178,312,54819,22,0,B|135:311|107:253|107:253|123:323|75:367,1,215.759991440186,6|8,1:2|0:0,0:0:0:0:
155,384,55243,1,0,0:0:0:0:
35,292,55385,1,0,1:2:0:0:
185,232,55526,1,0,1:2:0:0:
130,153,55668,38,0,L|116:204,1,53.9399978600465,10|0,0:0|0:0,0:0:0:0:
284,348,55809,6,0,B|349:356|353:254|230:243|203:343,1,215.759991440186,2|0,1:2|1:2,0:0:0:0:
39,203,56234,1,8,0:0:0:0:
108,233,56375,1,0,0:0:0:0:
272,76,56517,1,2,1:2:0:0:
202,106,56658,1,0,1:2:0:0:
5,39,56800,38,0,B|70:62|70:62|41:57|19:68,1,109.619996654663,10|0,0:0|0:0,0:0:0:0:
145,160,57083,6,0,B|155:160|164:168|164:168|218:156|219:73|157:63,1,161.819993580139,2|0,1:2|0:0,0:0:0:0:
74,142,57366,2,0,B|64:142|55:134|55:134|1:146|0:229|62:239,1,161.819993580139,8|0,0:0|0:0,0:0:0:0:
69,309,57649,1,8,0:0:0:0:
100,302,57720,1,0,1:0:0:0:
120,276,57790,1,8,1:3:0:0:
250,153,57932,1,8,0:0:0:0:
237,360,58074,38,0,B|255:311|216:290|219:296|173:272|198:215,1,161.819993580139,6|0,1:2|0:0,0:0:0:0:
145,160,58357,1,0,1:2:0:0:
279,240,58498,6,0,B|333:255|302:261|354:276,1,83.52,8|0,0:0|0:0,0:0:0:0:
371,271,58781,1,2,1:2:0:0:
470,44,58922,37,0,3:0:0:0:
415,47,58994,1,0,3:0:0:0:
399,99,59064,1,2,3:2:0:0:
450,160,59135,5,0,3:0:0:0:
457,196,59206,1,0,3:0:0:0:
435,225,59277,1,0,3:0:0:0:
371,271,59347,22,0,B|340:278|306:290|306:290|236:249|304:206,1,161.819993580139,6|0,1:2|0:0,0:0:0:0:
308,198,59630,2,0,B|329:234|300:270|300:270|255:291|264:340,1,161.819993580139,8|0,0:0|0:0,0:0:0:0:
320,384,59913,1,0,1:2:0:0:
199,230,60055,1,0,1:2:0:0:
350,124,60196,6,0,B|316:115|316:115|281:121|281:121|245:112,1,107.879995720093,10|0,0:0|1:2,0:0:0:0:
108,43,60479,1,0,0:0:0:0:
171,1,60621,2,0,P|183:24|184:51,1,53.9399978600465,0|0,1:2|0:0,0:0:0:0:
95,184,60762,38,0,B|181:157|181:157|135:173|128:209,1,161.819993580139,8|0,0:0|0:0,0:0:0:0:
199,230,61045,1,2,1:2:0:0:
36,130,61187,1,0,1:2:0:0:
180,158,61328,6,0,B|127:158|122:202|126:197|120:249|58:246,1,161.819993580139,10|0,0:0|0:0,0:0:0:0:
30,239,61611,2,0,B|71:232|94:272|94:272|97:321|146:330,1,161.819993580139,2|0,1:2|0:0,0:0:0:0:
217,307,61894,1,8,0:0:0:0:
45,367,62036,38,0,L|95:347,2,53.9399978600465,2|0|0,0:0|0:0|1:2,0:0:0:0:
262,186,62319,1,2,1:2:0:0:
186,179,62460,2,0,P|186:205|198:229,1,53.9399978600465,10|0,0:0|0:0,0:0:0:0:
320,384,62602,6,0,P|376:296|338:199,1,215.759991440186,4|0,1:2|1:2,0:0:0:0:
180,49,63026,2,0,B|165:78|190:97|190:97|237:112,1,99.1799987893067,10|0,0:0|0:0,0:0:0:0:
116,212,63309,1,2,1:2:0:0:
186,179,63451,1,0,1:2:0:0:
350,291,63592,38,0,B|282:271|322:263|251:243,1,109.619996654663,10|0,0:0|0:0,0:0:0:0:
240,239,63876,38,0,P|305:222|415:195,1,180.959998895508,6|8,1:2|0:0,0:0:0:0:
291,70,64441,1,2,1:3:0:0:
295,84,64583,1,0,1:2:0:0:
259,151,64724,37,2,0:3:0:0:
286,58,64866,1,8,0:0:0:0:
331,208,65007,2,0,P|342:129|290:69,1,163.559997504273,2|8,1:2|0:0,0:0:0:0:
151,303,65574,6,0,P|182:277|222:272,1,81.7799987521363,0|0,1:2|1:2,0:0:0:0:
104,243,65857,2,0,L|223:272,1,122.669998128204,10|0,0:0|0:0,0:0:0:0:
276,326,66140,38,0,P|322:289|324:230,1,122.669998128204,6|0,1:2|0:0,0:0:0:0:
312,155,66423,1,10,0:0:0:0:
281,162,66494,1,2,0:0:0:0:
261,188,66564,1,2,0:0:0:0:
208,64,66706,6,0,B|170:64|147:30|147:30|161:59|147:88,1,122.669998128204,6|0,1:2|0:0,0:0:0:0:
84,113,66989,2,0,B|131:102|131:102|187:132|142:179,1,122.669998128204,10|0,0:0|0:0,0:0:0:0:
141,191,67272,38,0,B|120:157|147:136|145:141|176:117|150:78,1,122.669998128204,6|0,1:2|0:0,0:0:0:0:
96,29,67555,1,8,0:0:0:0:
146,211,67696,1,8,0:0:0:0:
84,113,67838,5,2,1:2:0:0:
160,128,67979,1,0,1:0:0:0:
6,251,68121,38,0,B|44:239|44:239|48:240|48:240|73:232,1,70.470001720459,8|0,0:0|0:0,0:0:0:0:
146,211,68404,6,0,P|193:262|172:328,1,146.159995539551,6|8,1:2|0:0,0:0:0:0:
374,83,68970,1,2,1:3:0:0:
301,61,69111,1,0,1:2:0:0:
373,65,69253,37,2,0:3:0:0:
270,134,69394,1,8,0:0:0:0:
402,226,69536,6,0,L|373:82,1,146.159995539551,0|8,1:2|0:0,0:0:0:0:
241,346,70102,1,0,1:2:0:0:
314,321,70243,1,0,1:2:0:0:
199,242,70385,2,0,P|176:289|204:333,1,109.619996654663,10|0,0:0|0:0,0:0:0:0:
241,346,70668,38,0,P|168:352|102:383,1,146.159995539551,6|8,1:2|0:0,0:0:0:0:
301,61,71234,2,0,L|415:87,1,109.619996654663,6|0,1:2|0:0,0:0:0:0:
429,92,71517,2,0,P|379:106|373:157,1,109.619996654663,10|0,0:0|0:0,0:0:0:0:
373,157,71800,2,0,P|352:204|388:241,1,109.619996654663,6|0,1:2|0:0,0:0:0:0:
462,217,72083,5,10,0:0:0:0:
276,320,72224,1,8,0:0:0:0:
323,240,72366,37,2,1:2:0:0:
393,269,72507,1,0,1:2:0:0:
303,378,72649,6,0,P|278:353|275:319,1,70.470001720459,8|0,0:0|0:0,0:0:0:0:
187,276,72932,38,0,P|249:240|322:239,1,146.159995539551,2|10,1:2|0:0,0:0:0:0:
140,45,73498,1,2,3:2:0:0:
209,70,73640,2,0,P|229:99|226:135,1,73.0799977697755,8|2,0:0|0:0,0:0:0:0:
317,0,73923,1,0,3:0:0:0:
312,11,73993,1,0,3:0:0:0:
307,22,74064,1,2,1:2:0:0:
239,213,74347,6,0,L|208:69,1,146.159995539551,10|2,0:0|1:2,0:0:0:0:
140,45,74772,1,8,0:0:0:0:
289,94,74913,1,2,0:0:0:0:
215,157,75055,1,0,3:0:0:0:
220,146,75126,1,0,3:0:0:0:
225,135,75196,1,2,1:2:0:0:
343,340,75479,38,0,P|292:289|221:287,1,146.159995539551,14|8,0:0|0:0,0:0:0:0:
168,347,75904,1,8,1:3:0:0:
311,259,76045,1,10,0:0:0:0:
161,353,76187,6,0,B|85:391|22:307|89:252|120:297,1,193.140004715332,6|2,1:2|0:0,0:0:0:0:
387,33,77460,37,2,1:2:0:0:
392,21,77601,1,2,0:0:0:0:
304,94,77743,5,2,1:2:0:0:
354,156,77884,1,2,0:0:0:0:
416,111,78026,2,0,B|390:137|355:126|355:126|339:94|294:96,1,128.760003143555,10|2,0:0|3:2,0:0:0:0:
221,187,78451,37,10,1:1:0:0:
163,212,78592,2,0,P|189:193|220:186,1,64.3800015717774,2|2,0:0|0:0,0:0:0:0:
111,63,78875,2,0,P|137:81|168:88,1,64.3800015717774,2|2,1:2|0:0,0:0:0:0:
26,189,79158,1,2,3:2:0:0:
60,123,79300,2,0,P|86:140|98:170,1,64.3800015717774,10|2,0:0|3:2,0:0:0:0:
159,287,79583,1,2,3:2:0:0:
155,296,79654,1,0,3:2:0:0:
151,305,79724,6,0,B|108:296|97:332|101:328|89:369|39:358,1,128.760003143555,0|2,1:2|1:2,0:0:0:0:
206,214,80149,1,2,0:0:0:0:
258,271,80290,2,0,P|241:298|234:329,1,64.3800015717774,10|2,0:0|0:0,0:0:0:0:
353,167,80574,37,2,3:2:0:0:
297,137,80715,2,0,P|327:146|352:166,1,64.3800015717774,10|0,1:1|0:0,0:0:0:0:
453,268,80998,1,0,3:0:0:0:
462,268,81069,1,0,3:0:0:0:
471,270,81140,2,0,P|408:285|348:307,1,128.760003143555,10|8,0:0|0:0,0:0:0:0:
451,136,81564,1,2,1:2:0:0:
433,195,81706,2,0,P|449:167|450:135,1,64.3800015717774,8|0,0:0|0:0,0:0:0:0:
346,0,81989,5,8,0:0:0:0:
285,48,82130,1,8,0:0:0:0:
322,118,82272,38,0,B|359:123|392:86|392:86|374:108|375:135,1,128.760003143555,6|10,1:2|0:0,0:0:0:0:
507,39,82696,1,2,1:2:0:0:
437,13,82838,1,2,3:2:0:0:
511,115,82979,6,0,P|480:123|450:135,1,64.3800015717774,10|2,1:1|0:0,0:0:0:0:
289,260,83404,1,2,0:0:0:0:
219,286,83545,2,0,P|193:267|182:237,1,64.3800015717774,2|2,0:0|0:0,0:0:0:0:
100,124,83828,1,10,0:0:0:0:
149,62,83970,2,0,P|180:57|211:47,1,64.3800015717774,10|8,0:3|0:3,0:0:0:0:
27,185,84253,38,0,B|61:187|91:146|91:146|73:197|105:234,1,167.04,6|2,1:2|0:0,0:0:0:0:
100,124,84819,1,2,0:0:0:0:
358,81,85102,5,2,0:0:0:0:
461,144,85243,2,0,B|408:151|370:100|370:100|398:139|374:184,1,187.920004587891,6|0,1:2|0:0,0:0:0:0:
450,59,85951,2,0,P|478:41|489:16,2,55.68,2|2|2,0:1|0:1|0:1,0:0:0:0:
358,81,86375,37,2,0:1:0:0:
377,177,86517,6,0,P|411:244|425:320,1,153.120004672852,2|0,0:0|0:0,0:0:0:0:
171,120,87507,38,0,B|104:108|92:44|92:44|124:99|178:107,1,211.410005161377,2|0,0:0|0:0,0:0:0:0:
246,120,88215,2,0,B|280:108|271:123|309:110,1,64.3800015717774,0|2,1:2|0:0,0:0:0:0:
229,311,88498,5,2,0:0:0:0:
176,254,88640,1,2,0:0:0:0:
213,188,88781,6,0,P|233:191|252:198,1,40.8899993760681,10|0,0:0|0:0,0:0:0:0:
303,257,88923,1,2,1:2:0:0:
454,115,89064,38,0,P|435:124|416:129,1,40.8899993760681,10|0,0:0|0:0,0:0:0:0:
301,265,89206,1,10,1:1:0:0:
233,107,89489,5,10,1:1:0:0:
408,18,89772,38,0,B|357:12|338:64|338:64|383:84|385:143,1,163.559997504273,6|10,1:1|0:0,0:0:0:0:
305,246,90196,1,4,1:2:0:0:
382,223,90338,2,0,B|327:228|356:241|304:247,1,81.7799987521363,2|8,0:0|0:0,0:0:0:0:
452,348,90621,5,8,1:3:0:0:
353,383,90762,2,0,P|392:339|451:347,1,122.669998128204,2|0,1:2|0:0,0:0:0:0:
198,193,91045,22,0,B|253:146|334:170|371:250|285:266|260:203,1,222.72,6|8,1:2|0:0,0:0:0:0:
101,38,91894,1,2,0:0:0:0:
33,76,92036,2,0,P|0:127|29:181,1,128.760003143555,2|8,1:2|0:0,0:0:0:0:
153,238,92460,6,0,P|89:238|36:272,2,128.760003143555,0|10|0,1:2|0:0|3:2,0:0:0:0:
239,194,93097,21,0,3:0:0:0:
259,180,93168,1,0,3:0:0:0:
265,165,93238,1,0,3:0:0:0:
261,156,93309,2,0,P|232:169|218:198,1,64.3800015717774,2|2,1:2|0:0,0:0:0:0:
267,334,93592,22,0,P|302:365|349:362,1,96.5700023576661,0|0,1:2|0:0,0:0:0:0:
367,369,93875,1,8,0:0:0:0:
479,82,94158,38,0,P|449:90|424:111,2,64.3800015717774,2|0|0,1:2|1:2|0:0,0:0:0:0:
488,157,94583,1,8,0:0:0:0:
373,33,94724,2,0,P|328:77|330:139,2,128.760003143555,10|10|2,1:1|0:0|1:2,0:0:0:0:
243,281,95574,6,0,P|297:248|361:253,2,128.760003143555,6|0|8,1:2|1:2|0:0,0:0:0:0:
90,112,96423,1,2,0:0:0:0:
165,24,96564,2,0,P|109:52|89:111,1,128.760003143555,2|10,1:2|0:0,0:0:0:0:
34,171,96989,2,0,P|47:199|74:216,1,64.3800015717774,0|2,1:2|0:0,0:0:0:0:
203,345,97272,38,0,P|229:328|261:322,2,64.3800015717774,8|2|2,0:0|0:0|1:2,0:0:0:0:
74,216,97696,1,2,0:0:0:0:
77,210,97767,1,2,0:0:0:0:
81,204,97838,2,0,P|124:201|162:281,1,128.760003143555,2|0,1:2|1:2,0:0:0:0:
105,318,98262,1,2,0:0:0:0:
268,185,98404,6,0,P|262:216|245:243,1,64.3800015717774,8|0,0:0|0:0,0:0:0:0:
385,353,98687,1,2,0:0:0:0:
313,319,98828,1,0,1:2:0:0:
451,264,98970,21,2,0:0:0:0:
388,276,99064,5,2,0:0:0:0:
368,337,99159,37,2,1:2:0:0:
316,367,99253,5,2,0:0:0:0:
269,341,99347,37,2,0:0:0:0:
258,311,99442,5,2,0:0:0:0:
271,290,99536,6,0,B|324:280|334:324|330:320|339:358|384:353,1,140.940003440918,12|8,0:0|0:3,0:0:0:0:
168,98,100102,38,0,B|199:226|199:226|187:175|205:128,1,229.680007009278,6|2,1:2|0:0,0:0:0:0:
83,348,101517,6,0,L|63:341,3,19.1400005841065,0|0|0|0,3:0|3:0|3:0|3:0,0:0:0:0:
149,316,101800,1,2,0:3:0:0:
320,250,102083,37,2,0:0:0:0:
491,176,102366,2,0,B|458:140|408:151|388:196|388:196|390:237|355:264|314:248,1,229.680007009278,6|2,1:2|0:0,0:0:0:0:
151,15,103781,5,8,0:3:0:0:
115,82,104064,2,0,P|133:114|169:124,1,76.5600023364259,2|0,0:0|1:2,0:0:0:0:
273,204,104489,1,0,1:2:0:0:
395,92,104630,38,0,P|368:54|323:44,2,93.9600022939454,6|0|2,1:2|0:0|0:0,0:0:0:0:
314,19,105479,1,0,0:0:0:0:
418,110,105762,2,0,B|398:160|425:151|406:201,1,93.9600022939454,2|0,0:0|0:0,0:0:0:0:
501,355,106328,5,2,0:0:0:0:
402,219,106611,37,2,0:0:0:0:
135,250,106894,6,0,P|161:242|185:227,1,55.68,2|0,0:0|0:0,0:0:0:0:
324,344,107177,2,0,P|297:337|275:320,1,55.68
327,185,107460,38,0,P|353:201|364:231,1,64.3800015717774,0|0,1:2|0:0,0:0:0:0:
192,382,107743,2,0,L|203:318,1,64.3800015717774,0|0,1:2|0:0,0:0:0:0:
118,100,108026,6,0,P|88:119|82:154,1,73.0799977697755,8|0,1:2|0:0,0:0:0:0:
258,264,108309,2,0,L|245:192,1,73.0799977697755,8|0,1:2|0:0,0:0:0:0:
316,30,108592,38,0,B|282:15|270:-4|270:-4|283:19|278:49,1,96.5700023576661,0|0,1:2|0:0,0:0:0:0:
221,86,108875,1,8,1:3:0:0:
260,21,109017,1,8,1:3:0:0:
351,177,109158,6,0,B|398:213|478:168|478:168|433:194|429:239,1,225.330005501221,6|0,1:2|0:0,0:0:0:0:
507,242,109724,1,8,0:0:0:0:
182,21,110007,38,0,P|150:39|154:101,1,96.5700023576661,2|0,1:2|0:0,0:0:0:0:
148,94,110290,2,0,P|102:104|87:148,1,96.5700023576661,2|0,0:0|0:0,0:0:0:0:
32,195,110574,2,0,P|42:241|86:256,1,96.5700023576661,2|0,1:2|0:0,0:0:0:0:
147,213,110857,1,10,0:0:0:0:
301,338,111140,6,0,P|312:348|327:354,3,32.1900007858887,2|0|0|0,3:2|3:2|3:2|3:2,0:0:0:0:
224,342,111423,2,0,P|269:327|297:289,1,96.5700023576661,2|0,1:2|0:0,0:0:0:0:
360,243,111706,2,0,P|323:213|309:167,1,96.5700023576661,0|0,1:2|0:0,0:0:0:0:
253,116,111989,2,0,B|272:64|244:73|265:21,1,96.5700023576661,8|0,0:0|0:0,0:0:0:0:
128,199,112272,2,0,P|183:172|237:203,1,128.760003143555,2|0,1:2|0:0,0:0:0:0:
419,384,112838,38,0,B|438:354|470:359|470:359|438:365|425:389,1,96.5700023576661,2|0,1:2|0:0,0:0:0:0:
381,312,113121,2,0,B|361:282|329:287|329:287|361:293|374:317,1,96.5700023576661,10|0,0:0|0:0,0:0:0:0:
452,265,113404,1,2,3:2:0:0:
314,199,113545,1,0,3:2:0:0:
309,194,113616,1,0,3:2:0:0:
306,194,113687,6,0,P|276:158|292:114,1,96.5700023576661,2|0,1:2|0:0,0:0:0:0:
291,114,113970,2,0,P|247:97|239:52,1,96.5700023576661,0|0,1:2|0:0,0:0:0:0:
291,1,114253,1,8,0:0:0:0:
508,159,114536,38,0,P|460:161|425:192,1,96.5700023576661,2|0,1:2|0:0,0:0:0:0:
466,255,114819,2,0,P|430:223|383:221,1,96.5700023576661,2|0,0:0|0:0,0:0:0:0:
371,300,115102,2,0,P|368:252|336:217,1,96.5700023576661,2|0,1:2|0:0,0:0:0:0:
265,203,115385,1,10,0:0:0:0:
79,116,115668,1,2,3:2:0:0:
179,27,115809,1,0,3:2:0:0:
182,26,115880,1,0,3:2:0:0:
185,25,115951,6,0,P|224:50|224:96,1,96.5700023576661,2|0,1:2|0:0,0:0:0:0:
273,152,116234,2,0,B|245:201|274:195|249:244,1,96.5700023576661,0|0,1:2|0:0,0:0:0:0:
294,313,116517,2,0,P|254:338|255:384,1,96.5700023576661,8|0,0:0|0:0,0:0:0:0:
294,313,116800,1,0,1:2:0:0:
110,196,116941,1,0,0:0:0:0:
46,261,117083,38,0,P|88:238|135:231,1,96.5700023576661,2|0,3:2|0:0,0:0:0:0:
188,292,117366,2,0,P|233:286|249:243,1,96.5700023576661,0|0,1:2|0:0,0:0:0:0:
284,178,117649,1,12,0:2:0:0:
188,292,117932,1,0,3:0:0:0:
85,80,118215,6,0,B|125:36|185:49|210:104|210:104|207:154|250:187|300:167,1,287.100008761597,4|0,1:2|0:0,0:0:0:0:
382,100,119347,38,0,B|424:108|424:108|465:157|412:172,1,117.450002867432,4|0,1:2|0:0,0:0:0:0:
409,173,119772,1,8,0:3:0:0:
303,36,120196,5,8,0:3:0:0:
171,274,120479,38,0,B|234:296|290:227|290:227|305:219|305:219|265:263|287:317,1,258.39000630835,4|0,1:2|0:0,0:0:0:0:
352,277,121329,1,0,3:2:0:0:
362,281,121470,1,0,3:2:0:0:
496,116,121611,6,0,B|458:58|380:74|380:74|409:97|406:137,1,187.920004587891,4|8,1:2|1:3,0:0:0:0:
159,210,122461,37,0,3:2:0:0:
136,222,122602,1,0,3:2:0:0:
64,186,122743,6,0,B|90:157|129:166|145:201|145:201|143:234|171:255|204:243,1,187.920004587891,6|8,1:2|0:0,0:0:0:0:
357,61,123592,1,2,0:0:0:0:
307,119,123734,2,0,P|319:164|329:210,1,93.9600022939454,2|8,1:2|0:0,0:0:0:0:
486,257,124158,2,0,P|473:211|463:165,1,93.9600022939454,0|10,1:2|0:0,0:0:0:0:
338,358,124724,1,2,0:0:0:0:
358,348,124866,1,2,0:0:0:0:
451,356,125007,38,0,P|406:342|359:334,1,93.9600022939454,2|0,1:2|1:2,0:0:0:0:
238,188,125574,2,0,P|282:201|329:209,1,93.9600022939454,8|2,0:0|0:0,0:0:0:0:
202,323,125998,1,0,1:2:0:0:
252,377,126140,2,0,P|267:359|274:337,1,46.9800011469727,2|8,0:0|0:0,0:0:0:0:
167,218,126423,1,0,1:2:0:0:
349,110,126706,6,0,P|270:100|216:159,1,164.430004014404,14|0,0:1|0:0,0:0:0:0:
167,218,127272,6,0,B|103:232|137:247|66:263,1,111.36,2|8,1:2|0:0,0:0:0:0:
141,139,127696,1,2,0:0:0:0:
238,266,127838,1,2,3:2:0:0:
257,271,127909,1,0,3:0:0:0:
275,277,127980,1,0,3:0:0:0:
294,283,128051,1,0,3:0:0:0:
313,288,128121,1,0,3:0:0:0:
229,384,128262,1,2,0:0:0:0:
379,204,128404,22,0,P|422:234|419:287,1,111.36,2|8,1:2|0:0,0:0:0:0:
431,362,128828,1,2,0:0:0:0:
302,203,128970,1,2,3:2:0:0:
306,189,129041,1,0,3:0:0:0:
309,176,129112,1,0,3:0:0:0:
312,162,129183,1,0,3:0:0:0:
316,149,129253,1,0,3:0:0:0:
263,9,129394,1,2,0:0:0:0:
414,117,129536,22,0,B|490:137|490:137|459:126|445:94,1,128.760003143555,2|0,1:2|3:0,0:0:0:0:
413,42,129960,1,2,0:0:0:0:
212,199,130102,22,0,B|136:219|136:219|167:208|181:176,1,128.760003143555,2|0,1:2|3:0,0:0:0:0:
286,75,130526,1,2,3:2:0:0:
291,78,130596,1,0,3:0:0:0:
296,81,130667,22,0,B|288:106|288:106|290:121|290:121|282:142,1,64.3800015717774,2|0,1:2|0:0,0:0:0:0:
305,214,130950,1,8,0:0:0:0:
109,152,131092,1,2,0:0:0:0:
213,300,131234,38,0,B|266:300|305:259|291:192|291:192|287:256|235:274,1,255.779992194214,10|0,1:3|0:0,0:0:0:0:
157,248,131800,38,0,B|106:230|121:254|65:232,2,93.9600022939454,6|0|0,1:2|1:2|1:2,0:0:0:0:
284,171,132649,1,2,1:2:0:0:
395,358,132932,2,0,P|425:314|407:263,1,111.36,10|8,1:3|1:3,0:0:0:0:
262,344,133498,1,10,1:3:0:0:
189,167,133781,5,10,1:3:0:0:
192,181,133852,1,8,1:3:0:0:
194,194,133923,1,8,1:3:0:0:
197,208,133994,1,8,1:3:0:0:
200,222,134064,1,6,1:2:0:0:
367,87,134347,38,0,P|309:67|298:6,1,128.760003143555,2|2,1:2|1:2,0:0:0:0:
430,142,134913,1,2,1:2:0:0:
394,215,135196,6,0,P|366:230|335:228,1,64.3800015717774,10|0,1:3|0:0,0:0:0:0:
185,339,135479,2,0,P|204:315|234:305,1,64.3800015717774,8|2,1:3|0:0,0:0:0:0:
137,142,135763,37,10,0:0:0:0:
179,129,135833,1,2,0:0:0:0:
223,140,135904,1,2,3:0:0:0:
253,172,135975,1,2,3:0:0:0:
270,218,136046,1,8,1:3:0:0:
298,246,136116,1,8,1:3:0:0:
337,257,136187,1,8,1:3:0:0:
377,247,136257,1,8,1:3:0:0:
394,231,136328,6,0,B|427:92|427:92|413:145|368:169,1,225.330005501221,6|0,1:2|0:0,0:0:0:0:
321,32,136894,38,0,P|327:63|346:88,1,64.3800015717774,0|0,1:2|0:0,0:0:0:0:
443,174,137177,2,0,P|474:177|504:166,1,64.3800015717774,2|0,1:2|0:0,0:0:0:0:
279,319,137460,6,0,P|298:289|331:276,1,73.0799977697755,10|0,1:3|0:0,0:0:0:0:
496,367,137743,2,0,P|460:364|431:344,1,73.0799977697755,8|0,1:3|0:0,0:0:0:0:
296,138,138026,38,0,L|280:209,1,73.0799977697755,10|0,1:3|0:0,0:0:0:0:
482,50,138309,2,0,L|497:121,1,73.0799977697755,8|0,1:3|0:0,0:0:0:0:
244,25,138592,6,0,B|278:30|317:2|317:2|293:24|293:50,1,122.669998128204,6|0,1:2|0:0,0:0:0:0:
367,58,138875,37,0,3:0:0:0:
424,49,138946,1,0,3:0:0:0:
457,98,139016,1,0,3:0:0:0:
430,150,139087,1,0,3:0:0:0:
381,162,139159,5,8,1:3:0:0:
351,182,139229,1,8,1:3:0:0:
344,218,139300,1,8,1:3:0:0:
360,251,139371,1,8,1:3:0:0:
397,261,139442,38,0,P|409:246|416:227,1,40.8899993760681,8|0,1:3|0:0,0:0:0:0:
319,2,139583,5,10,0:0:0:0:
280,32,149206,53,0,1:2:0:0:
282,28,149276,1,0,1:2:0:0:
284,24,149347,2,0,B|276:21|271:17|271:17|226:22|207:80|258:115,1,135.719999171631,10|0,0:0|0:0,0:0:0:0:
243,184,149630,38,0,P|271:183|296:169,1,57.4200017523194,2|0,0:0|0:0,0:0:0:0:
454,295,149913,22,0,B|485:278|514:286|514:286|401:250,1,174.869991728257,6|0,1:2|0:0,0:0:0:0:
302,293,150196,2,0,B|346:304|385:257|385:257|358:289|367:331,1,174.869991728257,8|0,0:0|0:0,0:0:0:0:
316,219,150479,1,0,1:2:0:0:
494,139,150621,1,0,1:2:0:0:
432,92,150762,2,0,P|382:115|381:170,1,116.579994485504,10|0,0:0|1:2,0:0:0:0:
279,49,151045,1,0,0:0:0:0:
335,0,151187,6,0,P|309:13|287:32,1,58.2899972427522,0|0,1:2|0:0,0:0:0:0:
432,246,151328,2,0,P|348:256|294:192,1,174.869991728257,8|0,0:0|0:0,0:0:0:0:
329,122,151611,1,2,1:2:0:0:
157,195,151753,1,0,1:2:0:0:
104,124,151894,38,0,B|86:92|43:87|43:87|101:73|134:130,1,174.869991728257,10|0,0:0|0:0,0:0:0:0:
157,195,152177,2,0,B|179:234|148:272|148:272|99:294|109:345,1,174.869991728257,2|0,1:2|0:0,0:0:0:0:
172,382,152460,1,8,0:0:0:0:
46,235,152602,1,2,0:0:0:0:
207,128,152743,1,0,1:2:0:0:
145,81,152885,2,0,P|119:94|90:101,1,58.2899972427522,0|0,1:2|0:0,0:0:0:0:
238,201,153026,6,0,P|266:208|292:221,1,58.2899972427522,10|0,0:0|0:0,0:0:0:0:
440,117,153168,38,0,B|521:112|489:2|363:35|363:135,1,233.159988971009,4|0,1:2|1:2,0:0:0:0:
277,314,153592,6,0,B|248:267|191:276|191:276|241:281|267:332,1,174.869991728257,10|0,0:0|0:0,0:0:0:0:
296,384,153875,1,0,1:2:0:0:
457,309,154017,1,0,1:2:0:0:
431,240,154158,38,0,P|379:250|363:300,1,109.619996654663,10|0,0:0|0:0,0:0:0:0:
369,315,154442,38,0,B|384:274|351:256|354:261|315:241|336:194,1,135.719999171631,2|0,1:2|0:0,0:0:0:0:
364,127,154724,2,0,B|386:128|411:111|411:111|390:133|389:163,1,90.4799994477539,8|0,0:0|0:0,0:0:0:0:
222,286,155007,1,2,1:3:0:0:
290,249,155149,1,0,1:2:0:0:
230,297,155290,1,2,0:3:0:0:
99,189,155432,1,8,0:0:0:0:
178,225,155574,38,0,B|145:215|145:215|130:197|130:197|98:188,1,90.4799994477539,0|0,1:2|0:0,0:0:0:0:
214,115,155857,2,0,B|246:106|246:106|261:88|261:88|294:78,1,90.4799994477539,8|0,0:0|0:0,0:0:0:0:
136,1,156140,1,0,1:2:0:0:
210,22,156281,1,0,0:0:0:0:
292,168,156423,6,0,P|351:142|401:183,1,135.719999171631,8|0,0:0|0:0,0:0:0:0:
464,229,156706,2,0,P|448:269|406:284,1,90.4799994477539,4|0,1:2|0:0,0:0:0:0:
178,362,156989,22,0,P|161:346|154:325,1,45.239999723877,2|2,3:2|3:2,0:0:0:0:
123,322,157130,2,0,P|120:299|130:279,1,45.239999723877,2|2,3:2|3:2,0:0:0:0:
193,225,157272,6,0,B|226:159|146:102|102:172|138:198,1,161.819993580139,4|0,1:2|0:0,0:0:0:0:
257,119,157555,38,0,P|271:102|275:80,1,45.239999723877,0|0,3:2|3:2,0:0:0:0:
306,71,157696,2,0,P|305:48|293:29,1,45.239999723877,0|0,3:2|3:2,0:0:0:0:
225,0,157838,5,12,3:1:0:0:
168,30,157908,1,0,3:0:0:0:
164,84,157979,1,0,3:0:0:0:
201,120,158050,1,0,3:0:0:0:
247,132,158121,1,0,3:0:0:0:
264,171,158191,1,0,3:0:0:0:
241,207,158262,5,12,3:1:0:0:
246,153,158333,1,0,3:0:0:0:
308,129,158404,1,0,3:0:0:0:
359,152,158474,1,0,3:0:0:0:
375,195,158545,1,0,3:0:0:0:
413,219,158616,1,0,3:0:0:0:
454,207,158687,38,0,P|433:216|414:229,1,45.239999723877,12|0,3:1|0:0,0:0:0:0:
66,69,158970,5,0,1:2:0:0:
91,138,159111,2,0,P|110:151|132:156,1,45.239999723877,8|0,0:0|0:0,0:0:0:0:
256,38,159253,2,0,P|234:43|215:55,1,45.239999723877,0|0,1:2|0:0,0:0:0:0:
200,126,159395,1,0,1:2:0:0:
16,8,159536,37,8,0:0:0:0:
366,210,159819,5,0,3:0:0:0:
307,228,159889,1,0,3:0:0:0:
292,287,159960,1,0,3:0:0:0:
331,335,160031,1,0,3:0:0:0:
392,334,160102,6,0,B|423:289|386:257|387:264|345:226|387:172,1,174.869991728257,6|0,1:2|0:0,0:0:0:0:
429,108,160385,2,0,B|445:81|480:69|480:69|376:100,1,174.869991728257,8|0,0:0|0:0,0:0:0:0:
207,21,160668,1,0,1:2:0:0:
363,91,160810,1,0,1:2:0:0:
218,224,160951,2,0,L|206:166,1,58.2899972427522,10|0,0:0|0:0,0:0:0:0:
435,274,161093,6,0,B|393:225|330:232|330:232|347:257|344:291,1,174.869991728257,4|0,1:2|0:0,0:0:0:0:
271,279,161376,1,0,1:2:0:0:
447,161,161517,2,0,B|499:160|511:107|511:107|479:148|420:151,1,174.869991728257,8|0,0:0|0:0,0:0:0:0:
370,156,161800,1,2,1:2:0:0:
178,30,161942,1,0,1:2:0:0:
111,70,162083,2,0,B|84:77|77:109|77:109|94:88|139:72,1,109.619996654663,10|0,0:0|0:0,0:0:0:0:
178,30,162366,38,0,B|221:17|251:56|251:56|261:109|315:112,1,174.869991728257,2|0,1:2|0:0,0:0:0:0:
370,156,162649,2,0,P|384:131|386:102,1,58.2899972427522,8|0,0:0|0:0,0:0:0:0:
187,234,162791,6,0,B|125:260|125:260|41:229|104:173,1,174.869991728257,2|0,0:0|0:0,0:0:0:0:
88,109,163074,2,0,P|116:110|141:125,1,58.2899972427522,0|0,1:2|0:0,0:0:0:0:
0,324,163215,2,0,P|28:322|53:307,1,58.2899972427522,10|0,0:0|0:0,0:0:0:0:
238,130,163357,38,0,B|264:227|264:227|253:184|213:159,1,174.869991728257,4|0,1:2|0:0,0:0:0:0:
187,234,163640,1,0,1:2:0:0:
358,309,163781,6,0,B|309:312|275:255|275:255|289:323|245:374,1,215.759991440186,10|0,0:0|1:2,0:0:0:0:
362,219,164206,1,0,1:2:0:0:
238,130,164347,2,0,B|233:115|207:105|207:105|279:125,1,109.619996654663,10|0,0:0|0:0,0:0:0:0:
362,218,164630,6,0,P|432:156|413:63,1,198.359997578613,2|8,1:2|0:0,0:0:0:0:
493,206,165055,1,0,0:0:0:0:
361,126,165196,1,0,1:2:0:0:
452,3,165338,1,0,1:2:0:0:
352,133,165479,38,0,L|304:158,1,49.5899993946533,10|0,0:0|0:0,0:0:0:0:
459,304,165621,6,0,P|373:256|275:254,1,198.359997578613,2|0,1:2|1:2,0:0:0:0:
147,125,166046,1,8,0:0:0:0:
216,159,166187,1,0,0:0:0:0:
75,301,166329,1,2,1:2:0:0:
148,274,166470,1,0,1:2:0:0:
28,120,166612,38,0,P|72:147|73:199,1,109.619996654663,10|0,0:0|0:0,0:0:0:0:
72,200,166895,6,0,B|114:189|114:189|180:219|144:280,1,148.76999818396,2|0,1:2|0:0,0:0:0:0:
146,349,167178,2,0,P|121:345|101:331,1,49.5899993946533,8|0,0:0|0:0,0:0:0:0:
241,183,167319,1,0,0:0:0:0:
160,55,167461,37,8,0:0:0:0:
168,63,167531,1,0,1:0:0:0:
180,67,167602,1,8,1:3:0:0:
72,200,167744,1,10,0:0:0:0:
282,286,167885,6,0,B|287:257|323:242|323:242|280:247|265:275|278:277|251:317|198:313,1,198.359997578613,6|0,1:2|1:2,0:0:0:0:
72,199,168310,2,0,P|47:245|79:285,1,109.619996654663,8|0,0:0|0:0,0:0:0:0:
111,351,168593,1,2,1:2:0:0:
340,152,168734,37,0,3:2:0:0:
287,135,168804,1,0,3:2:0:0:
254,177,168875,1,2,3:2:0:0:
205,233,168946,5,0,3:2:0:0:
159,229,169016,1,0,3:2:0:0:
146,188,169087,1,0,3:2:0:0:
102,126,169159,22,0,B|174:95|174:95|248:113|217:176,1,174.869991728257,2|0,1:2|0:0,0:0:0:0:
300,245,169442,2,0,B|251:245|222:186|222:186|242:227|222:268,1,174.869991728257,12|0,0:0|0:0,0:0:0:0:
174,308,169725,1,0,1:2:0:0:
319,145,169866,1,0,1:2:0:0:
181,86,170008,6,0,P|204:103|232:111,1,58.2899972427522,10|0,0:0|0:0,0:0:0:0:
386,228,170149,38,0,P|445:218|513:123,1,174.869991728257,0|0,1:2|0:0,0:0:0:0:
485,65,170432,1,0,1:2:0:0:
291,29,170574,6,0,B|314:131|314:131|310:90|327:56,1,174.869991728257,8|0,0:0|0:0,0:0:0:0:
324,62,170857,2,0,B|280:54|255:97|255:97|252:149|199:159,1,174.869991728257,2|0,1:2|0:0,0:0:0:0:
51,71,171140,2,0,B|39:44|13:34|13:34|48:36|62:70,1,109.619996654663,10|0,0:0|0:0,0:0:0:0:
116,2,171423,38,0,P|139:84|98:159,1,174.869991728257,2|0,1:2|0:0,0:0:0:0:
91,232,171706,2,0,P|62:226|41:206,1,58.2899972427522,8|0,0:0|0:0,0:0:0:0:
266,135,171847,2,0,P|197:184|186:269,1,174.869991728257,2|0,0:0|0:0,0:0:0:0:
197,342,172130,2,0,P|225:336|246:316,1,58.2899972427522,2|0,1:2|0:0,0:0:0:0:
127,163,172272,2,0,P|155:168|176:188,1,58.2899972427522,10|0,0:0|0:0,0:0:0:0:
343,310,172413,6,0,B|403:302|430:233|430:233|386:288|338:288,1,233.159988971009,4|0,1:2|1:2,0:0:0:0:
176,188,172838,2,0,B|237:192|215:209|270:215,1,99.1799987893067,10|0,0:0|0:0,0:0:0:0:
473,151,173121,1,0,1:2:0:0:
436,219,173263,1,0,1:2:0:0:
286,58,173404,38,0,P|317:100|370:102,1,109.619996654663,10|0,0:0|0:0,0:0:0:0:
381,84,173687,38,0,P|319:99|310:163,1,135.719999171631,6|0,1:2|0:0,0:0:0:0:
376,195,173970,1,8,0:0:0:0:
176,48,174253,1,2,1:3:0:0:
240,8,174394,1,0,1:2:0:0:
167,33,174536,1,2,0:3:0:0:
258,96,174677,1,8,0:0:0:0:
144,235,174819,38,0,P|219:221|260:286,1,163.559997504273,2|8,1:2|0:0,0:0:0:0:
45,146,175385,1,0,1:2:0:0:
110,104,175526,1,0,1:2:0:0:
10,49,175668,6,0,B|35:120|35:120|26:89|43:61,1,122.669998128204,10|0,0:0|0:0,0:0:0:0:
110,104,175951,38,0,B|150:126|150:126|210:120|190:38,1,122.669998128204,6|0,1:2|0:0,0:0:0:0:
189,0,176234,1,10,0:0:0:0:
162,1,176305,1,2,0:0:0:0:
144,20,176375,1,2,0:0:0:0:
284,185,176517,6,0,B|325:189|357:160|357:160|336:183|336:215,1,122.669998128204,6|0,1:2|0:0,0:0:0:0:
410,212,176800,2,0,B|450:190|450:190|510:196|490:278,1,122.669998128204,10|0,0:0|0:0,0:0:0:0:
487,276,177083,38,0,B|466:242|493:221|491:226|522:202|496:163,1,122.669998128204,6|0,1:2|0:0,0:0:0:0:
440,119,177366,1,8,0:0:0:0:
495,302,177507,1,8,0:0:0:0:
410,212,177649,5,2,1:2:0:0:
486,227,177790,1,0,1:0:0:0:
346,357,177932,38,0,B|320:354|313:346|313:346|309:346|309:346|304:333|305:310,1,70.470001720459,8|0,0:0|0:0,0:0:0:0:
236,384,178215,6,0,P|288:336|286:266,1,146.159995539551,6|8,1:2|0:0,0:0:0:0:
141,60,178781,1,2,1:3:0:0:
212,82,178923,1,0,1:2:0:0:
132,76,179064,37,2,0:3:0:0:
234,11,179206,1,8,0:0:0:0:
161,187,179347,6,0,B|136:102|136:102|149:144|187:154,1,146.159995539551,0|8,1:2|0:0,0:0:0:0:
353,262,179913,1,0,1:2:0:0:
410,212,180055,1,0,1:2:0:0:
361,149,180196,2,0,B|367:196|367:196|371:202|371:202|378:257,1,109.619996654663,10|0,0:0|0:0,0:0:0:0:
440,340,180479,38,0,B|449:341|456:349|456:349|506:344|517:269|461:252,1,146.159995539551,6|8,1:2|0:0,0:0:0:0:
211,81,181045,6,0,P|164:103|162:156,1,109.619996654663,6|0,1:2|0:0,0:0:0:0:
161,155,181328,2,0,P|111:170|102:221,1,109.619996654663,10|0,0:0|0:0,0:0:0:0:
55,287,181611,2,0,P|100:257|153:262,1,109.619996654663,6|0,1:2|0:0,0:0:0:0:
191,328,181894,1,10,0:0:0:0:
339,244,182036,1,8,0:0:0:0:
290,303,182177,37,2,1:2:0:0:
228,258,182319,1,0,1:2:0:0:
381,362,182460,6,0,B|408:354|408:354|448:306|394:276,1,109.619996654663,8|0,0:0|0:0,0:0:0:0:
339,244,182743,38,0,B|291:245|289:287|292:281|291:328|234:329,1,146.159995539551,2|10,1:2|0:0,0:0:0:0:
47,90,183309,1,2,3:2:0:0:
93,151,183451,2,0,P|128:153|158:134,1,73.0799977697755,8|2,0:0|0:0,0:0:0:0:
51,257,183734,1,0,3:0:0:0:
62,245,183805,1,0,3:0:0:0:
78,242,183875,1,2,1:2:0:0:
322,24,184158,6,0,L|296:167,1,146.159995539551,10|2,0:0|1:2,0:0:0:0:
235,82,184583,1,8,0:0:0:0:
371,186,184724,1,2,0:0:0:0:
261,249,184866,1,0,3:0:0:0:
245,246,184936,1,0,3:0:0:0:
234,234,185007,1,2,1:2:0:0:
401,370,185290,38,0,P|439:334|438:281,1,109.619996654663,14|0,0:0|0:0,0:0:0:0:
496,231,185574,1,8,0:0:0:0:
483,216,185645,1,0,0:0:0:0:
463,211,185715,1,8,1:3:0:0:
357,108,185857,1,10,0:0:0:0:
194,295,185998,6,0,B|216:213|321:222|317:309|263:302,1,193.140004715332,6|2,1:2|0:0,0:0:0:0:
61,44,187272,37,6,1:2:0:0:
68,61,187413,1,2,0:0:0:0:
20,158,187555,6,0,B|13:137|-21:123|-21:123|24:123|36:163,1,128.760003143555,2|10,1:2|0:0,0:0:0:0:
136,260,188121,1,2,0:0:0:0:
234,168,188262,38,0,P|203:176|185:202,2,64.3800015717774,10|2|2,1:1|0:0|0:0,0:0:0:0:
153,63,188687,1,2,1:2:0:0:
98,36,188828,2,0,P|129:41|152:62,1,64.3800015717774,2|2,0:0|0:0,0:0:0:0:
57,188,189111,1,10,0:0:0:0:
113,235,189253,2,0,P|140:219|171:208,1,64.3800015717774,2|2,0:0|3:2,0:0:0:0:
298,293,189465,1,0,3:2:0:0:
295,302,189536,2,0,P|267:317|236:328,2,64.3800015717774,0|0|2,1:2|0:0|1:2,0:0:0:0:
176,286,189960,1,2,0:0:0:0:
70,375,190102,6,0,P|83:345|88:314,1,64.3800015717774,10|2,0:0|0:0,0:0:0:0:
255,157,190385,1,2,0:0:0:0:
258,231,190526,2,0,P|244:201|239:170,2,64.3800015717774,10|0|0,1:1|0:0|0:0,0:0:0:0:
125,104,190951,1,2,1:2:0:0:
171,43,191092,2,0,P|230:27|269:73,1,128.760003143555,0|10,0:0|0:0,0:0:0:0:
338,105,191517,1,0,0:0:0:0:
261,220,191658,1,0,3:2:0:0:
205,245,191800,38,0,P|229:224|260:219,1,64.3800015717774,2|2,1:2|0:0,0:0:0:0:
397,328,192083,2,0,P|365:320|337:305,1,64.3800015717774,2|2,1:2|0:0,0:0:0:0:
368,173,192366,2,0,P|401:205|394:251,1,96.5700023576661,10|0,0:0|0:0,0:0:0:0:
337,305,192649,1,2,0:0:0:0:
193,184,192790,6,0,P|210:157|239:143,2,64.3800015717774,10|2|2,1:1|0:0|0:0,0:0:0:0:
113,288,193215,1,2,1:2:0:0:
138,345,193357,2,0,P|131:313|112:287,1,64.3800015717774,2|2,0:0|0:0,0:0:0:0:
239,143,193640,1,10,0:0:0:0:
186,86,193781,2,0,P|164:109|160:140,1,64.3800015717774,2|2,0:0|3:2,0:0:0:0:
242,242,193993,1,0,3:2:0:0:
251,247,194064,2,0,P|272:270|276:301,1,64.3800015717774,2|2,1:2|0:0,0:0:0:0:
401,162,194347,37,2,1:2:0:0:
369,233,194489,1,2,0:0:0:0:
447,341,194630,2,0,P|416:331|398:305,1,64.3800015717774,10|2,0:0|0:0,0:0:0:0:
401,162,194913,1,2,0:0:0:0:
464,206,195055,6,0,P|494:196|512:170,2,64.3800015717774,2|0|0,1:2|0:0|0:0,0:0:0:0:
398,305,195479,37,0,1:2:0:0:
205,123,195762,5,8,0:0:0:0:
281,122,195904,1,8,0:0:0:0:
306,194,196045,1,8,0:0:0:0:
164,368,196328,38,0,P|139:341|133:306,1,73.0799977697755,10|2,1:1|0:0,0:0:0:0:
297,201,196611,1,2,3:2:0:0:
277,267,196753,2,0,P|296:236|296:200,1,73.0799977697755,2|2,3:2|3:2,0:0:0:0:
186,32,197036,1,2,3:2:0:0:
255,68,197177,1,2,3:2:0:0:
177,169,197319,5,10,0:0:0:0:
112,197,197460,2,0,P|141:175|176:168,1,73.0799977697755,2|2,0:0|3:2,0:0:0:0:
263,62,197673,1,0,3:2:0:0:
272,56,197743,2,0,P|308:59|339:78,1,73.0799977697755,10|2,1:1|0:0,0:0:0:0:
491,171,198026,1,2,0:0:0:0:
436,226,198168,2,0,P|417:196|413:160,1,73.0799977697755,10|2,0:0|3:2,0:0:0:0:
296,268,198451,1,10,0:0:0:0:
362,296,198592,38,0,P|331:276|295:267,1,73.0799977697755,2|2,1:2|0:0,0:0:0:0:
189,165,198875,1,2,3:2:0:0:
116,192,199017,1,2,3:2:0:0:
240,47,199158,1,2,3:2:0:0:
313,74,199300,1,2,3:2:0:0:
433,8,199441,1,2,3:2:0:0:
508,86,199583,6,0,P|447:117|450:186,1,146.159995539551,10|2,0:0|3:2,0:0:0:0:
420,257,200007,1,10,1:1:0:0:
512,367,200149,2,0,P|513:330|500:296,1,73.0799977697755,2|2,0:0|0:0,0:0:0:0:
360,202,200432,1,10,0:0:0:0:
340,270,200574,2,0,P|343:233|359:201,1,73.0799977697755,2|2,1:2|1:2,0:0:0:0:
505,41,200857,2,0,P|469:46|440:67,1,73.0799977697755,10|0,1:1|0:0,0:0:0:0:
292,139,201140,37,2,3:2:0:0:
259,69,201281,1,2,3:2:0:0:
451,188,201423,5,2,3:2:0:0:
420,257,201564,1,2,3:2:0:0:
218,197,201706,1,2,3:2:0:0:
262,261,201847,38,0,P|228:247|208:217,2,73.0799977697755,10|2|2,0:0|0:0|3:2,0:0:0:0:
296,331,202272,1,10,1:1:0:0:
420,257,202413,6,0,P|384:262|353:282,1,73.0799977697755,2|2,0:0|0:0,0:0:0:0:
159,247,202696,1,10,0:0:0:0:
167,324,202838,2,0,P|143:297|141:261,1,73.0799977697755,2|2,1:2|1:2,0:0:0:0:
27,102,203121,37,2,1:2:0:0:
75,46,203262,2,0,P|103:67|112:102,1,73.0799977697755,2|2,0:0|3:2,0:0:0:0:
16,235,203545,1,2,3:2:0:0:
83,214,203687,2,0,P|46:216|15:234,1,73.0799977697755,2|2,3:2|3:2,0:0:0:0:
232,94,203970,5,2,3:2:0:0:
308,120,204111,1,6,1:2:0:0:
256,192,204182,12,0,206517,0:0:0:0:
