osu file format v14

[General]
AudioFilename: audio.mp3
AudioLeadIn: 0
PreviewTime: 140220
Countdown: 0
SampleSet: Soft
StackLeniency: 0.8
Mode: 0
LetterboxInBreaks: 0
WidescreenStoryboard: 1

[Editor]
DistanceSpacing: 1
BeatDivisor: 4
GridSize: 32
TimelineZoom: 3.2

[Metadata]
Title:Paper Bouquet
TitleUnicode:Paper Bouquet
Artist:Mili
ArtistUnicode:Mili
Creator:Esutarosa
Version:Mayu's Extreme
Source:処刑少女の生きる道
Tags:momocashew cassie wei projectmili yamato kasai hamo Hinae AsuKow Pepekcz Shikibe Grazuko Mayu Soraka Shikibe_Mayu Kazato Asa Kazato_Asa Tachibana_ Shizuku- Shokei Shoujo no Virgin Road virgin-road project english rock pop conlang opening op バージンロード anime The Executioner and Her Way of Life
BeatmapID:3621260
BeatmapSetID:1767138

[Difficulty]
HPDrainRate:5.4
CircleSize:4
OverallDifficulty:9
ApproachRate:9.4
SliderMultiplier:1.76
SliderTickRate:1

[Events]
//Background and Video events
0,0,"BG.jpg",0,0
//Break Periods
2,86717,87675
2,140857,148666
//Storyboard Layer 0 (Background)
//Storyboard Layer 1 (Fail)
//Storyboard Layer 2 (Pass)
//Storyboard Layer 3 (Foreground)
//Storyboard Layer 4 (Overlay)
//Storyboard Sound Samples

[TimingPoints]
480,283.018867924528,4,2,20,40,1,0
480,-142.857142857143,4,2,20,40,0,0
621,-142.857142857143,4,2,21,40,0,0
763,-142.857142857143,4,2,22,40,0,0
904,-142.857142857143,4,2,23,40,0,0
1046,-142.857142857143,4,2,24,40,0,0
1329,-142.857142857143,4,2,23,40,0,0
1470,-142.857142857143,4,2,25,40,0,0
1612,-142.857142857143,4,2,26,25,0,0
1753,-142.857142857143,4,2,22,40,0,0
1895,-142.857142857143,4,2,25,40,0,0
2036,-142.857142857143,4,2,26,25,0,0
2178,-142.857142857143,4,2,25,40,0,0
2319,-142.857142857143,4,2,27,25,0,0
2461,-142.857142857143,4,2,28,25,0,0
2602,-142.857142857143,4,2,29,25,0,0
2744,-142.857142857143,4,2,1,25,0,0
3027,-142.857142857143,4,2,30,40,0,0
3168,-142.857142857143,4,2,31,40,0,0
3310,-142.857142857143,4,2,22,40,0,0
3451,-142.857142857143,4,2,30,25,0,0
3593,-142.857142857143,4,2,22,40,0,0
3734,-142.857142857143,4,2,26,40,0,0
4017,-142.857142857143,4,2,2,50,0,0
4159,-142.857142857143,4,2,32,50,0,0
4442,-142.857142857143,4,2,1,50,0,0
4583,-142.857142857143,4,2,31,50,0,0
5008,-142.857142857143,4,2,20,40,0,0
5149,-142.857142857143,4,2,21,40,0,0
5291,-142.857142857143,4,2,22,40,0,0
5432,-142.857142857143,4,2,23,40,0,0
5574,-142.857142857143,4,2,24,40,0,0
5857,-142.857142857143,4,2,23,40,0,0
5998,-142.857142857143,4,2,25,40,0,0
6140,-142.857142857143,4,2,26,25,0,0
6281,-142.857142857143,4,2,22,25,0,0
6423,-142.857142857143,4,2,25,40,0,0
6564,-142.857142857143,4,2,26,25,0,0
6706,-142.857142857143,4,2,25,40,0,0
6847,-142.857142857143,4,2,27,40,0,0
6989,-142.857142857143,4,2,28,40,0,0
7130,-142.857142857143,4,2,29,40,0,0
7272,-142.857142857143,4,2,33,40,0,0
7413,-142.857142857143,4,2,28,25,0,0
7555,-142.857142857143,4,2,27,25,0,0
7696,-142.857142857143,4,2,34,40,0,0
7838,-142.857142857143,4,2,28,25,0,0
7979,-142.857142857143,4,2,27,25,0,0
8121,-142.857142857143,4,2,29,40,0,0
8263,-142.857142857143,4,2,35,40,0,0
8687,-142.857142857143,4,2,31,40,0,0
8970,-142.857142857143,4,2,36,40,0,0
9112,-142.857142857143,4,2,1,40,0,0
9536,-100,4,2,30,70,0,0
9607,-100,4,2,1,70,0,0
9819,-100,4,2,29,70,0,0
9961,-100,4,2,1,70,0,0
10102,-100,4,2,37,70,0,0
10244,-100,4,2,29,70,0,0
10385,-100,4,2,34,70,0,0
10527,-100,4,2,38,70,0,0
10668,-100,4,2,1,70,0,0
10810,-100,4,2,29,70,0,0
10951,-100,4,2,38,70,0,0
11093,-100,4,2,1,70,0,0
11234,-100,4,2,38,70,0,0
11376,-100,4,2,33,70,0,0
11517,-100,4,2,39,70,0,0
11659,-100,4,2,40,70,0,0
11800,-100,4,2,1,70,0,0
12083,-100,4,2,28,70,0,0
12225,-100,4,2,25,70,0,0
12366,-100,4,2,29,70,0,0
12508,-100,4,2,23,70,0,0
12649,-100,4,2,29,70,0,0
12791,-100,4,2,23,70,0,0
12932,-100,4,2,25,70,0,0
13074,-100,4,2,1,70,0,0
13215,-100,4,2,24,70,0,0
13357,-100,4,2,1,70,0,0
13498,-100,4,2,22,70,0,0
13640,-100,4,2,25,70,0,0
13781,-100,4,2,1,70,0,0
14347,-100,4,2,22,70,0,0
14489,-100,4,2,23,70,0,0
14630,-100,4,2,24,70,0,0
14772,-100,4,2,22,70,0,0
14913,-100,4,2,23,70,0,0
15055,-100,4,2,25,70,0,0
15196,-100,4,2,1,70,0,0
15479,-100,4,2,25,70,0,0
15621,-100,4,2,2,70,0,0
15763,-100,4,2,25,70,0,0
15904,-100,4,2,27,70,0,0
16046,-100,4,2,28,70,0,0
16187,-100,4,2,29,70,0,0
16329,-100,4,2,33,70,0,0
16470,-100,4,2,28,50,0,0
16612,-100,4,2,27,50,0,0
16753,-100,4,2,34,70,0,0
16895,-100,4,2,28,50,0,0
17036,-100,4,2,27,50,0,0
17178,-100,4,2,29,70,0,0
17319,-100,4,2,35,70,0,0
17390,-100,4,2,1,70,0,0
18027,-100,4,2,1,30,0,0
18168,-100,4,2,1,35,0,0
18310,-100,4,2,1,40,0,0
18451,-100,4,2,1,45,0,0
18593,-250,4,2,41,40,0,0
18663,-250,4,2,1,40,0,0
19583,-250,4,2,42,40,0,0
19654,-250,4,2,1,40,0,0
20432,-250,4,2,27,40,0,0
20574,-250,4,2,23,40,0,0
20715,-250,4,2,22,40,0,0
20857,-100,4,2,1,60,0,0
23121,-125,4,2,1,50,0,0
31470,-125,4,2,2,60,0,0
31612,-125,4,2,1,60,0,0
32178,-125,4,2,1,50,0,0
36706,-125,4,2,2,60,0,0
39253,-125,4,2,1,60,0,0
39536,-125,4,2,2,60,0,0
40102,-125,4,2,1,60,0,0
42366,-125,4,2,1,62,0,0
43498,-125,4,2,1,64,0,0
44630,-125,4,2,1,66,0,0
45763,-125,4,2,1,68,0,0
46895,-100,4,2,1,68,0,0
48027,-66.6666666666667,4,2,1,70,0,0
48310,-66.6666666666667,4,2,2,70,0,0
48593,-83.3333333333333,4,2,1,70,0,0
49442,-83.3333333333333,4,2,2,70,0,0
50291,-76.9230769230769,4,2,2,85,0,1
50362,-76.9230769230769,4,2,1,85,0,1
50574,-83.3333333333333,4,2,1,85,0,1
58923,-83.3333333333333,4,2,2,80,0,1
59347,-83.3333333333333,4,2,2,85,0,1
59418,-83.3333333333333,4,2,1,85,0,1
63310,-100,4,2,1,85,0,0
63876,-100,4,2,1,70,0,0
64442,-100,4,2,2,70,0,0
64866,-100,4,2,1,70,0,0
66140,-100,4,2,5,70,0,0
66777,-100,4,2,1,70,0,0
68404,-111.111111111111,4,2,1,70,0,0
68970,-111.111111111111,4,2,2,70,0,0
69536,-111.111111111111,4,2,1,70,0,0
73923,-111.111111111111,4,2,2,70,0,0
74064,-111.111111111111,4,2,1,70,0,0
75055,-111.111111111111,4,2,2,70,0,0
75196,-111.111111111111,4,2,1,70,0,0
76187,-166.666666666666,4,2,43,60,0,0
76612,-166.666666666666,4,2,44,60,0,0
77461,-125,4,2,20,50,0,0
77602,-125,4,2,21,35,0,0
77744,-125,4,2,22,40,0,0
77885,-125,4,2,23,45,0,0
78027,-125,4,2,24,50,0,0
78310,-125,4,2,23,45,0,0
78451,-125,4,2,25,50,0,0
78593,-125,4,2,26,35,0,0
78734,-125,4,2,22,35,0,0
78876,-125,4,2,25,50,0,0
79017,-125,4,2,26,35,0,0
79159,-125,4,2,25,50,0,0
79300,-125,4,2,27,40,0,0
79442,-125,4,2,28,45,0,0
79583,-125,4,2,45,50,0,0
79725,-125,4,2,1,50,0,0
80008,-125,4,2,30,40,0,0
80149,-125,4,2,31,45,0,0
80291,-125,4,2,22,50,0,0
80432,-125,4,2,30,35,0,0
80574,-125,4,2,22,40,0,0
80715,-125,4,2,26,50,0,0
80998,-125,4,2,2,50,0,0
81140,-125,4,2,32,50,0,0
81564,-125,4,2,31,50,0,0
81706,-125,4,2,1,50,0,0
82272,-125,4,2,20,50,0,0
82413,-125,4,2,23,35,0,0
82555,-125,4,2,24,50,0,0
82696,-125,4,2,22,35,0,0
82838,-125,4,2,23,40,0,0
82979,-125,4,2,25,45,0,0
83121,-125,4,2,26,35,0,0
83263,-125,4,2,22,35,0,0
83404,-125,4,2,25,45,0,0
83546,-125,4,2,26,35,0,0
83687,-125,4,2,25,45,0,0
83829,-125,4,2,27,46,0,0
83970,-125,4,2,28,47,0,0
84112,-125,4,2,29,48,0,0
84253,-125,4,2,33,50,0,0
84395,-125,4,2,28,35,0,0
84536,-125,4,2,27,35,0,0
84678,-125,4,2,34,50,0,0
84819,-125,4,2,28,35,0,0
84961,-125,4,2,27,35,0,0
85102,-125,4,2,29,50,0,0
85244,-125,4,2,35,50,0,0
85951,-125,4,2,1,40,0,0
86093,-125,4,2,1,42,0,0
86234,-125,4,2,1,44,0,0
86376,-125,4,2,1,46,0,0
86517,-125,4,2,41,40,0,0
87508,-125,4,2,42,40,0,0
88215,-166.666666666667,4,2,1,40,0,0
88357,-166.666666666667,4,2,27,40,0,0
88498,-166.666666666667,4,2,23,40,0,0
88640,-166.666666666667,4,2,22,40,0,0
88781,-100,4,2,1,50,0,0
92036,-125,4,2,1,50,0,0
100102,-166.666666666667,4,2,25,40,0,0
100173,-166.666666666667,4,2,1,40,0,0
100951,-166.666666666667,4,2,28,40,0,0
101022,-166.666666666667,4,2,1,40,0,0
101800,-166.666666666667,4,2,3,40,0,0
101942,-166.666666666667,4,2,1,40,0,0
102083,-166.666666666667,4,2,20,25,0,0
102366,-166.666666666667,4,2,29,40,0,0
102932,-166.666666666667,4,2,46,30,0,0
103215,-166.666666666667,4,2,47,40,0,0
103286,-166.666666666667,4,2,1,40,0,0
104064,-166.666666666667,4,2,28,40,0,0
104135,-166.666666666667,4,2,1,40,0,0
104630,-166.666666666667,4,2,29,40,0,0
104701,-166.666666666667,4,2,1,40,0,0
105196,-166.666666666667,4,2,24,40,0,0
105267,-166.666666666667,4,2,1,40,0,0
105763,-166.666666666667,4,2,38,40,0,0
105833,-166.666666666667,4,2,1,40,0,0
106329,-166.666666666667,4,2,33,40,0,0
106399,-166.666666666667,4,2,1,40,0,0
106612,-166.666666666667,4,2,26,25,0,0
106682,-166.666666666667,4,2,1,25,0,0
106895,-166.666666666667,4,2,48,40,0,0
106965,-166.666666666667,4,2,1,40,0,0
107461,-125,4,2,1,43,0,0
107744,-125,4,2,1,46,0,0
108027,-111.111111111111,4,2,1,50,0,0
108310,-111.111111111111,4,2,1,55,0,0
108593,-111.111111111111,4,2,1,60,0,0
108876,-111.111111111111,4,2,1,55,0,0
109159,-111.111111111111,4,2,1,50,0,0
118215,-166.666666666666,4,2,1,50,0,0
120196,-166.666666666666,4,2,2,50,0,0
120479,-125,4,2,1,50,0,0
121612,-100,4,2,1,50,0,0
122744,-125,4,2,1,50,0,0
127272,-125,4,2,2,60,0,0
129819,-125,4,2,1,60,0,0
130102,-125,4,2,2,60,0,0
130668,-125,4,2,1,60,0,0
132932,-125,4,2,1,62,0,0
134064,-125,4,2,1,64,0,0
135196,-125,4,2,1,66,0,0
136329,-125,4,2,1,68,0,0
137461,-111.111111111111,4,2,1,68,0,0
138027,-100,4,2,1,68,0,0
138593,-66.6666666666667,4,2,1,70,0,0
138876,-66.6666666666667,4,2,2,70,0,0
139017,-83.3333333333333,4,2,2,70,0,0
139159,-83.3333333333333,4,2,1,70,0,0
139583,-111.111111111111,4,2,1,70,0,0
140291,-111.111111111111,4,2,1,30,0,0
140574,-111.111111111111,4,2,1,32,0,0
140857,-111.111111111111,4,2,1,35,0,0
149206,-111.111111111111,4,2,1,60,0,0
149347,-83.3333333333333,4,2,1,60,0,0
149913,-83.3333333333333,4,2,2,85,0,1
149984,-83.3333333333333,4,2,1,85,0,1
154442,-100,4,2,1,70,0,0
155008,-100,4,2,2,70,0,0
155574,-100,4,2,1,70,0,0
156706,-100,4,2,1,75,0,0
156989,-100,4,2,5,75,0,0
157272,-100,4,2,1,75,0,0
157555,-100,4,2,2,75,0,0
157838,-76.9230769230769,4,2,2,80,0,0
158970,-76.9230769230769,4,2,1,70,0,0
159536,-76.9230769230769,4,2,1,75,0,0
159819,-76.9230769230769,4,2,2,75,0,0
160102,-83.3333333333333,4,2,2,85,0,1
160173,-83.3333333333333,4,2,1,85,0,1
168734,-83.3333333333333,4,2,2,80,0,1
169159,-83.3333333333333,4,2,1,85,0,1
173121,-100,4,2,1,85,0,0
173687,-100,4,2,1,70,0,0
174253,-100,4,2,2,70,0,0
174819,-100,4,2,1,70,0,0
175951,-100,4,2,5,70,0,0
176800,-100,4,2,1,70,0,0
178781,-100,4,2,2,70,0,0
179347,-100,4,2,1,70,0,0
183734,-100,4,2,2,70,0,0
183876,-100,4,2,1,70,0,0
184866,-100,4,2,2,70,0,0
185008,-100,4,2,1,70,0,0
185998,-100,4,2,43,60,0,0
186423,-100,4,2,44,60,0,0
187272,-125,4,2,20,50,0,0
187413,-125,4,2,21,35,0,0
187555,-125,4,2,22,35,0,0
187696,-125,4,2,23,40,0,0
187838,-125,4,2,24,50,0,0
188121,-125,4,2,23,40,0,0
188263,-125,4,2,25,50,0,0
188404,-125,4,2,26,35,0,0
188546,-125,4,2,22,35,0,0
188687,-125,4,2,25,50,0,0
188829,-125,4,2,26,35,0,0
188970,-125,4,2,25,50,0,0
189112,-125,4,2,27,35,0,0
189253,-125,4,2,28,40,0,0
189395,-125,4,2,45,50,0,0
189536,-125,4,2,1,50,0,0
189819,-125,4,2,30,35,0,0
189961,-125,4,2,31,35,0,0
190102,-125,4,2,22,50,0,0
190244,-125,4,2,30,35,0,0
190385,-125,4,2,22,50,0,0
190527,-125,4,2,26,40,0,0
190951,-125,4,2,32,40,0,0
191376,-125,4,2,31,40,0,0
191659,-125,4,2,2,50,0,0
191800,-125,4,2,20,50,0,0
191942,-125,4,2,21,35,0,0
192083,-125,4,2,22,35,0,0
192225,-125,4,2,23,40,0,0
192366,-125,4,2,24,50,0,0
192649,-125,4,2,23,40,0,0
192791,-125,4,2,25,50,0,0
192932,-125,4,2,26,35,0,0
193074,-125,4,2,22,35,0,0
193215,-125,4,2,25,50,0,0
193357,-125,4,2,26,35,0,0
193498,-125,4,2,25,50,0,0
193640,-125,4,2,27,35,0,0
193781,-125,4,2,28,40,0,0
193923,-125,4,2,45,45,0,0
194064,-125,4,2,33,50,0,0
194206,-125,4,2,28,35,0,0
194347,-125,4,2,27,35,0,0
194489,-125,4,2,34,50,0,0
194630,-125,4,2,28,35,0,0
194772,-125,4,2,27,35,0,0
194913,-125,4,2,29,50,0,0
195055,-125,4,2,35,50,0,0
195479,-125,4,2,1,50,0,0
196329,-125,4,2,20,40,0,0
196470,-125,4,2,21,25,0,0
196612,-125,4,2,50,30,0,0
196753,-125,4,2,51,35,0,0
196895,-125,4,2,52,40,0,0
197036,-125,4,2,50,30,0,0
197178,-125,4,2,51,35,0,0
197319,-125,4,2,53,40,0,0
197461,-125,4,2,54,30,0,0
197602,-125,4,2,50,35,0,0
197744,-125,4,2,53,40,0,0
197885,-125,4,2,54,30,0,0
198027,-125,4,2,53,40,0,0
198168,-125,4,2,55,30,0,0
198310,-125,4,2,56,35,0,0
198451,-125,4,2,57,40,0,0
198593,-125,4,2,58,25,0,0
198734,-125,4,2,59,25,0,0
198876,-125,4,2,60,30,0,0
199017,-125,4,2,61,35,0,0
199159,-125,4,2,50,40,0,0
199300,-125,4,2,62,30,0,0
199442,-125,4,2,50,40,0,0
199583,-125,4,2,54,35,0,0
199725,-125,4,2,62,30,0,0
199866,-125,4,2,54,40,0,0
200008,-125,4,2,63,35,0,0
200149,-125,4,2,59,30,0,0
200291,-125,4,2,64,30,0,0
200432,-125,4,2,61,40,0,0
200574,-125,4,2,64,35,0,0
200715,-125,4,2,65,30,0,0
200857,-125,4,2,20,40,0,0
200998,-125,4,2,21,25,0,0
201140,-125,4,2,59,30,0,0
201281,-125,4,2,62,35,0,0
201423,-125,4,2,63,40,0,0
201564,-125,4,2,59,25,0,0
201706,-125,4,2,62,30,0,0
201847,-125,4,2,61,40,0,0
201989,-125,4,2,64,30,0,0
202130,-125,4,2,59,35,0,0
202272,-125,4,2,61,40,0,0
202413,-125,4,2,64,30,0,0
202555,-125,4,2,61,40,0,0
202696,-125,4,2,66,30,0,0
202838,-125,4,2,60,35,0,0
202979,-125,4,2,50,40,0,0
203121,-125,4,2,55,45,0,0
203263,-125,4,2,60,40,0,0
203404,-125,4,2,66,42,0,0
203546,-125,4,2,51,44,0,0
203687,-125,4,2,60,46,0,0
203829,-125,4,2,66,48,0,0
203970,-125,4,2,50,50,0,0
204112,-125,4,2,67,55,0,0
204253,-119.047619047619,4,2,67,10,0,0
206517,-125,4,2,67,10,0,0

[Colours]
Combo1 : 190,0,0
Combo2 : 191,191,255
Combo3 : 128,128,255
Combo4 : 255,128,128

[HitObjects]
419,42,480,6,0,P|411:73|398:108,1,61.5999981201172,10|2,1:2|3:2,0:0:0:0:
471,155,763,2,0,P|479:124|492:89,1,61.5999981201172,2|10,3:2|0:1,0:0:0:0:
389,185,1046,2,0,P|336:203|268:220,1,123.199996240234,2|2,0:0|0:0,0:0:0:0:
196,255,1470,6,0,P|231:206|221:145,1,123.199996240234,2|2,1:2|0:0,0:0:0:0:
171,88,1895,1,2,0:0:0:0:
291,17,2178,1,2,0:0:0:0:
145,189,2461,37,2,0:0:0:0:
145,189,2602,1,2,1:2:0:0:
145,189,2744,2,0,P|106:197|75:206,1,61.5999981201172,0|0,1:2|3:0,0:0:0:0:
137,273,3027,2,0,P|98:281|67:290,1,61.5999981201172,2|10,3:2|0:1,0:0:0:0:
0,323,3310,2,0,P|71:333|102:374,1,123.199996240234,2|2,0:0|0:0,0:0:0:0:
194,349,3734,6,0,P|228:291|210:226,1,123.199996240234,2|0,1:2|3:2,0:0:0:0:
157,191,4159,1,10,0:0:0:0:
376,8,4442,1,10,0:0:0:0:
414,115,4583,2,0,L|291:89,1,123.199996240234,10|0,1:1|0:0,0:0:0:0:
293,89,5008,38,0,P|286:54|276:27,1,61.5999981201172,10|2,1:2|3:2,0:0:0:0:
195,57,5291,2,0,P|202:92|212:119,1,61.5999981201172,2|10,3:2|0:1,0:0:0:0:
157,191,5574,6,0,P|93:191|45:143,1,123.199996240234,2|2,0:0|0:0,0:0:0:0:
8,304,5998,2,0,P|78:287|156:273,1,123.199996240234,2|2,1:2|0:0,0:0:0:0:
207,313,6423,2,0,P|216:273|225:247,1,61.5999981201172,2|2,0:0|0:0,0:0:0:0:
294,200,6706,1,2,0:0:0:0:
364,253,6847,1,10,3:2:0:0:
311,318,6989,1,10,0:3:0:0:
311,318,7130,1,10,0:3:0:0:
391,370,7272,38,0,P|473:334|465:233,2,184.799994360352,6|2|2,1:2|0:0|0:0,0:0:0:0:
222,253,8263,2,0,B|261:227|318:233|340:279|340:279|311:292|294:331,1,184.799994360352,6|2,1:2|0:0,0:0:0:0:
501,141,8970,5,0,0:0:0:0:
434,92,9112,1,2,0:1:0:0:
350,114,9253,1,2,0:1:0:0:
310,199,9395,1,2,0:1:0:0:
183,162,9536,6,0,P|149:106|153:41,1,132,6|0,1:2|0:0,0:0:0:0:
152,41,9819,1,2,3:2:0:0:
241,90,9961,1,8,0:0:0:0:
192,262,10102,2,0,P|150:247|106:240,1,88,2|2,1:2|1:2,0:0:0:0:
124,330,10385,37,2,3:2:0:0:
259,194,10527,2,0,B|358:172|334:225|440:193,1,176,10|10,0:0|0:0,0:0:0:0:
332,285,10951,2,0,P|348:324|356:379,1,88,2|2,1:2|3:1,0:0:0:0:
355,369,11163,1,0,3:0:0:0:
355,369,11234,1,2,3:2:0:0:
504,246,11376,1,10,0:0:0:0:
452,383,11517,2,0,P|436:344|428:289,1,88,2|2,1:2|1:2,0:0:0:0:
512,128,11800,6,0,P|471:149|423:159,1,88,2|2,1:1|0:1,0:0:0:0:
430,158,12013,1,0,3:0:0:0:
430,158,12083,1,2,3:2:0:0:
268,43,12225,2,0,B|335:38|343:95|343:95|302:119|304:163,1,176,10|2,0:0|1:2,0:0:0:0:
223,123,12649,1,2,3:2:0:0:
370,238,12791,38,0,P|300:201|205:220,1,176,10|8,0:0|0:0,0:0:0:0:
74,198,13215,2,0,P|51:151|43:107,1,88,2|2,1:2|0:1,0:0:0:0:
143,277,13498,2,0,P|120:324|112:368,1,88,10|2,0:0|0:0,0:0:0:0:
113,359,13711,1,0,3:0:0:0:
113,359,13781,2,0,P|72:369|26:385,1,88,2|2,3:1|3:1,0:0:0:0:
208,218,14064,6,0,B|302:218|294:181|383:190,1,176,6|2,1:1|3:2,0:0:0:0:
338,332,14489,1,10,0:0:0:0:
500,288,14630,2,0,P|456:282|415:265,1,88,2|10,1:2|0:0,0:0:0:0:
306,106,14913,37,2,3:2:0:0:
421,18,15055,2,0,P|399:101|379:194,1,176,2|8,1:2|0:0,0:0:0:0:
338,332,15479,2,0,P|294:340|244:355,1,88,2|0,1:2|3:0,0:0:0:0:
252,352,15692,1,0,3:0:0:0:
252,352,15763,1,10,0:0:0:0:
129,297,15904,1,10,0:0:0:0:
238,188,16046,2,0,P|230:237|214:282,1,88,10|10,1:3|1:3,0:0:0:0:
24,155,16329,37,6,1:2:0:0:
320,74,16753,1,10,0:3:0:0:
84,14,17036,5,2,1:2:0:0:
122,106,17178,1,10,0:3:0:0:
206,49,17319,1,6,1:2:0:0:
256,192,17390,12,2,18451,0:1:0:0:
446,184,18593,38,0,P|456:114|488:51,1,140.8,2|2,0:0|0:1,0:0:0:0:
304,8,19583,2,0,P|312:95|354:171,1,176,2|0,0:0|1:2,0:0:0:0:
326,267,20432,2,0,P|290:275|255:288,1,70.4,0|2,0:0|0:0,0:0:0:0:
123,352,20857,21,10,0:0:0:0:
260,193,20998,1,2,1:2:0:0:
60,149,21140,1,10,0:0:0:0:
136,237,21281,1,10,1:1:0:0:
136,237,21564,2,0,P|150:201|159:140,1,88,10|0,1:1|0:0,0:0:0:0:
326,267,21847,38,0,B|351:251|386:246|386:246|427:259|427:259|461:246|496:238,1,176,6|10,1:1|0:0,0:0:0:0:
341,145,22272,1,4,1:2:0:0:
445,76,22413,1,2,0:0:0:0:
445,76,22484,1,2,0:0:0:0:
445,76,22555,2,0,P|439:124|426:170,1,88,8|8,0:0|1:3,0:0:0:0:
499,351,22838,1,2,1:2:0:0:
499,351,23121,38,0,P|451:315|364:326,1,140.8,6|0,1:2|0:0,0:0:0:0:
373,320,23546,1,0,0:0:0:0:
275,375,23687,2,0,P|281:342|294:303,2,70.4,8|0|0,0:0|0:0|0:0,0:0:0:0:
208,257,24112,6,0,P|268:267|332:217,1,140.8,2|8,1:2|0:0,0:0:0:0:
448,169,24536,2,0,P|438:202|432:237,1,70.4,0|0,1:2|0:0,0:0:0:0:
432,237,24819,1,10,0:0:0:0:
497,94,24961,2,0,P|436:132|365:121,1,140.8,0|0,0:0|3:0,0:0:0:0:
296,70,25385,37,2,1:2:0:0:
274,158,25668,1,0,1:2:0:0:
249,249,25951,1,8,0:0:0:0:
110,361,26234,5,2,1:2:0:0:
29,327,26376,2,0,P|113:310|170:291,1,140.8,0|8,1:2|0:0,0:0:0:0:
165,292,26800,2,0,P|180:329|188:375,1,70.4,10|0,1:1|0:0,0:0:0:0:
278,283,27083,2,0,P|293:246|301:200,1,70.4,10|0,0:0|0:0,0:0:0:0:
355,384,27366,2,0,P|399:358|458:360,1,105.6,2|0,1:2|0:0,0:0:0:0:
474,368,27649,37,6,1:2:0:0:
507,286,27932,1,0,1:2:0:0:
472,195,28215,1,8,0:0:0:0:
376,170,28498,5,2,0:0:0:0:
512,52,28640,2,0,P|460:91|367:68,1,140.8,2|10,1:2|0:0,0:0:0:0:
310,20,29064,2,0,P|300:54|292:91,1,70.4,0|2,1:2|0:0,0:0:0:0:
229,185,29347,1,8,0:0:0:0:
185,97,29489,1,2,0:0:0:0:
331,166,29630,2,0,P|340:223|354:275,1,105.6,2|0,1:2|0:0,0:0:0:0:
344,290,29913,38,0,P|423:283|480:331,1,140.8,2|0,1:2|1:2,0:0:0:0:
470,316,30338,1,2,0:0:0:0:
487,176,30479,2,0,P|456:191|417:200,1,70.4,8|0,0:0|0:0,0:0:0:0:
344,290,30763,2,0,P|330:323|322:359,1,70.4,2|0,0:0|1:2,0:0:0:0:
256,244,31046,5,2,0:0:0:0:
185,200,31187,1,10,0:0:0:0:
166,118,31329,1,2,1:2:0:0:
229,60,31470,1,0,3:2:0:0:
229,60,31541,1,0,3:2:0:0:
229,60,31612,2,0,P|268:71|300:78,1,70.4,10|8,0:0|0:0,0:0:0:0:
364,27,31895,1,0,1:2:0:0:
254,157,32036,1,8,0:0:0:0:
466,180,32178,38,0,P|397:174|332:226,1,140.8,6|0,1:2|0:0,0:0:0:0:
340,212,32602,1,0,1:2:0:0:
254,157,32744,2,0,P|245:204|234:243,1,70.4,8|0,0:0|0:0,0:0:0:0:
298,377,33027,5,2,0:0:0:0:
370,330,33168,2,0,P|311:295|233:320,1,140.8,2|8,1:2|0:0,0:0:0:0:
244,310,33593,1,0,1:2:0:0:
1,201,33876,38,0,P|73:186|139:167,1,140.8,10|2,0:0|0:0,0:0:0:0:
137,167,34300,1,2,0:0:0:0:
204,91,34442,5,2,1:2:0:0:
287,209,34725,1,0,1:2:0:0:
440,161,35008,1,8,0:0:0:0:
380,14,35291,37,2,0:0:0:0:
380,14,35432,2,0,P|338:63|354:145,1,140.8,0|8,1:2|0:0,0:0:0:0:
440,161,35857,2,0,P|481:150|525:142,1,70.4,0|2,1:2|0:0,0:0:0:0:
371,279,36140,5,14,0:1:0:0:
371,279,36281,2,0,P|330:290|286:298,1,70.4
472,368,36564,5,2,0:0:0:0:
472,368,36635,1,2,0:0:0:0:
472,368,36706,1,2,1:2:0:0:
260,221,36989,21,8,0:0:0:0:
221,372,37130,1,2,0:0:0:0:
107,252,37272,1,2,3:2:0:0:
211,287,37413,2,0,P|193:293|162:302,2,35.2,0|0|0,3:0|3:0|3:0,0:0:0:0:
292,119,37696,1,2,0:0:0:0:
345,178,37838,22,0,B|268:194|288:146|206:164,1,140.8,2|8,1:2|0:0,0:0:0:0:
40,95,38263,1,2,0:0:0:0:
76,24,38404,2,0,P|124:82|112:137,1,105.6,2|0,3:2|0:0,0:0:0:0:
111,132,38687,1,0,3:0:0:0:
151,252,38829,1,2,0:0:0:0:
293,117,38970,22,0,P|365:102|430:82,1,140.8,2|0,1:2|3:0,0:0:0:0:
387,184,39395,1,2,0:0:0:0:
512,33,39536,22,0,P|464:87|484:160,1,140.8,2|0,1:2|3:0,0:0:0:0:
495,163,39890,1,0,3:0:0:0:
505,187,39961,1,2,3:2:0:0:
508,211,40031,1,0,3:0:0:0:
499,234,40102,2,0,P|461:243|409:258,1,70.4,2|0,1:2|0:0,0:0:0:0:
324,378,40385,2,0,P|335:340|348:288,1,70.4,8|2,0:0|0:0,0:0:0:0:
291,172,40668,38,0,B|225:151|188:192|206:205|153:245|85:225,1,211.2,10|0,1:3|0:0,0:0:0:0:
40,282,41234,37,6,1:2:0:0:
169,325,41517,1,0,1:2:0:0:
303,266,41800,1,0,1:2:0:0:
341,108,42083,1,2,1:2:0:0:
401,196,42366,5,10,1:3:0:0:
224,93,42649,1,8,1:3:0:0:
48,206,42932,1,10,1:3:0:0:
90,380,43215,1,10,1:3:0:0:
115,353,43286,1,8,1:3:0:0:
144,340,43357,1,8,1:3:0:0:
175,338,43428,1,8,1:3:0:0:
208,347,43498,37,6,1:2:0:0:
378,278,43781,1,2,1:2:0:0:
170,208,44064,1,2,1:2:0:0:
404,133,44347,1,2,1:2:0:0:
142,67,44630,5,10,1:3:0:0:
472,198,44913,1,8,1:3:0:0:
240,384,45196,2,0,P|253:271|284:168,1,211.2,10|8,0:0|1:3,0:0:0:0:
200,16,45763,37,6,1:2:0:0:
200,16,46046,1,0,1:2:0:0:
391,73,46329,6,0,P|361:86|317:95,1,70.4,0|0,1:2|0:0,0:0:0:0:
213,198,46612,2,0,P|243:185|287:176,1,70.4,2|0,1:2|0:0,0:0:0:0:
430,266,46895,38,0,P|384:251|328:250,1,88,10|0,1:3|0:0,0:0:0:0:
138,85,47178,2,0,P|184:100|240:101,1,88,8|0,1:3|0:0,0:0:0:0:
255,275,47461,6,0,P|239:321|232:361,1,88,10|0,1:3|0:0,0:0:0:0:
489,184,47744,2,0,P|505:138|512:98,1,88,8|0,1:3|0:0,0:0:0:0:
338,344,48027,38,0,B|220:367|260:277|143:303,1,198.000007553101,6|0,1:2|0:0,0:0:0:0:
62,355,48310,5,0,3:0:0:0:
20,341,48380,1,0,3:0:0:0:
0,310,48451,1,0,3:0:0:0:
0,269,48522,1,0,3:0:0:0:
26,232,48593,38,0,P|52:241|86:248,1,52.7999983886719,8|8,1:3|1:3,0:0:0:0:
191,166,48734,2,0,P|216:171|241:180,1,52.7999983886719,8|8,1:3|1:3,0:0:0:0:
61,65,48876,1,8,1:3:0:0:
147,307,49017,6,0,B|262:317|234:231|378:255,1,211.199993554688,10|0,0:0|0:0,0:0:0:0:
352,258,49442,2,0,P|340:291|335:325,1,52.7999983886719,0|0,3:0|3:0,0:0:0:0:
437,370,49583,37,0,3:0:0:0:
437,370,49654,1,0,3:0:0:0:
437,370,49725,2,0,P|442:344|452:319,1,52.7999983886719,2|0,3:2|3:0,0:0:0:0:
472,201,49866,5,0,3:0:0:0:
503,170,49937,1,0,3:0:0:0:
510,127,50008,1,2,3:2:0:0:
497,90,50079,1,0,3:0:0:0:
467,63,50149,1,0,3:0:0:0:
430,56,50220,1,0,3:0:0:0:
390,72,50291,6,0,B|358:115|358:115|302:136|239:117,1,171.599992144776,6|0,1:2|0:0,0:0:0:0:
207,102,50574,2,0,P|199:52|181:-2,1,105.599996777344,8|0,0:0|0:0,0:0:0:0:
93,262,50857,5,0,1:2:0:0:
257,195,50998,1,0,1:2:0:0:
61,110,51140,1,10,0:0:0:0:
41,349,51281,38,0,P|116:350|181:290,1,158.399995166016,0|0,1:2|0:0,0:0:0:0:
182,284,51564,1,0,1:2:0:0:
372,138,51706,2,0,P|358:181|347:247,1,105.599996777344,8|0,0:0|0:0,0:0:0:0:
432,322,51989,5,2,1:2:0:0:
249,188,52130,1,0,1:2:0:0:
221,376,52272,2,0,P|279:366|330:344,1,105.599996777344,10|0,0:0|0:0,0:0:0:0:
372,138,52555,37,2,1:2:0:0:
264,271,52696,1,0,0:0:0:0:
199,50,52838,1,8,0:0:0:0:
45,146,52979,2,0,P|93:167|144:178,1,105.599996777344,2|0,0:0|1:2,0:0:0:0:
277,87,53263,5,0,1:2:0:0:
173,272,53404,1,10,0:0:0:0:
451,241,53546,38,0,P|382:174|270:189,1,211.199993554688,4|0,1:2|1:2,0:0:0:0:
50,29,53970,2,0,P|103:46|158:61,1,105.599996777344,10|0,0:0|0:0,0:0:0:0:
299,91,54253,5,2,1:2:0:0:
155,190,54395,1,0,1:2:0:0:
297,271,54536,1,10,0:0:0:0:
174,374,54678,5,0,0:0:0:0:
174,374,54748,1,0,0:0:0:0:
174,374,54819,2,0,P|182:320|203:267,1,105.599996777344,6|0,1:2|0:0,0:0:0:0:
488,140,55102,2,0,P|428:191|341:175,1,158.399995166016,8|0,0:0|0:0,0:0:0:0:
332,154,55385,1,0,1:2:0:0:
292,315,55527,1,0,1:2:0:0:
159,182,55668,1,10,0:0:0:0:
20,296,55810,38,0,B|74:283|74:283|119:293|119:293|175:280,1,158.399995166016,2|0,1:2|0:0,0:0:0:0:
200,272,56093,1,0,1:2:0:0:
351,50,56234,2,0,P|345:107|329:158,1,105.599996777344,8|0,0:0|0:0,0:0:0:0:
388,330,56517,5,2,1:2:0:0:
246,193,56659,1,0,1:2:0:0:
481,172,56800,2,0,P|433:238|354:242,1,158.399995166016,10|0,0:0|0:0,0:0:0:0:
326,262,57083,38,0,P|308:310|298:372,1,105.599996777344,2|0,1:2|0:0,0:0:0:0:
46,305,57366,2,0,P|98:294|159:270,1,105.599996777344,8|0,0:0|0:0,0:0:0:0:
228,146,57649,1,8,0:0:0:0:
242,166,57720,1,0,1:0:0:0:
246,193,57791,1,8,1:3:0:0:
207,343,57932,1,8,0:0:0:0:
361,244,58074,6,0,P|445:233|487:120,1,211.199993554688,6|0,1:2|1:2,0:0:0:0:
306,13,58498,2,0,P|315:68|332:120,1,105.599996777344,8|0,0:0|0:0,0:0:0:0:
266,291,58781,1,2,1:2:0:0:
183,165,58923,38,0,P|214:173|243:177,1,52.7999983886719,0|0,3:0|3:0,0:0:0:0:
174,365,59064,1,2,3:2:0:0:
130,379,59135,1,0,3:0:0:0:
86,377,59206,1,0,3:0:0:0:
61,346,59277,1,0,3:0:0:0:
53,299,59347,38,0,P|69:248|85:141,1,158.399995166016,6|0,1:2|0:0,0:0:0:0:
18,56,59630,2,0,P|106:118|194:80,1,211.199993554688,8|0,0:0|1:2,0:0:0:0:
376,167,60055,1,0,1:2:0:0:
321,7,60196,1,10,0:0:0:0:
234,176,60338,6,0,B|213:203|187:224|187:224|199:299|224:366,1,211.199993554688,0|0,1:2|1:2,0:0:0:0:
404,279,60763,2,0,P|345:274|299:259,1,105.599996777344,8|0,0:0|0:0,0:0:0:0:
161,212,61046,37,2,1:2:0:0:
313,112,61187,1,0,1:2:0:0:
190,0,61329,2,0,P|197:57|215:106,1,105.599996777344,10|0,0:0|0:0,0:0:0:0:
87,293,61612,5,2,1:2:0:0:
258,192,61753,1,0,0:0:0:0:
81,101,61895,1,8,0:0:0:0:
216,287,62036,38,0,P|290:288|350:233,1,158.399995166016,2|0,0:0|0:0,0:0:0:0:
352,215,62319,1,2,1:2:0:0:
266,48,62461,1,10,0:0:0:0:
511,61,62602,6,0,B|445:42|410:91|423:95|387:143|315:120,1,211.199993554688,4|0,1:2|1:2,0:0:0:0:
172,0,63027,2,0,P|157:57|150:108,1,105.599996777344,10|0,0:0|0:0,0:0:0:0:
236,289,63310,37,2,1:2:0:0:
150,103,63451,1,0,1:2:0:0:
22,226,63593,2,0,P|88:215|143:262,1,132,10|0,0:0|0:0,0:0:0:0:
151,279,63876,22,0,P|135:324|126:369,1,88,6|0,1:2|0:0,0:0:0:0:
305,211,64159,2,0,P|390:194|479:164,1,176,8|2,0:0|1:3,0:0:0:0:
462,276,64583,2,0,P|415:284|373:296,1,88,0|2,1:2|0:3,0:0:0:0:
279,361,64866,1,8,0:0:0:0:
255,147,65008,6,0,P|220:202|240:272,1,132,2|0,1:2|0:0,0:0:0:0:
213,292,65291,2,0,P|174:282|123:275,1,88,8|0,0:0|0:0,0:0:0:0:
14,189,65574,1,0,1:2:0:0:
182,108,65715,1,0,1:2:0:0:
48,9,65857,2,0,P|57:62|75:103,1,88,10|0,0:0|0:0,0:0:0:0:
135,209,66140,38,0,B|223:212|212:150|317:162,1,176,6|10,1:2|0:0,0:0:0:0:
313,169,66494,1,2,0:0:0:0:
321,179,66564,1,2,0:0:0:0:
512,57,66706,6,0,P|468:4|404:16,1,132,6|0,1:2|0:0,0:0:0:0:
400,18,66989,2,0,P|395:66|384:114,1,88,10|0,0:0|0:0,0:0:0:0:
499,251,67272,38,0,B|402:236|415:296|315:277,1,176,6|8,1:2|0:0,0:0:0:0:
183,300,67696,1,8,0:0:0:0:
319,364,67838,1,2,1:2:0:0:
245,232,67979,1,0,1:0:0:0:
225,384,68121,1,8,0:0:0:0:
31,278,68404,6,0,P|-6:220|17:165,1,118.799996374512,6|0,1:2|0:0,0:0:0:0:
27,157,68687,2,0,P|68:173|107:182,1,79.1999975830079,8|0,0:0|0:0,0:0:0:0:
265,96,68970,37,2,1:3:0:0:
143,20,69112,2,0,P|153:61|165:97,1,79.1999975830079,0|2,1:2|0:3,0:0:0:0:
310,211,69395,1,8,0:0:0:0:
499,96,69536,6,0,P|432:94|387:136,1,118.799996374512,0|0,1:2|0:0,0:0:0:0:
386,141,69819,2,0,P|397:181|408:223,1,79.1999975830079,8|0,0:0|0:0,0:0:0:0:
346,367,70102,37,0,1:2:0:0:
481,265,70244,1,0,1:2:0:0:
310,211,70385,1,10,0:0:0:0:
310,211,70668,6,0,P|264:225|147:247,1,158.399995166016,6|8,1:2|0:0,0:0:0:0:
253,314,71093,1,0,0:0:0:0:
349,114,71234,38,0,P|395:128|512:150,1,158.399995166016,6|10,1:2|0:0,0:0:0:0:
406,217,71659,1,0,0:0:0:0:
269,11,71800,6,0,P|223:25|106:47,1,158.399995166016,6|10,1:2|0:0,0:0:0:0:
212,114,72225,1,8,0:0:0:0:
94,205,72366,38,0,P|105:165|122:129,1,79.1999975830079,2|0,1:2|1:2,0:0:0:0:
235,278,72649,2,0,P|218:313|208:352,1,79.1999975830079,8|0,0:0|0:0,0:0:0:0:
326,178,72932,6,0,P|397:170|434:139,1,118.799996374512,2|0,1:2|0:0,0:0:0:0:
444,116,73215,2,0,P|434:78|429:36,1,79.1999975830079,10|0,0:0|0:0,0:0:0:0:
453,224,73498,37,2,3:2:0:0:
509,296,73640,2,0,P|450:252|365:270,1,158.399995166016,8|0,0:0|3:0,0:0:0:0:
349,286,73994,1,0,3:0:0:0:
349,286,74064,6,0,P|339:327|329:364,1,79.1999975830079,2|0,1:2|0:0,0:0:0:0:
240,241,74347,2,0,P|220:159|200:85,1,158.399995166016,10|2,0:0|1:2,0:0:0:0:
377,14,74772,2,0,P|363:91|286:109,1,158.399995166016,8|0,0:0|3:0,0:0:0:0:
293,111,75126,1,0,3:0:0:0:
293,111,75196,1,2,1:2:0:0:
70,16,75479,38,0,P|59:53|51:92,1,79.1999975830079,14|0,0:0|0:0,0:0:0:0:
192,194,75763,1,8,0:0:0:0:
192,194,75833,1,0,1:0:0:0:
192,194,75904,1,8,1:3:0:0:
16,251,76046,1,10,0:0:0:0:
145,82,76187,6,0,B|192:64|225:90|220:94|247:125|297:110,1,158.399995166016,6|2,1:2|0:0,0:0:0:0:
201,344,77461,38,0,P|193:309|183:276,1,70.4,2|2,1:2|0:0,0:0:0:0:
257,225,77744,1,2,1:2:0:0:
323,286,77885,1,2,0:0:0:0:
410,249,78027,2,0,B|433:171|461:227|478:132,1,140.8,10|2,0:0|3:2,0:0:0:0:
507,48,78451,2,0,P|467:96|384:88,1,140.8,10|2,1:1|0:0,0:0:0:0:
340,37,78876,1,2,1:2:0:0:
222,218,79159,5,2,3:2:0:0:
222,218,79300,2,0,P|230:180|240:141,1,70.4,10|2,0:0|3:2,0:0:0:0:
142,60,79583,37,2,3:2:0:0:
142,60,79654,1,0,3:2:0:0:
142,60,79725,2,0,P|97:85|38:76,1,105.6,0|0,1:2|0:0,0:0:0:0:
28,69,80008,2,0,P|37:33|45:0,1,70.4,2|2,1:2|0:0,0:0:0:0:
0,186,80291,6,0,P|72:181|132:236,1,140.8,10|2,0:0|3:2,0:0:0:0:
157,300,80715,2,0,P|175:226|197:158,1,140.8,10|0,1:1|3:0,0:0:0:0:
194,164,81069,1,0,3:0:0:0:
194,164,81140,1,10,0:0:0:0:
440,15,81423,37,8,0:0:0:0:
381,104,81564,1,2,1:2:0:0:
282,67,81706,1,8,0:0:0:0:
282,67,81989,5,8,0:0:0:0:
355,207,82130,1,8,0:0:0:0:
512,144,82272,2,0,P|500:178|491:217,1,70.4,6|2,1:2|0:0,0:0:0:0:
512,301,82555,2,0,P|460:345|388:339,1,140.8,10|2,0:0|3:2,0:0:0:0:
256,192,82979,1,10,1:1:0:0:
256,192,83829,37,10,0:0:0:0:
314,124,83970,1,10,0:3:0:0:
297,45,84112,1,8,0:3:0:0:
214,15,84253,5,6,1:2:0:0:
448,160,84678,37,2,0:0:0:0:
232,272,85102,5,2,0:0:0:0:
256,192,85244,1,6,1:2:0:0:
256,192,85314,12,2,86517,0:0:0:0:
287,81,88215,54,0,P|282:58|274:28,3,52.7999983886719,0|2|2|2,1:2|0:0|0:0|0:0,0:0:0:0:
401,20,88781,5,10,0:0:0:0:
236,167,88923,1,2,1:2:0:0:
440,248,89064,1,10,0:0:0:0:
364,140,89206,1,10,1:1:0:0:
364,140,89489,2,0,P|324:157|275:172,1,88,10|0,1:1|0:0,0:0:0:0:
161,307,89772,38,0,P|94:307|49:251,1,132,6|0,1:1|0:0,0:0:0:0:
45,246,90055,1,10,0:0:0:0:
154,138,90196,2,0,P|146:181|132:229,1,88,4|2,1:2|0:0,0:0:0:0:
375,377,90479,5,8,0:0:0:0:
480,224,90621,2,0,B|393:197|344:264|387:271|331:338|250:309,1,264,8|6,1:3|1:2,0:0:0:0:
254,310,91329,21,0,0:0:0:0:
201,246,91470,1,0,0:0:0:0:
112,267,91612,1,8,0:0:0:0:
15,86,91895,5,2,0:0:0:0:
87,44,92036,2,0,P|154:59|176:123,1,140.8,2|8,1:2|0:0,0:0:0:0:
176,121,92461,1,0,1:2:0:0:
322,211,92744,38,0,P|397:196|459:171,1,140.8,10|0,0:0|3:2,0:0:0:0:
488,186,93121,1,0,3:0:0:0:
501,219,93215,1,0,3:0:0:0:
484,252,93310,5,2,1:2:0:0:
319,110,93593,1,0,1:2:0:0:
248,316,93876,1,8,0:0:0:0:
97,217,94159,37,2,1:2:0:0:
97,217,94300,2,0,B|170:224|162:177|236:189,1,140.8,0|8,1:2|0:0,0:0:0:0:
401,90,94725,2,0,P|360:55|304:62,1,105.6,10|0,1:1|0:0,0:0:0:0:
295,70,95008,2,0,P|308:110|315:142,1,70.4,10|0,0:0|0:0,0:0:0:0:
372,340,95291,5,2,1:2:0:0:
501,260,95432,1,0,0:0:0:0:
374,193,95574,37,6,1:2:0:0:
416,268,95857,5,0,1:2:0:0:
372,340,96140,37,8,0:0:0:0:
261,283,96423,5,2,0:0:0:0:
261,283,96564,2,0,P|294:276|331:266,1,70.4,2|0,1:2|0:0,0:0:0:0:
216,358,96847,2,0,P|173:293|186:231,1,140.8,10|2,0:0|0:0,0:0:0:0:
247,159,97272,1,8,0:0:0:0:
89,225,97413,1,2,0:0:0:0:
117,67,97555,2,0,P|131:100|141:146,1,70.4,2|2,1:2|0:0,0:0:0:0:
139,133,97767,1,0,0:0:0:0:
139,133,97838,37,2,1:2:0:0:
295,225,98121,5,0,1:2:0:0:
354,35,98404,37,8,0:0:0:0:
256,117,98687,6,0,P|292:126|329:133,1,70.4,2|0,0:0|1:2,0:0:0:0:
473,243,98970,21,2,0:0:0:0:
498,273,99064,1,2,0:0:0:0:
496,311,99159,1,2,0:0:0:0:
423,352,99253,5,2,1:2:0:0:
409,331,99347,1,2,0:0:0:0:
410,301,99442,1,2,0:0:0:0:
496,311,99536,6,0,B|431:287|385:324|410:340|360:377|299:357,1,211.2,12|8,0:0|0:3,0:0:0:0:
218,384,100102,38,0,P|259:318|234:242,1,158.399995166016,6|0,1:2|0:0,0:0:0:0:
464,72,100951,6,0,P|446:208|317:151,1,316.799990332032,2|2,0:0|0:3,0:0:0:0:
256,8,102083,1,2,0:0:0:0:
403,137,102366,38,0,B|317:100|220:165|311:193|218:257|117:218,1,316.799990332032,6|2,1:2|0:0,0:0:0:0:
125,221,103781,5,8,0:3:0:0:
194,273,104064,1,2,0:0:0:0:
147,345,104347,37,0,1:2:0:0:
147,345,104489,1,0,1:2:0:0:
147,345,104630,2,0,B|258:315|237:386|357:357,1,211.199993554688,6|2,1:2|0:0,0:0:0:0:
427,195,105479,1,0,0:0:0:0:
491,248,105763,2,0,P|449:275|391:269,2,105.599996777344,2|0|2,0:0|0:0|0:0,0:0:0:0:
308,30,106895,5,2,0:0:0:0:
308,30,107178,1,0,0:0:0:0:
308,30,107461,38,0,P|294:68|290:100,1,70.4,0|0,1:2|0:0,0:0:0:0:
362,158,107744,2,0,P|374:125|379:90,1,70.4,0|0,1:2|0:0,0:0:0:0:
197,112,108027,6,0,P|210:151|218:195,1,79.1999975830079,8|0,1:2|0:0,0:0:0:0:
363,336,108310,2,0,P|350:297|342:253,1,79.1999975830079,8|0,1:2|0:0,0:0:0:0:
495,115,108593,38,0,P|456:158|342:143,1,158.399995166016,0|8,1:2|1:3,0:0:0:0:
250,266,109017,1,8,1:3:0:0:
197,112,109159,1,6,1:2:0:0:
197,112,109725,5,8,0:0:0:0:
275,48,110008,1,2,1:2:0:0:
95,92,110291,1,2,0:0:0:0:
58,251,110574,1,2,1:2:0:0:
164,368,110857,2,0,P|204:357|241:351,1,79.1999975830079,10|0,0:0|0:0,0:0:0:0:
335,293,111140,1,2,3:2:0:0:
407,384,111281,1,0,3:0:0:0:
497,316,111423,38,0,P|524:264|510:204,1,118.799996374512,2|0,1:2|0:0,0:0:0:0:
490,184,111706,2,0,P|451:198|414:209,1,79.1999975830079,0|0,1:2|0:0,0:0:0:0:
241,88,111989,1,8,0:0:0:0:
400,44,112272,6,0,B|312:10|312:10|349:157,1,237.599992749024,2|0,1:2|0:0,0:0:0:0:
228,225,112838,2,0,P|239:187|247:148,1,79.1999975830079,2|0,1:2|0:0,0:0:0:0:
463,352,113121,38,0,P|409:312|314:323,1,158.399995166016,10|2,0:0|3:2,0:0:0:0:
215,384,113546,5,0,3:2:0:0:
215,384,113616,1,0,3:2:0:0:
215,384,113687,2,0,P|226:345|233:300,1,79.1999975830079,2|0,1:2|0:0,0:0:0:0:
338,241,113970,2,0,P|327:280|320:325,1,79.1999975830079,0|0,1:2|0:0,0:0:0:0:
125,345,114253,38,0,P|71:295|98:201,1,158.399995166016,8|2,0:0|1:2,0:0:0:0:
173,183,114678,1,0,0:0:0:0:
92,116,114819,2,0,P|53:129|16:140,1,79.1999975830079,2|0,0:0|0:0,0:0:0:0:
156,261,115102,2,0,P|163:220|172:183,1,79.1999975830079,2|0,1:2|0:0,0:0:0:0:
135,27,115385,6,0,P|185:61|250:51,1,118.799996374512,10|0,0:0|0:0,0:0:0:0:
278,76,115668,2,0,P|285:38|300:-3,1,79.1999975830079,2|0,3:2|3:2,0:0:0:0:
298,0,115880,1,0,3:2:0:0:
298,0,115951,1,2,1:2:0:0:
379,239,116234,1,0,1:2:0:0:
511,104,116517,38,0,B|435:83|393:132|412:138|365:187|286:168,1,237.599992749024,8|0,0:0|0:0,0:0:0:0:
294,169,117083,1,2,3:2:0:0:
180,43,117366,1,0,1:2:0:0:
67,243,117649,2,0,B|104:250|119:272|119:272|177:231|166:151|90:126,1,237.599992749024,12|0,0:2|0:0,0:0:0:0:
39,67,118215,6,0,P|181:130|334:101,1,316.799990332032,4|0,1:2|0:0,0:0:0:0:
375,28,119347,37,4,1:2:0:0:
297,243,119772,1,8,0:3:0:0:
512,185,120196,1,8,0:3:0:0:
416,152,120338,1,0,0:0:0:0:
376,304,120479,6,0,B|311:325|270:276|292:274|240:227|180:253,2,211.2,4|0|0,1:2|0:0|3:2,0:0:0:0:
488,264,121470,1,0,3:2:0:0:
464,368,121612,38,0,B|402:333|363:237|409:117|409:117|409:164|453:192,1,352,4|8,1:2|1:3,0:0:0:0:
439,182,122461,5,0,3:2:0:0:
499,119,122602,1,0,3:2:0:0:
459,44,122744,2,0,P|386:73|312:92,2,140.8,6|0|8,1:2|0:0|0:0,0:0:0:0:
407,306,123593,37,2,0:0:0:0:
488,264,123734,2,0,P|422:222|357:238,1,140.8,2|8,1:2|0:0,0:0:0:0:
295,161,124159,2,0,P|285:203|279:237,1,70.4,0|0,1:2|0:0,0:0:0:0:
145,315,124442,6,0,B|106:295|67:308|67:308|51:339|23:353,1,140.8,10|2,0:0|0:0,0:0:0:0:
26,351,124866,1,2,0:0:0:0:
26,351,125008,37,2,1:2:0:0:
187,231,125291,1,0,1:2:0:0:
335,377,125574,1,8,0:0:0:0:
481,271,125857,5,2,0:0:0:0:
481,271,125998,2,0,P|465:204|447:128,1,140.8,0|8,1:2|0:0,0:0:0:0:
512,0,126423,2,0,P|502:36|495:74,1,70.4,0|2,1:2|0:0,0:0:0:0:
369,160,126706,37,14,0:1:0:0:
360,148,126777,1,0,3:0:0:0:
346,141,126847,1,0,3:0:0:0:
332,141,126918,1,0,3:0:0:0:
320,146,126989,2,0,P|315:168|308:183,3,35.2,0|0|2|0,3:0|3:0|3:2|3:0,0:0:0:0:
347,258,127272,22,0,P|287:216|217:232,1,140.8,2|8,1:2|0:0,0:0:0:0:
149,264,127696,1,2,0:0:0:0:
72,209,127838,1,2,3:2:0:0:
73,191,127908,1,0,3:0:0:0:
76,174,127979,1,0,3:0:0:0:
81,157,128050,1,0,3:0:0:0:
87,139,128121,2,0,P|79:113|71:66,1,70.4,0|2,3:0|0:0,0:0:0:0:
313,20,128404,22,0,P|273:75|190:64,1,140.8,2|8,1:2|0:0,0:0:0:0:
139,10,128829,1,2,0:0:0:0:
172,162,128970,22,0,L|163:202,3,35.2,2|0|0|0,3:2|3:0|3:0|3:0,0:0:0:0:
240,229,129253,2,0,L|247:194,3,35.2,0|2|2|2,3:0|3:2|3:2|3:2,0:0:0:0:
314,141,129536,22,0,P|383:125|455:100,1,140.8,2|0,1:2|3:0,0:0:0:0:
449,102,129961,1,2,0:0:0:0:
483,243,130102,22,0,P|414:259|342:284,1,140.8,2|0,1:2|3:0,0:0:0:0:
248,384,130527,1,2,3:2:0:0:
248,384,130597,1,0,3:0:0:0:
248,384,130668,2,0,P|257:348|263:313,1,70.4,2|0,1:2|0:0,0:0:0:0:
137,126,130951,2,0,P|128:162|122:197,1,70.4,8|2,0:0|0:0,0:0:0:0:
288,225,131234,38,0,B|233:203|191:238|201:245|151:292|94:274,1,211.2,10|0,1:3|0:0,0:0:0:0:
93,273,131800,37,6,1:2:0:0:
207,294,132083,1,0,1:2:0:0:
290,227,132366,1,0,1:2:0:0:
311,121,132649,1,2,1:2:0:0:
386,182,132932,5,10,1:3:0:0:
225,157,133215,1,8,1:3:0:0:
192,0,133498,1,10,1:3:0:0:
353,25,133781,1,10,1:3:0:0:
272,84,133923,37,8,1:3:0:0:
272,84,133994,1,8,1:3:0:0:
272,84,134064,1,6,1:2:0:0:
304,252,134347,1,2,1:2:0:0:
468,292,134630,1,2,1:2:0:0:
436,124,134913,1,2,1:2:0:0:
284,328,135196,5,10,1:3:0:0:
220,104,135479,1,8,1:3:0:0:
0,88,135763,1,10,0:0:0:0:
64,312,136046,1,8,1:3:0:0:
91,278,136116,1,8,1:3:0:0:
124,263,136187,1,8,1:3:0:0:
159,263,136258,1,8,1:3:0:0:
191,277,136329,37,6,1:2:0:0:
268,196,136612,1,0,1:2:0:0:
389,234,136895,1,0,1:2:0:0:
315,354,137178,2,0,P|307:319|293:280,1,70.4,2|0,1:2|0:0,0:0:0:0:
464,212,137461,6,0,P|422:227|388:234,1,79.1999975830079,10|0,1:3|0:0,0:0:0:0:
214,128,137744,2,0,P|256:113|290:106,1,79.1999975830079,8|0,1:3|0:0,0:0:0:0:
388,48,138027,38,0,P|376:93|369:139,1,88,10|0,1:3|0:0,0:0:0:0:
492,368,138310,2,0,P|499:324|510:282,1,88,8|0,1:3|0:0,0:0:0:0:
295,286,138593,6,0,B|276:255|229:247|196:270|196:270|185:296|156:320|108:315,1,198.000007553101,6|0,1:2|0:0,0:0:0:0:
47,350,138876,37,0,3:0:0:0:
38,341,138946,1,0,3:0:0:0:
32,333,139017,2,0,P|42:296|46:260,1,52.7999983886719,0|0,3:0|3:0,0:0:0:0:
5,178,139159,5,8,1:3:0:0:
46,194,139229,1,8,1:3:0:0:
91,185,139300,1,8,1:3:0:0:
121,161,139371,1,8,1:3:0:0:
138,119,139442,2,0,P|165:107|195:101,1,52.7999983886719,8|0,1:3|0:0,0:0:0:0:
385,196,139583,38,0,B|381:166|400:124|434:100|476:97|476:97|474:25|368:11|339:69|339:69|373:78|388:107,1,395.999987915039,10|2,0:0|0:0,0:0:0:0:
457,101,149206,5,0,1:2:0:0:
457,101,149277,1,0,1:2:0:0:
457,101,149347,2,0,B|467:81|491:70|491:70|434:16|362:32|339:105|361:153|361:153|389:160|413:191,1,316.799990332032,10|0,0:0|0:0,0:0:0:0:
507,296,149913,6,0,B|459:264|459:264|407:270|373:314,1,158.399995166016,6|0,1:2|0:0,0:0:0:0:
357,342,150196,2,0,P|308:334|251:316,1,105.599996777344,8|0,0:0|0:0,0:0:0:0:
105,375,150479,5,0,1:2:0:0:
296,244,150621,1,0,1:2:0:0:
102,179,150763,1,10,0:0:0:0:
163,268,150904,38,0,P|206:199|185:116,1,158.399995166016,0|0,1:2|0:0,0:0:0:0:
179,114,151187,1,0,1:2:0:0:
375,9,151329,2,0,P|360:64|345:114,1,105.599996777344,8|0,0:0|0:0,0:0:0:0:
368,240,151612,5,2,1:2:0:0:
268,79,151753,1,0,1:2:0:0:
407,164,151895,38,0,P|460:153|518:131,1,105.599996777344,10|2,0:0|0:0,0:0:0:0:
508,135,152107,1,2,0:0:0:0:
508,135,152178,1,2,1:2:0:0:
395,320,152319,1,0,0:0:0:0:
346,110,152461,1,8,0:0:0:0:
254,278,152602,6,0,P|200:326|104:312,1,158.399995166016,2|0,0:0|0:0,0:0:0:0:
100,310,152885,1,0,1:2:0:0:
256,181,153027,1,10,0:0:0:0:
138,137,153168,2,0,P|152:189|163:243,1,105.599996777344,4|0,1:2|0:0,0:0:0:0:
304,367,153451,1,0,1:2:0:0:
481,260,153593,38,0,P|430:212|346:221,1,158.399995166016,10|0,0:0|0:0,0:0:0:0:
323,237,153876,1,0,1:2:0:0:
465,117,154017,1,0,1:2:0:0:
351,18,154159,2,0,B|328:55|328:55|351:134,1,105.599996777344,10|0,0:0|0:0,0:0:0:0:
188,219,154442,21,2,1:2:0:0:
87,189,154583,1,0,0:0:0:0:
19,266,154725,1,8,0:0:0:0:
19,266,155008,5,2,1:3:0:0:
77,344,155149,2,0,P|119:329|171:321,1,88,0|2,1:2|0:3,0:0:0:0:
348,369,155432,1,8,0:0:0:0:
247,371,155574,38,0,B|260:294|290:339|301:249,1,132,0|0,1:2|0:0,0:0:0:0:
294,229,155857,2,0,P|251:243|209:250,1,88,8|0,0:0|0:0,0:0:0:0:
367,160,156140,1,0,1:2:0:0:
301,80,156281,1,0,0:0:0:0:
382,19,156423,2,0,P|425:33|467:40,1,88,8|0,0:0|0:0,0:0:0:0:
294,229,156706,5,4,1:2:0:0:
294,229,156989,21,2,3:2:0:0:
273,194,157060,1,2,3:2:0:0:
237,179,157130,1,2,3:2:0:0:
189,186,157201,1,2,3:2:0:0:
161,214,157272,1,4,1:2:0:0:
294,373,157555,5,0,3:2:0:0:
312,329,157626,1,0,3:2:0:0:
349,308,157696,1,0,3:2:0:0:
391,301,157767,1,0,3:2:0:0:
437,317,157838,2,0,P|449:292|455:264,1,57.1999973815919,12|0,3:1|3:0,0:0:0:0:
284,182,157979,5,0,3:0:0:0:
245,205,158050,1,0,3:0:0:0:
205,209,158121,1,0,3:0:0:0:
167,193,158192,1,0,3:0:0:0:
143,159,158263,2,0,P|151:132|156:103,1,57.1999973815919,12|0,3:1|3:0,0:0:0:0:
339,28,158404,37,0,3:0:0:0:
339,28,158475,1,0,3:0:0:0:
339,28,158546,2,0,P|331:55|326:84,1,57.1999973815919,0|0,3:0|3:0,0:0:0:0:
350,240,158687,6,0,B|392:194|441:188|441:188|471:214|518:205,1,171.599992144776,12|0,3:1|0:0,0:0:0:0:
509,202,158970,1,0,1:2:0:0:
449,341,159112,38,0,P|436:310|421:282,1,57.1999973815919,8|0,0:0|0:0,0:0:0:0:
446,65,159253,2,0,P|438:125|417:177,1,114.399994763184,0|0,1:2|1:2,0:0:0:0:
418,174,159465,1,8,0:0:0:0:
418,174,159536,1,8,0:0:0:0:
304,332,159678,1,0,0:0:0:0:
125,242,159819,5,0,3:0:0:0:
111,197,159890,1,0,3:0:0:0:
98,156,159961,1,0,3:0:0:0:
83,118,160031,1,0,3:0:0:0:
68,76,160102,6,0,B|123:88|123:88|163:73|163:73|235:88,1,158.399995166016,6|0,1:2|0:0,0:0:0:0:
249,58,160385,2,0,P|303:47|363:32,1,105.599996777344,8|0,0:0|0:0,0:0:0:0:
507,209,160668,5,0,1:2:0:0:
297,161,160810,1,0,1:2:0:0:
464,24,160951,1,10,0:0:0:0:
387,252,161093,38,0,P|309:264|227:283,1,158.399995166016,4|0,1:2|0:0,0:0:0:0:
216,287,161376,1,0,1:2:0:0:
271,65,161517,2,0,P|300:112|292:171,1,105.599996777344,8|0,0:0|0:0,0:0:0:0:
261,378,161800,5,2,1:2:0:0:
175,190,161942,1,0,1:2:0:0:
0,374,162083,38,0,P|80:375|145:324,1,158.399995166016,10|0,0:0|0:0,0:0:0:0:
143,320,162366,5,2,1:2:0:0:
75,106,162508,1,0,0:0:0:0:
251,248,162649,1,8,0:0:0:0:
52,198,162791,2,0,B|117:215|151:177|137:173|172:128|252:148,1,211.199993554688,2|0,0:0|1:2,0:0:0:0:
430,213,163215,1,10,0:0:0:0:
375,9,163357,38,0,P|371:60|353:117,1,105.599996777344,4|0,1:2|0:0,0:0:0:0:
286,359,163640,1,0,1:2:0:0:
499,293,163781,6,0,P|428:242|359:255,1,158.399995166016,10|0,0:0|0:0,0:0:0:0:
336,272,164064,1,0,1:2:0:0:
165,189,164206,1,0,1:2:0:0:
227,377,164347,1,10,0:0:0:0:
43,305,164489,5,2,0:0:0:0:
43,305,164560,1,2,0:0:0:0:
43,305,164630,2,0,B|117:280|117:280|172:293|172:293|249:267,1,211.199993554688,2|8,1:2|0:0,0:0:0:0:
448,208,165055,1,0,0:0:0:0:
371,373,165196,2,0,B|345:333|345:333|365:260,1,105.599996777344,0|0,1:2|1:2,0:0:0:0:
298,98,165479,1,10,0:0:0:0:
512,98,165621,38,0,P|463:166|342:167,1,211.199993554688,2|0,1:2|1:2,0:0:0:0:
162,22,166046,2,0,P|178:82|187:134,1,105.599996777344,8|0,0:0|0:0,0:0:0:0:
189,134,166258,1,2,0:0:0:0:
192,147,166329,1,2,1:2:0:0:
289,32,166470,1,0,1:2:0:0:
110,202,166612,2,0,P|188:188|259:249,1,158.399995166016,10|0,0:0|0:0,0:0:0:0:
263,257,166895,6,0,P|315:245|374:223,1,105.599996777344,2|0,1:2|0:0,0:0:0:0:
490,37,167178,2,0,P|438:49|379:71,1,105.599996777344,8|0,0:0|0:0,0:0:0:0:
429,277,167461,1,8,0:0:0:0:
440,261,167531,1,0,1:0:0:0:
444,242,167602,1,8,1:3:0:0:
288,123,167744,1,10,0:0:0:0:
503,369,167885,38,0,B|457:364|428:324|428:324|365:310|318:358,1,211.199993554688,6|0,1:2|1:2,0:0:0:0:
102,254,168310,2,0,B|76:303|76:303|92:365,1,105.599996777344,8|0,0:0|0:0,0:0:0:0:
222,310,168593,1,2,1:2:0:0:
1,198,168734,5,0,3:2:0:0:
32,211,168804,1,0,3:2:0:0:
67,215,168875,1,2,3:2:0:0:
101,207,168946,1,0,3:2:0:0:
131,189,169017,1,0,3:2:0:0:
154,163,169087,1,0,3:2:0:0:
168,131,169159,22,0,B|230:117|230:117|266:133|266:133|335:114,1,158.399995166016,2|0,1:2|0:0,0:0:0:0:
416,158,169442,2,0,B|361:125|307:159|307:159|297:217|239:234,1,211.199993554688,12|0,0:0|1:2,0:0:0:0:
67,126,169866,1,0,1:2:0:0:
250,230,170008,1,10,0:0:0:0:
125,382,170149,6,0,B|91:319|134:273|133:279|180:253|138:170,1,211.199993554688,0|0,1:2|1:2,0:0:0:0:
282,13,170574,2,0,P|272:68|255:125,1,105.599996777344,8|0,0:0|0:0,0:0:0:0:
411,275,170857,1,2,1:2:0:0:
359,53,170998,1,0,1:2:0:0:
512,155,171140,38,0,B|463:153|419:183|419:183|380:179|352:162,1,158.399995166016,10|0,0:0|0:0,0:0:0:0:
344,154,171423,5,2,1:2:0:0:
273,362,171564,1,0,0:0:0:0:
121,230,171706,1,8,0:0:0:0:
203,76,171847,2,0,P|222:127|232:180,1,105.599996777344,2|0,0:0|1:2,0:0:0:0:
411,275,172130,1,2,1:2:0:0:
357,49,172272,1,10,0:0:0:0:
163,309,172413,38,0,B|121:308|86:331|86:331|26:294|35:220,1,211.199993554688,4|0,1:2|1:2,0:0:0:0:
203,76,172838,2,0,P|193:143|178:186,1,105.599996777344,10|0,0:0|0:0,0:0:0:0:
340,320,173121,5,0,1:2:0:0:
291,90,173263,1,0,1:2:0:0:
512,157,173404,2,0,P|464:200|393:192,1,132,10|0,0:0|0:0,0:0:0:0:
383,209,173687,5,6,1:2:0:0:
247,370,173829,1,0,0:0:0:0:
181,178,173970,1,8,0:0:0:0:
181,178,174253,5,2,1:3:0:0:
270,258,174395,2,0,P|227:266|182:281,1,88,0|2,1:2|0:3,0:0:0:0:
0,130,174678,2,0,P|75:133|148:64,1,176,8|0,0:0|0:0,0:0:0:0:
263,11,175102,2,0,P|248:55|241:97,1,88,8|0,0:0|0:0,0:0:0:0:
386,216,175385,37,0,1:2:0:0:
344,46,175527,1,0,1:2:0:0:
495,88,175668,2,0,P|447:129|375:120,1,132,10|0,0:0|0:0,0:0:0:0:
302,186,175951,6,0,P|271:273|256:357,1,176,6|10,1:2|0:0,0:0:0:0:
256,355,176305,1,2,0:0:0:0:
256,355,176376,1,2,0:0:0:0:
184,160,176517,38,0,P|207:94|218:31,1,132,6|0,1:2|0:0,0:0:0:0:
217,32,176800,2,0,P|271:23|305:9,1,88,10|0,0:0|0:0,0:0:0:0:
481,157,177083,6,0,P|396:167|306:196,1,176,6|8,1:2|0:0,0:0:0:0:
149,145,177508,1,8,0:0:0:0:
264,280,177649,1,2,1:2:0:0:
250,105,177791,1,0,1:0:0:0:
158,255,177932,1,8,0:0:0:0:
465,375,178215,38,0,P|497:315|475:243,1,132,6|0,1:2|0:0,0:0:0:0:
460,240,178498,2,0,L|372:263,1,88,8|0,0:0|0:0,0:0:0:0:
270,121,178781,5,2,1:3:0:0:
342,69,178923,2,0,B|362:98|362:98|344:174,1,88,0|2,1:2|0:3,0:0:0:0:
240,376,179206,37,8,0:0:0:0:
336,344,179347,2,0,B|279:367|249:332|254:330|219:294|163:319,1,176,0|8,1:2|0:0,0:0:0:0:
30,224,179772,1,0,0:0:0:0:
84,380,179913,2,0,P|138:312|112:235,1,176,0|10,1:2|0:0,0:0:0:0:
276,62,180479,6,0,P|352:47|410:22,1,132,6|0,1:2|0:0,0:0:0:0:
402,26,180763,2,0,P|443:35|488:50,1,88,8|0,0:0|0:0,0:0:0:0:
291,144,181046,38,0,P|211:123|192:58,1,132,6|0,1:2|0:0,0:0:0:0:
191,83,181329,2,0,P|178:127|164:179,1,88,10|0,0:0|0:0,0:0:0:0:
320,276,181612,6,0,B|356:263|396:261|396:261|425:275|425:275|466:263|493:259,1,176,6|10,1:2|0:0,0:0:0:0:
376,177,182036,1,8,0:0:0:0:
359,362,182178,38,0,P|285:361|233:304,1,132,2|0,1:2|0:0,0:0:0:0:
234,308,182461,2,0,P|186:323|142:337,1,88,8|0,0:0|0:0,0:0:0:0:
4,199,182744,6,0,P|94:177|174:146,2,176,2|10|2,1:2|0:0|3:2,0:0:0:0:
31,23,183451,2,0,P|56:54|60:111,1,88,8|2,0:0|0:0,0:0:0:0:
210,239,183734,37,0,3:0:0:0:
210,239,183805,1,0,3:0:0:0:
210,239,183876,2,0,P|267:174|240:85,1,176,2|10,1:2|0:0,0:0:0:0:
329,24,184300,1,0,0:0:0:0:
213,3,184442,5,2,1:2:0:0:
375,108,184583,2,0,P|424:97|470:79,1,88,8|2,0:0|0:0,0:0:0:0:
500,222,184866,37,0,3:0:0:0:
500,222,184937,1,0,3:0:0:0:
500,222,185008,2,0,P|427:243|352:275,1,132,2|0,1:2|0:0,0:0:0:0:
375,263,185291,2,0,P|364:308|347:354,1,88,14|0,0:0|0:0,0:0:0:0:
132,384,185574,5,8,0:0:0:0:
278,209,185715,1,8,1:3:0:0:
73,262,185857,1,10,0:0:0:0:
271,353,185998,37,6,1:2:0:0:
162,169,186423,5,2,0:0:0:0:
162,169,187272,38,0,P|170:134|176:101,1,70.4,6|2,1:2|0:0,0:0:0:0:
282,23,187555,2,0,P|274:58|268:91,1,70.4,2|2,1:2|0:0,0:0:0:0:
334,154,187838,2,0,P|406:136|473:109,1,140.8,10|2,0:0|0:0,0:0:0:0:
512,220,188263,2,0,P|440:215|386:264,1,140.8,10|2,1:1|0:0,0:0:0:0:
344,326,188687,1,2,1:2:0:0:
125,179,188970,5,2,0:0:0:0:
41,218,189112,1,10,0:0:0:0:
110,281,189253,1,2,0:0:0:0:
200,241,189395,37,2,3:2:0:0:
200,241,189465,1,0,3:2:0:0:
200,241,189536,2,0,P|235:231|268:223,1,70.4,0|0,1:2|0:0,0:0:0:0:
250,315,189819,2,0,P|285:305|318:297,1,70.4,2|2,1:2|0:0,0:0:0:0:
398,353,190102,6,0,P|361:291|374:225,1,140.8,10|2,0:0|0:0,0:0:0:0:
461,190,190527,2,0,P|385:175|319:153,1,140.8,10|0,1:1|0:0,0:0:0:0:
162,65,190951,1,2,1:2:0:0:
162,65,191234,37,0,0:0:0:0:
220,3,191376,2,0,B|254:42|254:42|229:132,1,140.8,10|0,0:0|3:2,0:0:0:0:
169,268,191800,6,0,P|127:281|98:291,1,70.4,2|2,1:2|0:0,0:0:0:0:
45,220,192083,2,0,P|78:208|112:198,1,70.4,2|2,1:2|0:0,0:0:0:0:
169,268,192366,38,0,P|228:304|299:284,1,140.8,10|2,0:0|0:0,0:0:0:0:
360,345,192791,2,0,P|340:286|322:206,1,140.8,10|2,1:1|0:0,0:0:0:0:
378,150,193215,1,2,1:2:0:0:
147,3,193498,5,2,0:0:0:0:
176,110,193640,1,10,0:0:0:0:
243,33,193781,1,2,0:0:0:0:
70,78,193923,1,2,3:2:0:0:
70,78,193994,1,0,3:2:0:0:
70,78,194064,2,0,P|59:121|36:199,1,105.6,2|0,1:2|0:0,0:0:0:0:
42,179,194347,2,0,P|56:213|66:257,1,70.4,2|2,1:2|0:0,0:0:0:0:
176,110,194630,38,0,B|253:90|240:126|321:105,1,140.8,10|2,0:0|0:0,0:0:0:0:
381,53,195055,2,0,P|360:137|346:203,1,140.8,2|0,1:2|0:0,0:0:0:0:
348,189,195479,1,0,1:2:0:0:
512,383,195763,5,8,0:0:0:0:
462,196,195904,1,8,0:0:0:0:
329,331,196046,1,8,0:0:0:0:
329,331,196329,38,0,P|294:342|261:347,2,70.4,10|2|2,1:1|0:0|3:2,0:0:0:0:
388,273,196753,1,2,3:2:0:0:
311,248,196895,2,0,P|276:259|243:264,2,70.4,2|2|2,3:2|3:2|3:2,0:0:0:0:
510,118,197319,6,0,P|458:78|373:92,1,140.8,10|2,0:0|3:2,0:0:0:0:
313,11,197744,2,0,P|299:89|283:157,1,140.8,10|2,1:1|0:0,0:0:0:0:
210,113,198168,1,10,0:0:0:0:
134,139,198310,1,2,3:2:0:0:
109,224,198451,1,10,0:0:0:0:
190,269,198593,38,0,P|193:227|206:189,2,70.4,2|2|2,1:2|0:0|3:2,0:0:0:0:
109,224,199017,1,2,3:2:0:0:
57,295,199159,2,0,P|66:328|68:363,1,70.4,2|2,3:2|3:2,0:0:0:0:
68,363,199442,1,2,3:2:0:0:
265,322,199583,6,0,P|281:253|290:183,1,140.8,10|2,0:0|3:2,0:0:0:0:
235,105,200008,2,0,P|293:137|371:121,1,140.8,10|2,1:1|0:0,0:0:0:0:
419,55,200432,1,10,0:0:0:0:
419,55,200574,2,0,P|457:47|491:34,1,70.4,2|2,1:2|1:2,0:0:0:0:
484,228,200857,38,0,P|473:266|467:301,2,70.4,10|0|2,1:1|0:0|3:2,0:0:0:0:
451,150,201281,1,2,3:2:0:0:
382,203,201423,2,0,P|371:241|365:276,1,70.4,2|2,3:2|3:2,0:0:0:0:
307,325,201706,1,2,3:2:0:0:
364,384,201847,6,0,P|300:351|234:370,1,140.8,10|2,0:0|3:2,0:0:0:0:
97,254,202272,2,0,P|161:287|227:268,1,140.8,10|2,1:1|0:0,0:0:0:0:
276,198,202696,1,10,0:0:0:0:
254,122,202838,1,2,1:2:0:0:
232,47,202979,1,2,1:2:0:0:
323,5,203121,38,0,P|377:40|463:23,1,140.8,2|2,1:2|3:2,0:0:0:0:
511,93,203546,2,0,P|496:133|487:165,1,70.4,2|2,3:2|3:2,0:0:0:0:
452,243,203829,5,2,3:2:0:0:
391,126,203970,1,2,3:2:0:0:
276,198,204111,1,6,1:2:0:0:
256,192,204182,12,0,206517,0:0:0:0:
