osu file format v14

[General]
AudioFilename: 13 Painful Death for the Lactose Int.mp3
AudioLeadIn: 0
PreviewTime: 19761
Countdown: 0
SampleSet: Normal
StackLeniency: 0.7
Mode: 0
LetterboxInBreaks: 0
WidescreenStoryboard: 1

[Editor]
Bookmarks: 70841
DistanceSpacing: 1
BeatDivisor: 4
GridSize: 4
TimelineZoom: 1

[Metadata]
Title:Painful Death for the Lactose Intolerant
TitleUnicode:Painful Death for the Lactose Intolerant
Artist:Mili
ArtistUnicode:Mili
Creator:Pappy
Version:Normal
Source:
Tags:miracle milk
BeatmapID:1192205
BeatmapSetID:563822

[Difficulty]
HPDrainRate:4
CircleSize:3
OverallDifficulty:4
ApproachRate:5
SliderMultiplier:1.4
SliderTickRate:1

[Events]
//Background and Video events
0,0,"to_the_night_sky_by_chibionpu-dawgjnu.jpg",0,0
//Break Periods
//Storyboard Layer 0 (Background)
//Storyboard Layer 1 (Fail)
//Storyboard Layer 2 (Pass)
//Storyboard Layer 3 (Foreground)
//Storyboard Sound Samples

[TimingPoints]
22,491.803278688525,4,1,1,65,1,0
19694,-100,4,1,1,80,0,1
35431,-90.9090909090909,4,1,1,40,0,0
39366,-100,4,1,1,80,0,0
70841,-100,4,1,1,80,0,0

[Colours]
Combo1 : 128,0,128
Combo2 : 255,0,0
Combo3 : 255,128,0
Combo4 : 255,255,0
Combo5 : 0,128,0
Combo6 : 0,0,255

[HitObjects]
95,59,3956,6,0,P|67:121|95:183,1,140
154,122,4694,1,0,0:0:0:0:
154,122,4940,2,0,P|182:183|154:245,1,140
80,364,5923,6,0,L|218:343,1,140
292,300,6661,1,0,0:0:0:0:
291,299,6907,2,0,P|316:324|348:338,1,70
432,328,7399,1,0,0:0:0:0:
456,192,7890,6,0,B|456:123|456:123|428:57,1,140
344,72,8628,1,0,0:0:0:0:
344,72,8874,2,0,L|371:136,1,70
308,192,9366,2,0,L|335:256,1,70
324,340,9858,6,0,P|255:352|187:339,1,140
104,332,10595,1,0,0:0:0:0:
186,338,10841,2,0,P|179:304|162:274,1,70
83,252,11333,1,0,0:0:0:0:
156,132,11825,6,0,B|217:94|226:128|289:96,1,140
364,56,12562,1,0,0:0:0:0:
364,56,12808,2,0,B|388:104|356:148|356:148|332:183,1,140
396,308,13792,6,0,L|256:292,1,140
176,315,14530,1,0,0:0:0:0:
176,315,14776,2,0,P|145:331|107:333,1,70
124,252,15267,1,0,0:0:0:0:
144,112,15759,6,0,P|93:65|25:73,1,140
68,144,16497,1,0,0:0:0:0:
68,144,16743,2,0,L|204:176,1,140
324,100,17726,5,0,0:0:0:0:
330,241,18218,1,0,0:0:0:0:
204,176,18710,2,0,L|68:144,1,140
64,332,19694,6,0,B|92:296|136:272|212:324|257:274,1,210
200,212,20677,2,0,L|340:367,1,210
416,332,21661,6,0,B|370:281|370:281|349:212,1,140
256,72,22644,1,0,0:0:0:0:
255,72,22890,2,0,P|210:124|188:190,1,140
208,272,23628,5,0,0:0:0:0:
152,332,23874,2,0,L|13:310,1,140
48,232,24612,1,0,0:0:0:0:
88,159,24858,2,0,P|104:92|88:24,1,140
7,48,25595,6,0,P|-5:142|87:160,1,210
168,192,26579,2,0,L|236:160,1,70
256,80,27071,1,0,0:0:0:0:
256,80,27562,6,0,B|320:64|320:64|392:92|460:64,1,210
492,144,28546,2,0,B|496:192|496:192|472:232|472:232|488:224|456:292|493:344,1,210
408,352,29530,5,0,0:0:0:0:
408,352,29776,2,0,L|269:329,1,140
188,352,30513,2,0,L|118:363,1,70
44,320,31005,2,0,P|34:286|36:251,1,70
96,192,31497,6,0,B|156:104|252:172|336:128|292:60|216:72|240:128,1,280
412,187,33464,6,0,B|356:104|260:172|176:128|220:60|296:72|274:119,1,280
256,256,34940,1,0,0:0:0:0:
116,192,35431,5,0,0:0:0:0:
368,60,39366,5,0,0:0:0:0:
