osu file format v14

[General]
AudioFilename: mili_origin.mp3
AudioLeadIn: 0
PreviewTime: 51177
Countdown: 0
SampleSet: Soft
StackLeniency: 0.3
Mode: 0
LetterboxInBreaks: 0
WidescreenStoryboard: 0

[Editor]
DistanceSpacing: 0.1
BeatDivisor: 4
GridSize: 32
TimelineZoom: 1

[Metadata]
Title:Origin (TV Size)
TitleUnicode:オリジン (TV Size)
Artist:Mili
ArtistUnicode:Mili
Creator:Ryuusei Aika
Version:Firis' Unforgettable Hard
Source:メルクストーリア -無気力少年と瓶の中の少女-
Tags:Mercstoria gary00737 Bossandy FirisMistlud KuranteMelodii kanor Karen ak74 Realazy Yamato Kasai momocashew Yukihito Mitomo Shoto Yoshida オープニングテーマ Opening Theme anime op
BeatmapID:1817355
BeatmapSetID:869594

[Difficulty]
HPDrainRate:5.5
CircleSize:4
OverallDifficulty:6
ApproachRate:6
SliderMultiplier:1.6
SliderTickRate:1

[Events]
//Background and Video events
0,0,"Firis Hard.jpg",0,0
//Break Periods
//Storyboard Layer 0 (Background)
//Storyboard Layer 1 (Fail)
//Storyboard Layer 2 (Pass)
//Storyboard Layer 3 (Foreground)
//Storyboard Sound Samples

[TimingPoints]
641,410.958904109589,4,2,0,15,1,0
4753,394.736842105263,4,2,1,35,1,0
4753,-133.333333333333,4,2,1,35,0,0
5557,394.736842105263,4,2,1,65,1,0
6383,410.958904109589,4,2,1,65,1,0
6794,-90.9090909090909,4,2,1,65,0,0
7103,-90.9090909090909,4,2,1,5,0,0
7205,410.958904109589,4,2,1,65,1,0
7205,-100,4,2,1,65,0,0
12137,-133.333333333333,4,2,1,65,0,0
12959,-133.333333333333,4,2,1,5,0,0
13370,-133.333333333333,4,2,2,35,0,0
19945,-100,4,2,1,35,0,0
20356,-117.647058823529,4,2,2,35,0,0
26931,-133.333333333333,4,2,2,35,0,0
29808,-133.333333333333,4,2,2,35,0,0
31863,-117.647058823529,4,2,1,45,0,0
33507,-117.647058823529,4,2,1,50,0,0
46657,-166.666666666667,4,2,1,50,0,0
49945,-117.647058823529,4,2,1,50,0,0
51588,-100,4,2,1,75,0,1
58163,-100,4,2,1,75,0,0
63095,-100,4,2,1,75,0,1
66692,-100,4,2,1,5,0,1
66794,-100,4,2,1,75,0,1
72958,-133.333333333333,4,2,1,45,0,0
79534,-133.333333333333,4,2,1,40,0,0
81178,-133.333333333333,4,2,1,35,0,0
82822,-133.333333333333,4,2,1,30,0,0
84466,-133.333333333333,4,2,1,25,0,0
85904,-133.333333333333,4,2,1,5,0,0
86109,-133.333333333333,4,2,1,15,0,0
87753,-133.333333333333,4,2,1,5,0,0

[Colours]
Combo1 : 185,150,172
Combo2 : 100,74,125
Combo3 : 96,132,194
Combo4 : 209,52,87

[HitObjects]
23,112,4750,5,0,3:0:0:0:
83,49,4950,2,0,L|123:54,3,30.0000011444092,8|8|0|8,0:0|0:0|1:0|0:3,0:0:0:0:
144,77,5345,1,4,0:3:0:0:
252,11,5557,6,0,P|219:81|244:147,1,120,4|0,1:2|0:0,0:0:0:0:
261,152,5951,2,0,L|314:146,3,40,10|0|8|8,0:0|1:0|0:0|0:0,0:0:0:0:
339,119,6346,1,6,1:2:0:0:
462,172,6589,2,0,L|456:232,1,40,0|0,1:0|1:0,0:0:0:0:
487,241,6794,6,0,B|451:226|415:240|427:262|385:269|346:253,1,132.00000402832,8|0,0:0|0:0,0:0:0:0:
389,302,7205,6,0,P|340:263|256:298,1,160,4|8,1:2|3:2,0:0:0:0:
180,355,7822,2,0,P|219:306|184:222,1,160,0|0,0:0|1:0,0:0:0:0:
110,219,8438,1,10,0:2:0:0:
144,287,8644,1,0,0:0:0:0:
43,256,8849,6,0,P|34:212|45:174,2,80,2|0|8,1:2|1:0|3:2,0:0:0:0:
27,340,9466,2,0,B|60:324|109:339|95:360|130:377|179:354,1,160,0|0,0:0|1:0,0:0:0:0:
247,299,10082,2,0,P|302:276|371:311,1,120,10|0,0:2|0:0,0:0:0:0:
388,325,10493,6,0,L|381:234,1,80,2|0,1:2|0:0,0:0:0:0:
471,167,10904,2,0,L|464:258,1,80,8|0,3:2|0:0,0:0:0:0:
391,160,11315,2,0,P|345:166|309:196,1,80,2|0,0:3|1:0,0:0:0:0:
288,259,11726,1,8,0:2:0:0:
288,259,11829,1,8,0:2:0:0:
288,259,11931,1,0,1:0:0:0:
213,143,12137,5,4,1:2:0:0:
213,143,12342,2,0,B|150:126|109:161|109:161|141:127|142:93,1,180.000006866455,2|0,0:0|0:0,0:0:0:0:
178,283,13781,6,0,L|172:223,2,60.0000022888184,0|2|8,1:0|0:0|0:0,0:0:0:0:
129,351,14397,1,2,0:0:0:0:
59,239,14808,1,8,0:0:0:0:
154,147,15219,1,2,0:0:0:0:
154,147,15322,1,2,0:0:0:0:
154,147,15425,6,0,P|93:147|35:111,1,120.000004577637,2|8,0:0|0:0,0:0:0:0:
0,49,16041,1,2,0:0:0:0:
0,49,16246,2,0,P|8:102|-2:153,2,90.0000034332277,2|2|2,0:0|0:0|0:0,0:0:0:0:
91,21,17068,6,0,B|130:12|161:23|143:41|178:47|219:32,1,120.000004577637,2|8,1:2|0:0,0:0:0:0:
205,36,17890,2,0,P|230:89|266:16,1,180.000006866455,2|2,0:0|0:0,0:0:0:0:
356,19,18712,6,0,P|361:64|323:138,1,120.000004577637,2|0,0:0|0:0,0:0:0:0:
264,171,19329,1,8,0:0:0:0:
264,171,19740,1,0,1:0:0:0:
403,163,19944,1,12,0:0:0:0:
411,171,20356,5,4,1:0:0:0:
411,171,20561,2,0,P|382:234|407:302,1,136.000002593994
459,352,21178,1,2,3:2:0:0:
459,352,21383,2,0,L|529:343,1,68.0000012969971,0|8,1:0|3:2,0:0:0:0:
338,355,22000,5,2,1:2:0:0:
338,355,22205,2,0,L|261:345,2,68.0000012969971,0|0|0,0:0|3:0|0:0,0:0:0:0:
193,381,23027,1,0,1:0:0:0:
206,292,23233,2,0,P|208:257|188:211,1,68.0000012969971,8|2,3:2|0:0,0:0:0:0:
170,195,23541,1,2,0:0:0:0:
170,195,23644,6,0,B|121:206|92:195|108:181|67:170|30:186,1,136.000002593994,2|0,1:2|3:0,0:0:0:0:
139,123,24466,2,0,P|150:81|138:43,1,68.0000012969971,2|0,3:2|1:0,0:0:0:0:
74,84,24877,1,8,3:2:0:0:
74,84,25082,1,2,0:0:0:0:
95,186,25288,6,0,P|148:157|226:157,1,136.000002593994,2|0,1:2|3:0,0:0:0:0:
285,199,25904,1,0,0:0:0:0:
285,199,26109,2,0,P|298:153|293:127,1,68.0000012969971,2|0,3:2|1:0,0:0:0:0:
238,70,26520,1,8,3:2:0:0:
395,26,26931,6,0,B|422:53|410:125|381:89|368:155|404:201,1,180.000006866455,2|0,1:2|0:0,0:0:0:0:
401,195,27959,1,0,1:0:0:0:
462,145,28164,2,0,P|475:178|476:211,1,60.0000022888184,8|2,0:0|0:0,0:0:0:0:
413,272,28575,6,0,P|341:242|355:133,1,180.000006866455,2|0,1:2|0:0,0:0:0:0:
398,109,29397,2,0,P|411:76|412:43,1,60.0000022888184,2|0,3:2|1:0,0:0:0:0:
344,29,29808,1,8,3:2:0:0:
344,29,30014,1,2,0:0:0:0:
269,120,30219,6,0,B|241:92|170:104|205:133|140:146|93:110,1,180.000006866455,2|0,1:2|0:0,0:0:0:0:
99,114,31246,1,0,1:0:0:0:
147,173,31452,2,0,L|141:249,1,60.0000022888184,10|0,3:2|0:0,0:0:0:0:
89,309,31863,6,0,P|156:265|237:263,2,136.000002593994,6|8|2,1:2|3:2|0:0,0:0:0:0:
13,360,32890,1,0,1:0:0:0:
13,360,32993,1,8,0:0:0:0:
13,360,33096,2,0,L|4:305,2,34.0000006484985,8|8|4,0:0|0:3|0:3,0:0:0:0:
38,247,33507,6,0,P|82:180|84:99,1,136.000002593994,4|8,1:2|3:2,0:0:0:0:
45,56,34123,2,0,P|112:100|193:102,1,136.000002593994,0|0,0:0|1:0,0:0:0:0:
232,68,34740,1,8,3:2:0:0:
273,135,34945,1,2,0:0:0:0:
276,133,35048,1,2,0:0:0:0:
279,130,35151,6,0,P|306:83|274:3,2,136.000002593994,2|8|0,1:2|3:2|3:0,0:0:0:0:
341,83,36178,1,0,1:0:0:0:
416,73,36383,2,0,P|467:107|480:136,1,68.0000012969971,8|2,3:2|0:0,0:0:0:0:
496,110,36692,1,2,0:0:0:0:
496,110,36794,6,0,P|468:185|475:260,1,136.000002593994,0|8,1:0|3:2,0:0:0:0:
491,312,37411,1,0,0:0:0:0:
491,312,37616,2,0,P|444:312|417:294,1,68.0000012969971,2|0,3:2|1:0,0:0:0:0:
394,230,38027,2,0,P|347:230|320:248,1,68.0000012969971,8|0,3:2|0:0,0:0:0:0:
259,306,38438,6,0,P|287:231|280:156,2,136.000002593994,2|8|2,1:2|3:2|0:0,0:0:0:0:
204,376,39466,1,8,0:0:0:0:
313,362,39671,1,8,0:0:0:0:
415,384,39877,1,10,0:0:0:0:
508,298,40082,6,0,B|465:310|429:299|445:284|412:270|371:280,1,136.000002593994,6|8,1:2|3:2,0:0:0:0:
377,278,40904,2,0,P|385:235|382:203,1,68.0000012969971,2|0,3:2|1:0,0:0:0:0:
356,175,41212,1,0,1:0:0:0:
356,175,41315,2,0,L|312:168,2,34.0000006484985,8|8|8,0:2|0:2|0:3,0:0:0:0:
458,130,41726,6,0,P|450:87|453:55,1,68.0000012969971,2|0,0:0|1:0,0:0:0:0:
479,27,42034,1,0,1:0:0:0:
479,27,42137,2,0,L|523:20,2,34.0000006484985,8|8|8,0:2|0:2|0:3,0:0:0:0:
373,78,42548,1,2,1:2:0:0:
356,73,42651,1,0,1:0:0:0:
340,67,42753,1,8,0:0:0:0:
325,59,42856,1,8,0:0:0:0:
311,50,42959,1,8,0:0:0:0:
236,97,43164,2,0,L|232:52,1,34.0000006484985,8|8,0:0|0:0,0:0:0:0:
200,37,43370,6,0,L|212:181,2,136.000002593994,2|8|2,1:2|3:2|3:2,0:0:0:0:
133,84,44397,1,0,1:0:0:0:
76,34,44603,2,0,P|57:75|64:120,1,68.0000012969971,8|0,3:2|0:0,0:0:0:0:
26,120,44911,1,0,0:0:0:0:
26,120,45014,6,0,P|65:178|67:256,2,136.000002593994,2|8|2,1:2|3:2|3:2,0:0:0:0:
78,168,46041,1,0,1:0:0:0:
211,141,46246,1,12,0:2:0:0:
211,141,46657,6,0,B|189:120|160:115|160:115|137:164|166:215,1,143.999995605469,0|0,1:0|1:0,0:0:0:0:
301,141,48301,6,0,B|323:120|352:115|352:115|375:164|346:215,1,143.999995605469,6|8,1:2|0:3,0:0:0:0:
256,289,49329,2,0,L|256:225,1,47.9999985351563,4|8,0:3|0:3,0:0:0:0:
336,359,49945,6,0,P|274:328|190:341,1,136.000002593994,2|8,1:2|0:0,0:0:0:0:
135,368,50562,1,2,0:3:0:0:
77,319,50767,2,0,P|59:359|61:392,1,68.0000012969971,2|2,0:3|1:2,0:0:0:0:
146,287,51178,1,10,0:2:0:0:
23,160,51589,6,0,B|69:170|108:154|83:133|123:114|171:129,1,160,6|8,1:2|3:2,0:0:0:0:
234,191,52205,2,0,P|213:134|219:36,1,160,0|0,0:0|1:0,0:0:0:0:
301,69,52822,2,0,P|296:110|312:154,1,80,8|2,3:2|0:0,0:0:0:0:
422,198,53233,6,0,P|439:126|371:101,1,160,0|8,1:2|3:2,0:0:0:0:
344,213,53849,1,0,0:0:0:0:
404,276,54055,2,0,P|443:251|518:241,2,120,2|2|2,0:3|0:0|0:0,0:0:0:0:
317,298,54877,6,0,P|338:241|332:143,1,160,2|8,1:2|3:2,0:0:0:0:
282,81,55493,1,0,1:2:0:0:
344,17,55698,2,0,P|383:42|458:52,2,120,2|2|2,0:3|0:0|0:0,0:0:0:0:
222,31,56520,6,0,P|213:113|284:159,1,160,0|10,1:2|3:2,0:0:0:0:
268,157,57342,1,2,0:3:0:0:
181,142,57548,1,0,1:0:0:0:
104,186,57753,1,8,3:2:0:0:
73,269,57959,1,10,0:0:0:0:
73,269,58062,1,10,0:0:0:0:
73,269,58164,6,0,P|123:270|191:187,2,160,4|8|2,1:2|3:2|0:3,0:0:0:0:
160,280,59192,1,0,1:0:0:0:
247,288,59397,2,0,P|271:334|266:366,1,80,10|0,3:2|0:0,0:0:0:0:
335,277,59808,6,0,P|375:256|456:348,1,160,2|8,1:3|3:2,0:0:0:0:
432,384,60425,1,2,0:0:0:0:
387,328,60630,2,0,P|340:354|307:348,1,80,2|0,0:3|1:0,0:0:0:0:
264,299,61041,2,0,P|264:245|286:219,1,80,10|2,3:2|0:0,0:0:0:0:
217,129,61452,5,4,1:0:0:0:
414,174,61863,1,8,3:2:0:0:
217,129,62274,5,8,0:3:0:0:
162,183,62479,1,0,1:0:0:0:
150,166,62582,1,0,1:0:0:0:
142,148,62685,1,8,0:0:0:0:
140,128,62788,1,8,0:0:0:0:
143,108,62890,1,4,0:3:0:0:
237,204,63096,6,0,P|211:253|211:361,1,160,6|8,1:2|3:2,0:0:0:0:
149,291,63712,2,0,B|103:281|64:297|89:318|45:339|1:323,1,160,0|0,0:0|1:0,0:0:0:0:
27,251,64329,2,0,P|19:211|34:164,1,80,8|2,3:2|0:0,0:0:0:0:
146,141,64740,6,0,P|114:193|21:159,1,160,0|8,1:2|3:2,0:0:0:0:
103,82,65356,1,0,0:0:0:0:
168,22,65561,2,0,P|207:47|282:57,2,120,2|2|2,0:3|0:0|0:0,0:0:0:0:
41,29,66383,6,0,P|66:105|50:174,1,120,6|0,1:2|0:0,0:0:0:0:
42,183,66794,2,0,L|55:231,3,40,8|8|0|0,0:0|0:0|1:0|1:0,0:0:0:0:
68,262,67205,2,0,P|108:233|147:233,1,80,4|0,1:2|0:0,0:0:0:0:
213,275,67616,1,8,3:2:0:0:
213,186,67822,1,2,0:0:0:0:
302,275,68027,6,0,L|308:360,1,80,2|0,1:2|0:0,0:0:0:0:
383,272,68438,1,8,3:2:0:0:
302,186,68644,1,8,3:2:0:0:
302,186,69260,1,10,3:2:0:0:
379,114,69466,1,10,0:2:0:0:
379,114,69568,1,10,0:2:0:0:
379,114,69671,6,0,P|307:110|228:63,2,160,2|8|2,1:2|3:2|0:3,0:0:0:0:
453,66,70698,1,0,1:0:0:0:
459,153,70904,1,10,3:2:0:0:
346,368,71315,6,0,P|323:288|381:233,1,160,0|8,1:2|3:2,0:0:0:0:
474,305,71931,1,0,0:0:0:0:
474,305,72137,2,0,P|436:314|396:310,1,80,2|0,0:3|1:0,0:0:0:0:
484,224,72548,1,8,3:2:0:0:
331,37,72959,6,0,P|312:107|407:121,1,180.000006866455,2|0,1:2|1:0,0:0:0:0:
397,129,74603,6,0,B|344:118|295:127|329:160|245:172|201:147,1,180.000006866455,2|0,1:2|1:0,0:0:0:0:
224,155,76246,6,0,B|173:217|87:158|132:92|165:104,1,180.000006866455,2|0,1:2|1:0,0:0:0:0:
241,80,77068,2,0,P|231:43|248:-9,2,90.0000034332277,2|2|2,0:0|0:0|0:0,0:0:0:0:
304,145,77890,6,0,P|291:178|292:219,1,60.0000022888184,4|2,1:0|0:0,0:0:0:0:
308,278,78301,1,2,0:0:0:0:
379,158,78712,2,0,P|375:119|337:73,2,90.0000034332277,2|2|2,1:2|0:0|0:0,0:0:0:0:
289,202,79534,6,0,P|328:189|471:187,1,180.000006866455,2|0,1:2|1:0,0:0:0:0:
465,185,80767,2,0,L|470:234,3,30.0000011444092,0|0|0|0,0:0|0:0|1:0|1:0,0:0:0:0:
446,259,81178,6,0,P|391:203|436:115,1,180.000006866455,2|0,1:2|1:0,0:0:0:0:
427,119,82822,6,0,P|426:202|407:306,1,180.000006866455,0|0,1:0|1:0,0:0:0:0:
409,297,84466,6,0,B|401:295|391:279|391:279|318:287|304:358|304:358|309:285|240:230|169:267|154:302|181:357|228:348,1,420.000016021729,0|0,1:0|0:0,0:0:0:0:
256,192,86109,12,0,87753,0:0:0:0:
