osu file format v14

[General]
AudioFilename: audio.mp3
AudioLeadIn: 0
PreviewTime: 119584
Countdown: 1
SampleSet: Soft
StackLeniency: 0.7
Mode: 0
LetterboxInBreaks: 0
WidescreenStoryboard: 1

[Editor]
Bookmarks: 133,23547,46962,73303,96718,120133,143547,166962
DistanceSpacing: 1.3
BeatDivisor: 8
GridSize: 16
TimelineZoom: 1.5

[Metadata]
Title:Opium
TitleUnicode:Opium
Artist:Mili
ArtistUnicode:Mili
Creator:strickluke
Version:Bleed
Source:
Tags:hue
BeatmapID:4384188
BeatmapSetID:830130

[Difficulty]
HPDrainRate:5
CircleSize:4
OverallDifficulty:6.5
ApproachRate:8
SliderMultiplier:2.2
SliderTickRate:1

[Events]
//Background and Video events
0,0,"sadanimegirl_upscaled.jpg",0,0
//Break Periods
2,72937,95968
//Storyboard Layer 0 (Background)
//Storyboard Layer 1 (Fail)
//Storyboard Layer 2 (Pass)
//Storyboard Layer 3 (Foreground)
//Storyboard Layer 4 (Overlay)
//Storyboard Sound Samples

[TimingPoints]
133,731.707317073171,4,2,1,30,1,0
133,-200,4,2,1,30,0,0
1596,-200,4,2,1,5,0,0
3059,-200,4,2,1,30,0,0
4523,-200,4,2,1,5,0,0
5986,-200,4,2,1,20,0,0
7450,-200,4,2,1,5,0,0
8913,-200,4,2,1,30,0,0
10011,-200,4,2,1,25,0,0
10376,-200,4,2,1,25,0,0
11108,-200,4,2,1,5,0,0
11474,-200,4,2,1,20,0,0
11840,-200,4,2,1,30,0,0
13303,-200,4,2,1,5,0,0
14767,-200,4,2,1,30,0,0
16230,-200,4,2,1,5,0,0
17693,-200,4,2,1,20,0,0
18425,-200,4,2,1,5,0,0
19157,-200,4,2,1,10,0,0
19889,-200,4,2,1,5,0,0
20620,-200,4,2,1,30,0,0
21718,-200,4,2,1,5,0,0
22084,-200,4,2,1,30,0,0
46962,-200,4,2,1,40,0,0
47602,-200,4,2,1,5,0,0
47693,-71.4285714285714,4,2,1,40,0,0
48151,-71.4285714285714,4,2,1,5,0,0
48242,-71.4285714285714,4,2,1,40,0,0
48700,-71.4285714285714,4,2,1,5,0,0
48791,-100,4,2,1,40,0,0
49523,-100,4,2,1,5,0,0
49889,-71.4285714285714,4,2,1,40,0,0
50529,-71.4285714285714,4,2,1,5,0,0
50620,-71.4285714285714,4,2,1,40,0,0
51078,-71.4285714285714,4,2,1,5,0,0
51169,-71.4285714285714,4,2,1,40,0,0
51626,-71.4285714285714,4,2,1,5,0,0
51718,-71.4285714285714,4,2,1,40,0,0
52267,-71.4285714285714,4,2,1,5,0,0
52815,-71.4285714285714,4,2,1,40,0,0
53456,-71.4285714285714,4,2,1,5,0,0
53547,-71.4285714285714,4,2,1,40,0,0
54004,-71.4285714285714,4,2,1,5,0,0
54096,-71.4285714285714,4,2,1,40,0,0
54553,-71.4285714285714,4,2,1,5,0,0
54645,-71.4285714285714,4,2,1,40,0,0
55011,-71.4285714285714,4,2,1,5,0,0
55193,-71.4285714285714,4,2,1,40,0,0
55742,-133.333333333333,4,2,1,40,0,0
57572,-133.333333333333,4,2,1,5,0,0
58120,-133.333333333333,4,2,1,40,0,0
58669,-100,4,2,1,40,0,0
59309,-100,4,2,1,5,0,0
59401,-100,4,2,1,40,0,0
59858,-100,4,2,1,5,0,0
59950,-71.4285714285714,4,2,1,40,0,0
60407,-71.4285714285714,4,2,1,5,0,0
60498,-100,4,2,1,40,0,0
61596,-71.4285714285714,4,2,1,40,0,0
62236,-71.4285714285714,4,2,1,5,0,0
62328,-100,4,2,1,40,0,0
62785,-100,4,2,1,5,0,0
62876,-100,4,2,1,40,0,0
63425,-100,4,2,1,5,0,0
63517,-100,4,2,1,40,0,0
64523,-100,4,2,1,40,0,0
65163,-100,4,2,1,5,0,0
65254,-100,4,2,1,40,0,0
65712,-100,4,2,1,5,0,0
65803,-71.4285714285714,4,2,1,40,0,0
68090,-71.4285714285714,4,2,1,5,0,0
68181,-71.4285714285714,4,2,1,40,0,0
68639,-71.4285714285714,4,2,1,5,0,0
68730,-90.9090909090909,4,2,1,40,0,0
96718,-100,4,2,1,40,0,0
119767,-200,4,2,1,50,0,0
120041,-200,4,2,1,5,0,0
120133,-200,4,2,1,50,0,1
120773,-100,4,2,1,5,0,1
120864,-50,4,2,1,50,0,1
121322,-50,4,2,1,5,0,1
121413,-100,4,2,1,50,0,1
121870,-50,4,2,1,5,0,1
121962,-100,4,2,1,50,0,1
122236,-50,4,2,1,5,0,1
122328,-100,4,2,1,50,0,1
122602,-50,4,2,1,5,0,1
122693,-133.333333333333,4,2,1,50,0,1
122968,-133.333333333333,4,2,1,5,0,1
123059,-200,4,2,1,50,0,1
123700,-50,4,2,1,5,0,1
123791,-50,4,2,1,50,0,1
124248,-50,4,2,1,5,0,1
124340,-100,4,2,1,50,0,1
124797,-50,4,2,1,5,0,1
124889,-100,4,2,1,50,0,1
125163,-50,4,2,1,5,0,1
125254,-100,4,2,1,50,0,1
125529,-50,4,2,1,5,0,1
125620,-200,4,2,1,50,0,1
125895,-200,4,2,1,5,0,1
125986,-200,4,2,1,50,0,1
126626,-50,4,2,1,5,0,1
126718,-50,4,2,1,50,0,1
127175,-50,4,2,1,5,0,1
127267,-50,4,2,1,50,0,1
127724,-50,4,2,1,5,0,1
127815,-100,4,2,1,50,0,1
128090,-50,4,2,1,5,0,1
128181,-100,4,2,1,50,0,1
128456,-50,4,2,1,5,0,1
128547,-100,4,2,1,50,0,1
128822,-50,4,2,1,5,0,1
128913,-50,4,2,1,50,0,1
130193,-100,4,2,1,50,0,1
130651,-50,4,2,1,5,0,1
130742,-50,4,2,1,50,0,1
131840,-200,4,2,1,50,0,1
132480,-200,4,2,1,5,0,1
132572,-50,4,2,1,50,0,1
133029,-50,4,2,1,5,0,1
133120,-100,4,2,1,50,0,1
133578,-100,4,2,1,5,0,1
133669,-100,4,2,1,50,0,1
133943,-100,4,2,1,5,0,1
134035,-100,4,2,1,50,0,1
134309,-100,4,2,1,5,0,1
134401,-50,4,2,1,50,0,1
134767,-200,4,2,1,50,0,1
135407,-200,4,2,1,5,0,1
135498,-50,4,2,1,50,0,1
135956,-50,4,2,1,5,0,1
136047,-100,4,2,1,50,0,1
136504,-100,4,2,1,5,0,1
136596,-50,4,2,1,50,0,1
136870,-50,4,2,1,5,0,1
136962,-50,4,2,1,50,0,1
137236,-50,4,2,1,5,0,1
137328,-50,4,2,1,50,0,1
137693,-100,4,2,1,50,0,1
138334,-100,4,2,1,5,0,1
138425,-66.6666666666667,4,2,1,50,0,1
139065,-66.6666666666667,4,2,1,5,0,1
139157,-50,4,2,1,50,0,1
139797,-50,4,2,1,5,0,1
139889,-40,4,2,1,50,0,1
140254,-40,4,2,1,25,0,1
140620,-50,4,2,1,50,0,1
141261,-50,4,2,1,5,0,1
141352,-100,4,2,1,50,0,1
141992,-100,4,2,1,5,0,1
142084,-200,4,2,1,50,0,1
143547,-1000,4,2,1,50,0,0
143593,-1000,4,2,1,5,0,0
146474,-1000,4,2,1,50,0,0
146520,-1000,4,2,1,5,0,0
149401,-500,4,2,1,50,0,0
149447,-500,4,2,1,5,0,0
152328,-333.333333333333,4,2,1,50,0,0
152373,-333.333333333333,4,2,1,5,0,0
153791,-333.333333333333,4,2,1,40,0,0
153837,-333.333333333333,4,2,1,5,0,0
155254,-200,4,2,1,30,0,0
156718,-200,4,2,1,15,0,0
158181,-200,4,2,1,30,0,0
159645,-200,4,2,1,15,0,0
162572,-200,4,2,1,15,0,0
165133,-200,4,2,1,15,0,0
166230,-200,4,2,1,15,0,0

[Colours]
Combo1 : 77,89,249
Combo2 : 236,166,179
Combo3 : 235,235,235
Combo4 : 249,157,90
Combo5 : 103,141,184

[HitObjects]
454,375,133,54,0,P|389:293|278:304,1,220
157,351,3059,2,0,P|208:259|317:257,1,220
391,335,5986,6,0,B|283:344|165:307,1,220
99,199,8913,2,0,B|178:216|240:281,1,165
126,238,10376,2,0,B|63:253|28:285|28:285,1,110
27,285,11474,1,0,0:0:0:0:
169,320,11840,54,0,P|278:330|385:353,1,220
491,297,14767,2,0,B|381:294|268:322,1,220
131,285,17693,6,0,P|180:261|234:248,1,110
321,316,19157,2,0,P|368:289|409:252,1,110
220,158,20620,54,0,P|226:244|266:323,1,165
427,290,22084,2,0,P|418:242|389:181,1,110
201,327,23547,6,0,B|242:234|202:223|165:213|201:108,1,220
358,328,26474,2,0,B|379:278|357:222|357:222|334:157|369:105,1,220
146,310,29401,54,0,B|131:216|179:213|226:210|215:111,1,220
442,182,31596,1,0,0:0:0:0:
160,159,32328,6,0,P|79:165|16:242,1,165
163,247,33791,2,0,B|182:299|168:301|154:303|174:355,1,110
249,322,34889,1,0,0:0:0:0:
168,345,35254,54,0,B|214:317|208:303|202:290|254:268,1,110
131,125,36718,1,0,0:0:0:0:
247,284,38181,6,0,B|288:312|297:301|307:289|352:315,1,110
296,217,39645,1,0,0:0:0:0:
360,113,40376,1,0,0:0:0:0:
357,284,41108,54,0,B|408:306|412:293|418:277|473:296,1,110
247,287,42572,1,0,0:0:0:0:
489,153,43303,1,0,0:0:0:0:
258,28,44035,5,0,0:0:0:0:
187,223,44767,1,0,0:0:0:0:
242,112,45498,1,0,0:0:0:0:
269,294,46230,1,0,0:0:0:0:
106,101,46962,6,0,P|91:145|95:193,1,96.25
146,302,47693,6,0,P|207:205|206:101,1,192.499994125366
156,30,48242,6,0,P|218:101|309:131,1,192.499994125366
437,174,48791,38,0,B|304:163|382:265|248:254,1,220
191,151,49889,6,0,P|58:196|85:300,1,269.499991775513
220,325,50620,6,0,P|229:226|177:130,1,192.499994125366
60,134,51169,38,0,P|51:210|131:295,1,192.499994125366
219,233,51718,6,0,B|290:216|325:241|325:241|338:265|338:265|388:292|457:270,1,230.99999295044
200,214,52815,6,0,P|168:186|276:41,1,269.499991775513
320,183,53547,38,0,P|274:217|173:118,1,192.499994125366
362,93,54096,6,0,L|465:272,1,192.499994125366
308,151,54645,6,0,P|282:76|332:20,1,153.999995300293
208,239,55193,37,0,0:0:0:0:
160,172,55376,1,0,0:0:0:0:
229,272,55559,1,0,0:0:0:0:
281,346,55742,6,0,B|331:312|347:260|347:260|165:206|230:335|43:280,1,412.500015735627
455,48,58120,5,0,0:0:0:0:
168,128,58669,38,0,P|147:145|176:294,1,192.5
257,222,59401,6,0,P|186:211|112:243,1,137.5
235,322,59950,6,0,L|278:105,1,192.499994125366
296,32,60498,38,0,P|337:57|421:38,1,137.5
134,169,61596,6,0,P|204:89|226:199,1,269.499991775513
143,289,62328,6,0,L|131:153,1,137.5
247,140,62876,38,0,P|259:220|225:293,1,165
111,347,63517,6,0,B|92:290|92:290|108:224,1,110
356,166,64523,6,0,B|389:251|389:251|346:344,1,192.5
225,296,65254,38,0,P|298:305|357:343,1,137.5
475,335,65803,6,0,P|444:270|315:172,1,230.99999295044
277,264,66443,6,0,P|216:293|115:257,1,153.999995300293
395,64,67450,6,0,P|399:230|310:311,1,269.499991775513
214,286,68181,6,0,P|263:219|309:287,1,192.499994125366
191,299,68730,54,0,B|105:265|119:181|119:181|134:88|45:55,1,302.500009231568
123,297,96718,6,0,B|99:218|181:153|257:182|257:182|350:217|424:142|390:57,1,440
389,297,99645,6,0,B|413:218|331:153|255:182|255:182|162:217|88:142|122:57,1,440
84,292,102572,6,0,B|139:186|261:192|261:192|408:198|450:75,1,440
442,81,104767,1,0,0:0:0:0:
438,191,105133,1,0,0:0:0:0:
435,318,105498,38,0,P|519:325|482:228,1,220
246,328,106596,1,0,0:0:0:0:
246,328,106962,38,0,P|152:323|192:239,1,220
288,165,108059,1,0,0:0:0:0:
288,165,108425,38,0,P|376:208|453:125,1,220
153,82,109889,1,0,0:0:0:0:
125,331,111352,38,0,P|146:264|280:280,1,220
74,168,112815,1,0,0:0:0:0:
441,72,113547,1,0,0:0:0:0:
54,134,114279,6,0,P|16:300|46:339,1,220
416,261,115742,1,0,0:0:0:0:
106,23,116474,1,0,0:0:0:0:
400,65,117206,21,0,0:0:0:0:
214,339,117937,1,0,0:0:0:0:
182,85,118669,1,0,0:0:0:0:
347,300,119401,1,0,0:0:0:0:
66,288,119767,54,0,L|69:329,1,41.25
70,330,120133,22,0,B|90:327|117:333|117:333|143:338|170:330,1,96.25
265,262,120864,6,0,P|257:194|78:185,1,275
28,299,121413,2,0,L|51:154,1,137.5
109,70,121962,38,0,B|150:68|150:68|191:77,1,82.5
325,163,122328,2,0,B|284:165|284:165|243:156,1,82.5
400,273,122693,38,0,L|447:331,1,61.875002360344
455,339,123059,38,0,P|405:316|363:288,1,96.25
485,193,123791,6,0,B|493:145|485:97|485:97|381:97|301:185,1,275
219,327,124340,2,0,P|234:260|227:192,1,137.5
107,38,124889,38,0,B|100:79|100:79|106:119,1,82.5
199,251,125254,2,0,B|205:211|205:211|198:170,1,82.5
109,290,125620,54,0,L|105:331,1,41.25
118,351,125986,6,0,P|65:326|22:320,1,96.25
159,280,126718,6,0,B|193:291|229:283|229:283|259:262|298:240|369:265|387:310|392:346,1,275
448,224,127267,2,0,P|379:133|333:238,1,275
404,341,127815,6,0,B|439:351|439:351|483:341,1,82.5
338,282,128181,2,0,B|300:307|300:307|280:337,1,82.5
453,221,128547,6,0,L|437:116,1,82.5
479,31,128913,6,0,B|420:72|335:65|335:65|196:145|211:307,1,440
96,29,130193,2,0,P|78:99|72:187,1,137.5
71,163,130742,53,0,0:0:0:0:
144,287,131108,1,0,0:0:0:0:
86,369,131474,1,0,0:0:0:0:
344,163,131840,22,0,B|362:145|385:135|385:135|359:133|337:122,1,96.25
164,74,132572,6,0,B|123:122|124:202|124:202|127:277|79:328,1,275
161,205,133120,2,0,P|224:182|289:204,1,137.5
400,355,133669,6,0,P|411:327|392:278,1,82.5
264,245,134035,2,0,P|246:208|257:170,1,82.5
347,76,134401,21,0,0:0:0:0:
158,288,134767,6,0,P|129:241|120:198,1,96.25
206,70,135498,6,0,P|89:43|67:184,1,275
180,191,136047,2,0,P|216:94|200:62,1,137.5
45,105,136596,6,0,P|95:203|159:205,1,165,0|0,2:0|2:0,2:0:0:0:
288,74,136962,2,0,P|362:101|381:178,1,165,0|0,2:0|2:0,2:0:0:0:
107,347,137328,5,0,0:0:0:0:
107,347,137693,22,0,P|179:305|310:292,1,192.5
507,268,138425,6,0,P|439:215|240:218,1,288.750011014939
36,204,139157,6,0,P|196:114|407:161,1,385
18,182,139889,22,0,B|-38:98|19:8|19:8|68:29|71:74,1,275
105,84,140620,6,0,P|-23:241|101:336,1,385
238,305,141352,6,0,P|166:242|77:205,1,192.5
277,227,142084,6,0,P|355:248|450:253,1,165
466,252,143547,6,0,L|461:298,1,44
382,281,146474,2,0,L|385:324,1,44
275,276,149401,6,0,P|254:273|186:282,1,88
59,294,152328,54,0,P|39:249|44:201,1,98.9999969787599
103,201,153791,2,0,P|101:233|62:302,1,98.9999969787599
16,351,155254,6,0,P|120:323|221:363,1,220
360,292,158181,2,0,P|252:280|159:335,1,220
68,248,161108,54,0,P|175:235|268:290,1,220
478,234,164035,6,0,B|408:275|408:275|322:263,1,165
251,253,165498,2,0,B|195:250|195:250|139:272,1,110
91,329,166962,6,0,L|81:328,2,9.16666666666667
