osu file format v14

[General]
AudioFilename: Nine Point Eight - Mili.mp3
AudioLeadIn: 0
PreviewTime: 50499
Countdown: 1
SampleSet: Normal
StackLeniency: 0.7
Mode: 0
LetterboxInBreaks: 0
WidescreenStoryboard: 1

[Editor]
Bookmarks: 62298,146960,148606,148640,168945
DistanceSpacing: 1.6
BeatDivisor: 4
GridSize: 4
TimelineZoom: 1.3

[Metadata]
Title:Nine Point Eight
TitleUnicode:Nine Point Eight
Artist:Mili
ArtistUnicode:Mili
Creator:TheKoala
Version:Insane
Source:Deemo
Tags:Rayark Flowers Alice Hans Piano Girl Tree Collection 1 9.8 Arutsuki
BeatmapID:1312089
BeatmapSetID:318047

[Difficulty]
HPDrainRate:6
CircleSize:3.8
OverallDifficulty:7
ApproachRate:9
SliderMultiplier:1.5
SliderTickRate:1

[Events]
//Background and Video events
0,0,"deemo.jpg",0,0
//Break Periods
2,76400,85845
2,124493,129747
//Storyboard Layer 0 (Background)
//Storyboard Layer 1 (Fail)
//Storyboard Layer 2 (Pass)
//Storyboard Layer 3 (Foreground)
//Storyboard Sound Samples

[TimingPoints]
1567,365.853658536585,4,2,1,35,1,0
1567,-125,4,2,1,35,0,0
13274,-76.9230769230769,4,1,1,45,0,0
24981,-100,4,1,1,40,0,0
36688,-125,4,2,1,40,0,0
48396,-133.333333333333,4,1,1,35,0,0
51323,-80,4,1,1,60,0,1
56810,-111.111111111111,4,1,1,60,0,1
57176,-80,4,1,1,60,0,1
62938,-80,4,1,1,60,0,0
63030,-80,4,1,1,60,0,1
74737,-133.333333333333,4,2,1,35,0,0
98152,-90.9090909090909,4,1,1,40,0,0
102542,-90.9090909090909,4,1,1,60,0,0
103274,-86.9565217391304,4,1,1,50,0,0
104006,-86.9565217391304,4,1,1,45,0,0
109859,-100,4,2,1,45,0,0
121566,-133.333333333333,4,2,1,30,0,0
131810,-111.111111111111,4,2,1,30,0,0
133274,-100,4,2,1,30,0,0
134737,-100,4,1,1,30,0,0
136201,-76.9230769230769,4,1,1,55,0,1
146993,-200,4,1,1,45,0,0
149006,-133.333333333333,4,1,1,45,0,0
149371,-76.9230769230769,4,1,1,65,0,1
154859,-111.111111111111,4,1,1,65,0,1
155225,-76.9230769230769,4,1,1,65,0,1
160987,-76.9230769230769,4,1,1,65,0,0
161079,-76.9230769230769,4,1,1,65,0,1
166566,-100,4,1,1,65,0,1
166932,-76.9230769230769,4,1,1,65,0,1
172786,-133.333333333333,4,2,1,35,0,0

[Colours]
Combo1 : 193,98,70
Combo2 : 181,130,173
Combo3 : 113,196,152
Combo4 : 175,143,58
Combo5 : 177,206,201

[HitObjects]
136,188,1567,38,0,P|144:236|156:264,1,60,2|0,0:0|0:0,0:0:0:0:
248,248,1932,1,0,0:0:0:0:
136,188,2115,2,0,P|120:243|127:305,1,120,2|0,0:0|0:0,0:0:0:0:
232,164,2664,2,0,P|228:140|240:84,1,60,0|0,0:0|0:0,0:0:0:0:
376,320,3030,22,0,L|292:324,1,60,2|0,0:0|0:0,0:0:0:0:
248,248,3396,1,0,0:0:0:0:
376,320,3579,2,0,L|253:349,1,120,2|0,0:0|0:0,0:0:0:0:
244,200,4127,1,2,0:0:0:0:
180,272,4310,1,2,0:0:0:0:
324,172,4493,38,0,P|312:120|300:100,1,60,2|0,0:0|0:0,0:0:0:0:
220,80,4859,1,0,0:0:0:0:
324,172,5042,2,0,P|376:168|464:136,1,120,2|0,0:0|0:0,0:0:0:0:
376,32,5591,2,0,P|365:59|361:89,1,60,0|0,0:0|0:0,0:0:0:0:
352,240,5957,22,0,L|224:232,1,120,2|0,0:0|0:0,0:0:0:0:
176,148,6506,2,0,L|304:140,1,120,2|0,0:0|0:0,0:0:0:0:
356,60,7054,2,0,L|292:56,1,60,2|2,0:0|0:0,0:0:0:0:
176,148,7420,38,0,P|172:188|180:212,1,60,2|0,0:0|0:0,0:0:0:0:
252,276,7786,1,0,0:0:0:0:
176,148,7969,2,0,P|150:204|153:281,1,120,2|0,0:0|0:0,0:0:0:0:
292,204,8518,2,0,P|298:174|293:145,1,60,0|0,0:0|0:0,0:0:0:0:
136,36,8884,22,0,L|116:104,1,60,2|0,0:0|0:0,0:0:0:0:
36,152,9249,1,0,0:0:0:0:
136,36,9432,2,0,L|136:176,1,120,2|0,0:0|0:0,0:0:0:0:
296,204,9981,1,2,0:0:0:0:
232,128,10164,1,2,0:0:0:0:
236,304,10347,38,0,L|316:308,1,60,2|0,0:0|0:0,0:0:0:0:
388,260,10713,1,0,0:0:0:0:
236,304,10896,2,0,P|252:356|324:384,1,120,2|0,0:0|0:0,0:0:0:0:
288,224,11445,2,0,P|260:192|220:176,1,60,0|0,0:0|0:0,0:0:0:0:
56,244,11810,22,0,P|112:240|164:204,1,120,2|0,0:0|0:0,0:0:0:0:
245,183,12359,2,0,P|293:148|352:143,1,120,2|0,0:0|0:0,0:0:0:0:
296,248,12908,2,0,P|271:265|242:267,1,60,2|2,0:0|0:0,0:0:0:0:
72,130,13274,54,0,P|148:122|252:194,1,194.999991073609,6|8,0:0|0:0,0:0:0:0:
91,324,13823,2,0,L|72:130,1,194.999991073609,2|0,0:0|0:0,0:0:0:0:
276,276,14371,2,0,L|168:264,1,97.4999955368044,8|0,0:0|0:0,0:0:0:0:
400,132,14737,38,0,P|416:184|400:260,1,97.4999955368044,2|0,0:0|0:0,0:0:0:0:
352,320,15103,1,8,0:0:0:0:
296,148,15286,2,0,P|300:88|420:32,1,194.999991073609,2|0,0:0|0:0,0:0:0:0:
352,248,15835,1,10,0:0:0:0:
232,232,16018,1,2,0:0:0:0:
196,64,16201,22,0,P|200:124|72:164,1,194.999991073609,2|8,0:0|0:0,0:0:0:0:
104,28,16749,2,0,L|312:44,1,194.999991073609,2|0,0:0|0:0,0:0:0:0:
280,216,17298,2,0,P|256:152|264:108,1,97.4999955368044,8|0,0:0|0:0,0:0:0:0:
328,308,17664,38,0,L|200:312,1,97.4999955368044,2|0,0:0|0:0,0:0:0:0:
408,224,18030,1,8,0:0:0:0:
364,336,18213,2,0,L|139:343,1,194.999991073609,2|0,0:0|0:0,0:0:0:0:
224,208,18762,1,8,3:0:0:0:
224,208,18945,1,8,3:0:0:0:
52,340,19127,22,0,L|80:148,1,194.999991073609,6|8,0:0|0:0,0:0:0:0:
152,260,19676,2,0,P|208:292|312:212,1,194.999991073609,2|0,0:0|0:0,0:0:0:0:
230,110,20225,2,0,L|222:234,1,97.4999955368044,8|0,0:0|0:0,0:0:0:0:
408,108,20591,38,0,P|328:120|300:152,1,97.4999955368044,2|0,0:0|0:0,0:0:0:0:
464,200,20957,1,8,0:0:0:0:
488,64,21140,2,0,P|424:28|276:40,1,194.999991073609,2|0,0:0|0:0,0:0:0:0:
356,236,21688,1,10,0:0:0:0:
404,128,21871,1,2,0:0:0:0:
280,280,22054,22,0,L|492:284,1,194.999991073609,2|8,0:0|0:0,0:0:0:0:
268,176,22603,2,0,P|196:216|192:336,1,194.999991073609,2|0,0:0|0:0,0:0:0:0:
360,212,23152,2,0,P|360:152|344:116,1,97.4999955368044,8|0,0:0|0:0,0:0:0:0:
288,316,23518,38,0,L|412:320,1,97.4999955368044,2|0,0:0|0:0,0:0:0:0:
468,253,23884,1,8,0:0:0:0:
295,177,24066,2,0,P|299:261|411:317,1,194.999991073609,2|0,0:0|0:0,0:0:0:0:
364,108,24615,1,10,3:0:0:0:
256,72,24798,1,2,3:0:0:0:
176,232,24981,6,0,L|336:216,1,150,4|8,0:0|0:0,0:0:0:0:
416,152,25530,2,0,P|372:216|404:312,1,150,2|0,0:0|0:0,0:0:0:0:
496,208,26079,2,0,L|504:120,1,75,8|0,0:0|0:0,0:0:0:0:
336,68,26445,54,0,L|168:76,1,150,2|8,0:0|0:0,0:0:0:0:
144,180,26993,2,0,L|312:188,1,150,2|0,0:0|0:0,0:0:0:0:
40,132,27542,1,8,0:0:0:0:
56,244,27725,1,8,0:0:0:0:
184,83,27908,6,0,L|176:-9,1,75,0|0,0:0|0:0,0:0:0:0:
72,148,28274,2,0,L|80:56,1,75,8|0,0:0|0:0,0:0:0:0:
268,168,28640,1,0,0:0:0:0:
268,168,28823,2,0,L|260:76,1,75,8|0,0:0|0:0,0:0:0:0:
140,228,29188,1,8,0:0:0:0:
140,228,29371,6,0,L|152:78,2,150,0|8|8,0:0|0:0|0:0,0:0:0:0:
280,208,30469,1,10,0:0:0:0:
240,296,30652,1,2,0:0:0:0:
360,252,30835,6,0,P|364:176|296:116,1,150,2|8,0:0|0:0,0:0:0:0:
196,166,31384,2,0,B|168:188|168:188|280:208,1,150,2|0,0:0|0:0,0:0:0:0:
240,92,31932,2,0,P|184:80|144:100,1,75,8|0,0:0|0:0,0:0:0:0:
372,196,32298,54,0,L|412:28,1,150,2|8,0:0|0:0,0:0:0:0:
284,128,32847,2,0,P|260:188|284:268,1,150,2|0,0:0|0:0,0:0:0:0:
388,296,33396,2,0,P|444:276|464:240,1,75,8|8,0:0|0:0,0:0:0:0:
240,216,33762,6,0,L|88:224,1,150,2|8,0:0|0:0,0:0:0:0:
52,120,34310,2,0,P|80:76|196:64,1,150,2|8,0:0|0:0,0:0:0:0:
264,116,34859,1,0,0:0:0:0:
360,56,35042,1,8,0:0:0:0:
360,176,35225,54,0,L|360:260,1,75,2|0,0:0|0:0,0:0:0:0:
216,264,35591,2,0,P|268:220|300:216,1,75,8|0,0:0|0:0,0:0:0:0:
444,184,35957,2,0,P|464:184|488:172,3,37.5,0|0|0|0,0:0|0:0|0:0|0:0,0:0:0:0:
476,80,36323,53,8,0:0:0:0:
457,76,36414,1,8,3:0:0:0:
439,73,36505,1,8,3:0:0:0:
420,69,36597,1,8,3:0:0:0:
400,64,36688,22,0,P|352:96|264:104,1,120,4|0,0:0|0:0,0:0:0:0:
212,60,37237,1,0,0:0:0:0:
152,128,37420,2,0,P|140:172|140:204,1,60,8|0,0:0|0:0,0:0:0:0:
196,256,37786,2,0,L|304:244,1,90,0|0,0:0|0:0,0:0:0:0:
285,246,38152,38,0,L|87:219,1,180,2|0,0:0|0:0,0:0:0:0:
152,144,38884,2,0,P|160:108|156:76,1,60,8|0,0:0|0:0,0:0:0:0:
80,44,39249,1,8,0:0:0:0:
52,128,39432,1,8,0:0:0:0:
164,172,39615,22,0,P|180:100|172:36,1,120,2|0,0:0|0:0,0:0:0:0:
80,100,40164,1,0,0:0:0:0:
164,172,40347,1,8,0:0:0:0:
376,184,40713,38,0,P|392:112|384:48,1,120,0|2,0:0|0:0,0:0:0:0:
292,112,41262,1,0,0:0:0:0:
376,184,41445,1,0,0:0:0:0:
236,296,41810,22,0,L|96:312,1,120,8|8,0:0|3:0,0:0:0:0:
32,264,42359,1,8,3:0:0:0:
160,212,42542,38,0,P|180:156|160:84,1,120,2|0,0:0|0:0,0:0:0:0:
96,48,43091,2,0,B|176:64|176:64|232:56,1,120,2|0,0:0|0:0,0:0:0:0:
328,40,43640,2,0,L|336:140,1,90,2|0,0:0|0:0,0:0:0:0:
335,129,44006,21,2,0:0:0:0:
96,72,44554,1,2,0:0:0:0:
128,160,44737,2,0,P|136:204|128:236,1,60,10|2,0:0|0:0,0:0:0:0:
36,140,45103,1,10,3:0:0:0:
96,72,45286,1,10,3:0:0:0:
216,136,45469,38,0,L|284:140,1,60,2|0,0:0|0:0,0:0:0:0:
276,12,45835,2,0,P|252:56|252:80,1,60,0|2,0:0|0:0,0:0:0:0:
356,120,46201,1,0,0:0:0:0:
236,296,46566,22,0,L|168:300,1,60,2|0,0:0|0:0,0:0:0:0:
176,172,46932,2,0,P|200:216|200:240,1,60,2|0,0:0|0:0,0:0:0:0:
96,280,47298,1,0,0:0:0:0:
304,212,47481,1,2,0:0:0:0:
304,212,47664,38,0,L|372:216,1,60,10|0,0:0|0:0,0:0:0:0:
364,84,48030,2,0,P|340:128|340:152,1,60,10|8,3:0|3:0,0:0:0:0:
339,136,48304,1,0,3:0:0:0:
339,136,48396,6,0,P|259:88|227:92,1,112.500004291535,4|0,0:0|0:0,0:0:0:0:
152,168,48945,2,0,P|204:187|257:171,1,112.500004291535,2|0,0:0|0:0,0:0:0:0:
243,88,49493,1,2,0:0:0:0:
368,300,49859,54,0,L|256:316,1,112.500004291535,0|0,0:0|0:0,0:0:0:0:
96,292,50591,5,2,0:0:0:0:
140,216,50774,1,8,3:3:0:0:
140,216,50865,1,0,3:3:0:0:
140,216,50957,2,0,L|232:212,1,84.375003218651,8|0,3:3|2:2,0:0:0:0:
264,144,51323,22,0,P|252:208|288:260,1,93.75,6|0,0:0|0:0,0:0:0:0:
360,272,51688,1,8,0:0:0:0:
344,96,51871,2,0,P|288:56|180:112,1,187.5,2|0,0:0|0:0,0:0:0:0:
336,184,52420,2,0,P|400:168|428:112,1,93.75,8|0,0:0|0:0,0:0:0:0:
160,204,52786,6,0,L|170:297,1,93.75,2|0,0:0|0:0,0:0:0:0:
236,116,53152,1,8,0:0:0:0:
156,332,53335,2,0,L|135:145,1,187.5,2|0,0:0|0:0,0:0:0:0:
256,292,53884,1,10,0:0:0:0:
52,240,54066,1,10,0:0:0:0:
304,208,54249,54,0,L|284:324,1,93.75,2|0,0:0|0:0,0:0:0:0:
268,88,54615,1,10,0:0:0:0:
320,236,54798,2,0,L|300:352,1,93.75,2|0,0:0|0:0,0:0:0:0:
268,88,55164,1,2,0:0:0:0:
424,216,55347,1,10,0:0:0:0:
220,184,55530,1,0,0:0:0:0:
424,48,55713,6,0,P|412:100|272:80,2,187.5,2|8|2,0:0|0:0|0:0,0:0:0:0:
352,11,56536,1,0,0:0:0:0:
352,11,56627,2,0,P|349:34|347:57,1,46.875,0|0,0:0|0:0,0:0:0:0:
420,232,56810,22,0,P|428:144|428:120,1,101.249996910095,8|0,3:0|2:0,0:0:0:0:
336,215,57176,22,0,P|340:271|380:315,1,93.75,10|0,0:0|0:0,0:0:0:0:
356,128,57542,1,0,0:0:0:0:
268,312,57725,2,0,P|304:364|440:356,1,187.5,2|0,0:0|0:0,0:0:0:0:
284,216,58274,2,0,P|208:232|184:260,1,93.75,0|0,0:0|0:0,0:0:0:0:
466,150,58640,6,0,L|456:244,1,93.75,2|8,0:0|0:0,0:0:0:0:
360,288,59006,1,0,0:0:0:0:
435,56,59188,2,0,L|456:243,1,187.5,2|0,0:0|0:0,0:0:0:0:
240,132,59737,21,8,3:0:0:0:
240,132,59829,1,8,3:0:0:0:
240,132,59920,1,8,3:0:0:0:
240,132,60012,1,8,3:0:0:0:
240,132,60103,22,0,P|264:80|264:32,2,93.75,2|0|8,0:0|0:0|0:0,0:0:0:0:
308,212,60652,2,0,P|361:192|395:158,2,93.75,2|0|0,0:0|0:0|0:0,0:0:0:0:
272,308,61201,2,0,P|324:332|372:332,1,93.75,10|0,0:0|0:0,0:0:0:0:
112,160,61566,6,0,L|96:276,1,93.75,2|8,0:0|0:0,0:0:0:0:
212,88,61932,1,2,0:0:0:0:
100,36,62115,1,0,0:0:0:0:
280,180,62298,22,0,L|168:196,1,93.75,10|0,0:0|0:0,0:0:0:0:
380,128,62664,1,12,0:0:0:0:
292,308,62847,1,2,0:0:0:0:
254,91,63030,22,0,P|274:133|280:180,1,93.75,6|0,0:0|0:0,0:0:0:0:
220,272,63396,1,8,0:0:0:0:
372,156,63579,2,0,P|452:156|512:244,1,187.5,2|0,0:0|0:0,0:0:0:0:
280,179,64127,2,0,P|281:132|305:90,1,93.75,8|0,0:0|0:0,0:0:0:0:
208,320,64493,6,0,L|112:328,1,93.75,2|0,0:0|0:0,0:0:0:0:
24,272,64859,1,8,0:0:0:0:
192,236,65042,2,0,L|384:252,1,187.5,2|0,0:0|0:0,0:0:0:0:
236,156,65591,1,10,0:0:0:0:
300,340,65774,1,10,0:0:0:0:
364,64,65957,54,0,L|372:168,1,93.75,2|0,0:0|0:0,0:0:0:0:
288,240,66323,1,10,0:0:0:0:
384,36,66506,2,0,L|392:140,1,93.75,2|0,0:0|0:0,0:0:0:0:
288,240,66871,1,2,0:0:0:0:
240,40,67054,1,10,0:0:0:0:
336,168,67237,1,0,0:0:0:0:
92,104,67420,6,0,B|220:124|220:124|264:180,2,187.5,2|8|2,0:0|0:0|0:0,0:0:0:0:
258,254,68335,2,0,L|304:260,1,46.875,0|0,0:0|3:0,0:0:0:0:
180,208,68518,1,8,3:0:0:0:
240,344,68701,1,0,3:0:0:0:
272,116,68884,54,0,L|236:8,1,93.75,6|0,0:0|0:0,0:0:0:0:
236,220,69249,1,0,0:0:0:0:
360,86,69432,2,0,L|182:145,1,187.5,2|0,0:0|0:0,0:0:0:0:
320,280,69981,2,0,L|349:191,1,93.75,0|0,0:0|0:0,0:0:0:0:
104,132,70347,6,0,P|108:184|164:220,1,93.75,2|8,0:0|0:0,0:0:0:0:
248,204,70713,1,0,0:0:0:0:
80,108,70896,2,0,P|88:212|188:280,1,187.5,0|0,0:0|0:0,0:0:0:0:
268,72,71445,21,8,3:0:0:0:
268,72,71536,1,8,3:0:0:0:
268,72,71627,1,8,3:0:0:0:
268,72,71719,1,8,3:0:0:0:
268,72,71810,22,0,L|372:60,2,93.75,2|0|8,0:0|0:0|0:0,0:0:0:0:
396,176,72359,2,0,L|292:164,2,93.75,2|0|0,0:0|0:0|0:0,0:0:0:0:
272,276,72908,2,0,L|376:264,1,93.75,10|0,0:0|0:0,0:0:0:0:
140,180,73274,6,0,P|132:244|148:288,1,93.75,2|8,0:0|0:0,0:0:0:0:
232,120,73640,1,0,0:0:0:0:
116,68,73823,1,0,0:0:0:0:
311,227,74006,22,0,P|265:236|220:228,1,93.75,10|0,0:0|0:0,0:0:0:0:
372,152,74371,1,12,0:0:0:0:
284,324,74554,1,0,0:0:0:0:
128,164,74737,6,0,B|135:170|130:166|121:157|121:157|40:92|144:-32|276:92|168:164|168:164|136:192|132:228|132:256|160:288,1,450.000017166138,4|0,0:0|0:0,0:0:0:0:
40,192,86445,38,0,B|256:288|256:96|474:191,2,450.000017166138,0|0|0,0:0|0:0|0:0,0:0:0:0:
255,82,90835,22,0,B|208:192|304:192|256:300,2,225.000008583069,0|0|2,0:0|0:0|0:0,0:0:0:0:
412,304,93762,37,0,0:0:0:0:
100,304,95225,21,0,0:0:0:0:
256,84,96688,38,0,L|256:332,1,225.000008583069,0|0,0:0|0:0,0:0:0:0:
368,128,98152,5,4,0:0:0:0:
368,128,98335,1,2,0:0:0:0:
156,196,99615,5,4,0:0:0:0:
156,196,99798,1,2,0:0:0:0:
252,296,100164,2,0,B|372:288|372:288|416:248,1,165.000005035401,2|2,0:0|0:0,0:0:0:0:
332,208,100713,1,10,0:0:0:0:
376,364,100896,1,10,0:0:0:0:
404,160,101079,53,4,3:0:0:0:
332,288,101262,2,0,L|340:332,2,41.2500012588501,0|0|8,3:0|3:0|3:0,0:0:0:0:
264,168,101627,2,0,L|256:127,2,41.2500012588501,0|0|8,3:0|3:0|3:0,0:0:0:0:
232,280,101993,2,0,L|240:324,2,41.2500012588501,0|0|8,3:0|3:0|3:0,0:0:0:0:
176,200,102359,1,8,3:0:0:0:
176,200,102451,1,0,0:0:0:0:
176,200,102542,6,0,L|161:118,1,82.5000025177003,8|0,0:0|0:0,0:0:0:0:
88,192,102908,2,0,L|102:273,1,82.5000025177003,8|0,0:0|0:0,0:0:0:0:
268,272,103274,2,0,L|250:176,1,86.2500016450882,8|0,0:0|0:0,0:0:0:0:
176,272,103640,1,0,3:0:0:0:
179,292,103731,1,0,3:0:0:0:
183,312,103822,1,0,3:0:0:0:
186,332,103914,1,0,3:0:0:0:
190,353,104006,54,0,P|262:317|348:344,1,172.500003290176,2|8,0:0|0:0,0:0:0:0:
304,236,104554,2,0,L|316:56,1,172.500003290176,2|0,0:0|0:0,0:0:0:0:
400,132,105103,2,0,L|394:218,1,86.2500016450882,8|0,0:0|0:0,0:0:0:0:
220,172,105469,6,0,L|214:85,1,86.2500016450882,2|0,0:0|0:0,0:0:0:0:
272,256,105835,1,8,0:0:0:0:
128,128,106018,2,0,L|328:132,1,172.500003290176,2|0,0:0|0:0,0:0:0:0:
184,300,106566,2,0,P|176:256|184:200,1,86.2500016450882,10|2,0:0|0:0,0:0:0:0:
403,200,106932,54,0,P|353:265|272:256,1,172.500003290176,2|8,0:0|0:0,0:0:0:0:
328,148,107481,2,0,L|500:172,1,172.500003290176,2|0,0:0|0:0,0:0:0:0:
404,336,108030,2,0,L|379:253,1,86.2500016450882,8|0,0:0|0:0,0:0:0:0:
228,100,108396,6,0,P|220:148|232:188,1,86.2500016450882,0|8,3:0|3:0,0:0:0:0:
304,216,108670,1,8,3:0:0:0:
304,216,108762,2,0,L|408:216,1,86.2500016450882,8|0,3:0|0:0,0:0:0:0:
200,284,109127,1,8,3:0:0:0:
194,160,109310,1,0,3:0:0:0:
288,300,109493,2,0,L|418:300,1,129.375002467632,8|0,3:0|0:0,0:0:0:0:
280,212,109859,38,0,P|212:244|200:324,1,150,6|0,0:0|0:0,0:0:0:0:
288,300,110408,1,8,0:0:0:0:
356,247,110591,2,0,P|364:204|352:168,1,75,8|0,0:0|0:0,0:0:0:0:
280,120,110957,2,0,L|137:128,1,112.5,0|0,0:0|0:0,0:0:0:0:
167,126,111323,22,0,P|176:212|296:212,1,225,2|0,0:0|0:0,0:0:0:0:
348,144,112054,2,0,L|436:152,1,75,10|0,0:0|0:0,0:0:0:0:
480,248,112420,1,0,0:0:0:0:
368,260,112603,1,0,0:0:0:0:
316,116,112786,38,0,L|468:136,1,150,2|0,0:0|0:0,0:0:0:0:
376,216,113335,1,8,0:0:0:0:
316,116,113518,1,8,0:0:0:0:
184,224,113884,22,0,L|32:244,1,150,0|0,0:0|0:0,0:0:0:0:
124,324,114433,1,0,0:0:0:0:
184,224,114616,1,0,0:0:0:0:
328,64,114981,38,0,P|320:140|364:196,1,150,2|8,0:0|3:0,0:0:0:0:
415,112,115530,1,8,3:0:0:0:
240,128,115713,22,0,L|76:120,1,150,2|0,0:0|0:0,0:0:0:0:
208,212,116262,2,0,P|240:176|348:184,1,150,2|0,0:0|0:0,0:0:0:0:
248,288,116810,2,0,P|188:292|136:256,1,112.5,2|0,0:0|0:0,0:0:0:0:
144,266,117176,37,2,0:0:0:0:
148,80,117725,1,2,0:0:0:0:
220,144,117908,2,0,L|300:148,1,75,8|2,0:0|0:0,0:0:0:0:
148,80,118274,1,8,3:0:0:0:
176,220,118457,1,10,3:0:0:0:
256,56,118640,22,0,L|176:60,1,75,2|0,0:0|0:0,0:0:0:0:
256,196,119006,2,0,L|336:200,1,75,0|0,0:0|0:0,0:0:0:0:
152,144,119371,1,10,0:0:0:0:
344,184,119737,2,0,L|424:188,1,75,2|0,0:0|0:0,0:0:0:0:
348,324,120103,38,0,L|268:328,1,75,2|0,0:0|0:0,0:0:0:0:
452,272,120469,1,0,0:0:0:0:
269,218,120652,2,0,L|232:216,1,37.5,2|2,0:0|0:0,0:0:0:0:
164,176,120835,22,0,L|84:180,1,75,8|0,0:0|0:0,0:0:0:0:
160,316,121201,2,0,L|240:320,1,75,8|8,3:0|3:0,0:0:0:0:
304,296,121475,1,0,3:0:0:0:
320,288,121566,1,4,0:0:0:0:
97,246,130347,38,0,L|103:316,1,56.2500021457673,8|0,0:0|0:0,0:0:0:0:
180,277,130713,2,0,L|175:220,1,56.2500021457673,0|0,0:0|0:0,0:0:0:0:
98,114,131079,2,0,L|104:184,1,56.2500021457673,0|0,0:0|0:0,0:0:0:0:
181,145,131445,2,0,L|176:88,1,56.2500021457673,0|0,0:0|0:0,0:0:0:0:
296,260,131810,22,0,P|323:266|367:264,1,67.4999979400635,8|0,0:0|0:0,0:0:0:0:
399,190,132176,2,0,P|372:184|328:186,1,67.4999979400635,0|0,0:0|0:0,0:0:0:0:
148,266,132542,2,0,P|175:272|219:270,1,67.4999979400635,0|0,0:0|0:0,0:0:0:0:
251,196,132908,2,0,P|224:190|180:192,1,67.4999979400635,0|0,0:0|0:0,0:0:0:0:
53,308,133274,38,0,P|45:246|98:168,1,150,8|0,0:0|0:0,0:0:0:0:
192,126,133823,2,0,L|353:144,1,150,0|0,0:0|0:0,0:0:0:0:
214,287,134371,2,0,L|181:212,1,75,0|0,0:0|0:0,0:0:0:0:
122,36,134737,22,0,L|283:54,1,150,8|0,0:0|0:0,0:0:0:0:
467,194,135286,2,0,L|317:177,1,150,0|0,0:0|0:0,0:0:0:0:
152,156,135835,5,8,3:0:0:0:
145,173,135926,1,8,3:0:0:0:
143,192,136017,1,8,3:0:0:0:
146,210,136109,1,8,3:0:0:0:
156,232,136201,6,0,B|216:260|216:260|272:252,1,97.4999955368044,4|0,0:0|0:0,0:0:0:0:
232,176,136566,1,8,0:0:0:0:
216,344,136749,2,0,B|344:320|344:320|380:252,1,194.999991073609,2|0,0:0|0:0,0:0:0:0:
145,173,137298,2,0,L|165:293,1,97.4999955368044,10|0,0:0|0:0,0:0:0:0:
340,148,137664,5,2,0:0:0:0:
240,104,137847,1,0,0:0:0:0:
312,240,138030,2,0,L|416:248,1,97.4999955368044,10|0,0:0|0:0,0:0:0:0:
224,200,138396,5,2,0:0:0:0:
340,148,138579,1,0,0:0:0:0:
228,288,138762,1,10,3:0:0:0:
180,112,138945,6,0,B|244:80|244:80|296:96|296:96|388:56,1,194.999991073609,10|0,3:0|0:0,0:0:0:0:
96,64,139493,2,0,B|88:132|88:132|112:168,1,97.4999955368044,10|0,0:0|0:0,0:0:0:0:
252,196,139859,1,2,0:0:0:0:
156,264,140042,1,2,0:0:0:0:
292,276,140225,2,0,L|476:256,1,146.249993305207,10|0,0:0|0:0,0:0:0:0:
464,236,140591,6,0,B|452:184|452:184|464:128,1,97.4999955368044,2|0,0:0|0:0,0:0:0:0:
324,76,140957,2,0,B|333:119|333:119|321:171,1,97.4999955368044,10|0,0:0|0:0,0:0:0:0:
199,279,141323,1,10,0:0:0:0:
170,196,141506,1,2,0:0:0:0:
284,256,141688,1,8,3:0:0:0:
113,263,141871,1,8,3:0:0:0:
328,184,142054,54,0,B|384:184|384:184|432:216,1,97.4999955368044,6|0,1:1|1:1,0:0:0:0:
444,284,142329,1,0,1:1:0:0:
444,284,142420,2,0,L|432:332,1,48.7499977684022,10|0,1:1|1:1,0:0:0:0:
344,340,142603,2,0,L|356:292,1,48.7499977684022,2|0,1:1|1:1,0:0:0:0:
456,156,142786,2,0,L|444:204,1,48.7499977684022,0|0,1:1|1:1,0:0:0:0:
356,212,142969,2,0,L|368:164,1,48.7499977684022,8|0,1:1|1:1,0:0:0:0:
440,40,143152,5,10,1:1:0:0:
440,40,143243,1,0,1:1:0:0:
440,40,143335,1,2,1:1:0:0:
440,40,143426,1,0,1:1:0:0:
440,40,143518,2,0,L|428:88,1,48.7499977684022,14|0,1:1|1:1,0:0:0:0:
376,224,143701,37,2,1:1:0:0:
352,238,143792,1,0,1:1:0:0:
325,244,143883,1,10,1:1:0:0:
298,241,143975,1,2,1:1:0:0:
273,228,144066,1,10,1:1:0:0:
254,208,144158,1,2,1:1:0:0:
240,184,144249,2,0,L|236:124,1,48.7499977684022,2|0,1:1|1:1,0:0:0:0:
312,60,144432,5,0,1:1:0:0:
152,188,144615,1,8,1:1:0:0:
391,177,144798,1,8,1:1:0:0:
204,120,144981,5,0,0:0:0:0:
204,120,145164,2,0,B|192:192|192:192|228:236|228:236|204:344,1,194.999991073609,0|0,0:0|0:0,0:0:0:0:
391,177,145713,2,0,L|296:160,1,97.4999955368044,2|0,0:0|0:0,0:0:0:0:
332,352,146079,2,0,B|339:317|339:317|323:257,1,97.4999955368044,10|0,0:0|0:0,0:0:0:0:
144,104,146445,6,0,P|148:188|240:244,1,194.999991073609,12|10,0:0|0:0,0:0:0:0:
436,276,146993,6,0,B|369:313|300:260|300:260|264:300|264:300|188:248|123:289,1,337.5,4|4,0:0|0:0,0:0:0:0:
244,200,148823,5,8,3:0:0:0:
244,200,148914,1,0,3:0:0:0:
244,200,149006,2,0,L|228:104,1,84.3750032186509,8|0,3:0|2:0,0:0:0:0:
272,48,149371,22,0,P|232:76|160:68,1,97.4999955368044,6|0,0:0|0:0,0:0:0:0:
84,24,149737,1,8,0:0:0:0:
216,164,149920,2,0,L|420:176,1,194.999991073609,2|0,0:0|0:0,0:0:0:0:
300,256,150469,2,0,P|292:324|300:364,1,97.4999955368044,8|0,0:0|0:0,0:0:0:0:
508,232,150835,6,0,L|400:260,1,97.4999955368044,2|0,0:0|0:0,0:0:0:0:
480,136,151201,1,8,0:0:0:0:
504,324,151384,2,0,L|288:268,1,194.999991073609,2|0,0:0|0:0,0:0:0:0:
316,68,151932,1,10,3:0:0:0:
392,216,152115,1,10,3:0:0:0:
172,156,152298,54,0,P|248:148|296:180,1,97.4999955368044,2|0,0:0|0:0,0:0:0:0:
108,284,152664,1,10,0:0:0:0:
192,128,152847,2,0,P|268:120|316:152,1,97.4999955368044,2|0,0:0|0:0,0:0:0:0:
108,284,153213,1,2,0:0:0:0:
88,76,153396,1,10,0:0:0:0:
204,244,153579,1,0,0:0:0:0:
304,49,153762,6,0,B|176:96|176:96|148:160,2,194.999991073609,2|8|8,0:0|0:0|3:0,0:0:0:0:
296,140,154585,1,0,3:0:0:0:
296,140,154676,2,0,L|232:164,1,48.7499977684022,8|0,3:0|3:0,0:0:0:0:
372,96,154859,22,0,P|432:96|500:108,1,101.249996910095,8|0,3:0|2:0,0:0:0:0:
453,256,155225,22,0,P|419:223|416:176,1,97.4999955368044,6|0,0:0|0:0,0:0:0:0:
472,76,155591,1,0,0:0:0:0:
452,256,155774,2,0,P|296:264|232:244,1,194.999991073609,2|0,0:0|0:0,0:0:0:0:
352,76,156323,2,0,L|368:192,1,97.4999955368044,0|0,0:0|0:0,0:0:0:0:
160,280,156688,6,0,P|172:204|208:172,1,97.4999955368044,2|8,0:0|0:0,0:0:0:0:
244,348,157054,1,0,0:0:0:0:
158,96,157237,2,0,P|131:188|160:280,1,194.999991073609,2|0,0:0|0:0,0:0:0:0:
372,144,157786,21,10,3:0:0:0:
372,144,157877,1,0,3:0:0:0:
372,144,157969,1,10,3:0:0:0:
372,144,158060,1,0,3:0:0:0:
372,144,158152,22,0,P|416:124|460:68,2,97.4999955368044,2|0|8,0:0|0:0|0:0,0:0:0:0:
268,208,158701,2,0,P|263:256|289:322,2,97.4999955368044,2|0|0,0:0|0:0|0:0,0:0:0:0:
264,84,159249,2,0,P|224:55|154:45,1,97.4999955368044,10|0,0:0|0:0,0:0:0:0:
176,264,159615,6,0,L|184:160,1,97.4999955368044,2|8,0:0|0:0,0:0:0:0:
100,348,159981,1,0,0:0:0:0:
208,380,160164,1,0,0:0:0:0:
136,96,160347,22,0,L|143:193,1,97.4999955368044,10|0,0:0|0:0,0:0:0:0:
252,64,160713,1,14,0:0:0:0:
56,8,160896,1,0,0:0:0:0:
252,168,161079,38,0,L|349:164,1,97.4999955368044,6|0,0:0|0:0,0:0:0:0:
396,60,161445,1,8,0:0:0:0:
252,168,161627,2,0,P|308:256|396:252,1,194.999991073609,2|0,0:0|0:0,0:0:0:0:
359,70,162176,2,0,P|343:115|349:164,1,97.4999955368044,8|0,0:0|0:0,0:0:0:0:
428,336,162542,54,0,L|296:320,1,97.4999955368044,2|0,0:0|0:0,0:0:0:0:
220,272,162908,1,8,0:0:0:0:
382,154,163091,2,0,P|428:239|428:336,1,194.999991073609,2|0,0:0|0:0,0:0:0:0:
264,160,163640,1,10,3:0:0:0:
428,48,163823,1,10,3:0:0:0:
300,256,164006,6,0,P|220:252|188:228,1,97.4999955368044,2|0,0:0|0:0,0:0:0:0:
276,88,164371,1,10,0:0:0:0:
296,280,164554,2,0,P|216:276|184:252,1,97.4999955368044,2|0,0:0|0:0,0:0:0:0:
276,88,164920,1,2,0:0:0:0:
388,244,165103,1,10,0:0:0:0:
176,156,165286,1,0,0:0:0:0:
408,144,165469,54,0,P|340:156|304:300,2,194.999991073609,2|8|8,0:0|0:0|3:0,0:0:0:0:
435,249,166292,1,0,3:0:0:0:
435,249,166384,2,0,L|388:240,1,48.7499977684022,8|0,3:0|3:0,0:0:0:0:
354,48,166566,38,0,P|391:90|408:144,1,112.5,8|0,3:0|2:0,0:0:0:0:
236,224,166932,38,0,P|259:162|295:128,1,97.4999955368044,6|0,0:0|0:0,0:0:0:0:
296,312,167298,1,0,0:0:0:0:
152,224,167481,2,0,P|199:101|270:32,1,194.999991073609,2|0,0:0|0:0,0:0:0:0:
340,227,168030,2,0,P|316:288|280:322,1,97.4999955368044,0|0,0:0|0:0,0:0:0:0:
368,88,168396,54,0,L|472:100,1,97.4999955368044,2|8,0:0|0:0,0:0:0:0:
308,16,168762,1,0,0:0:0:0:
488,188,168945,2,0,L|294:165,1,194.999991073609,2|0,0:0|0:0,0:0:0:0:
132,268,169493,37,10,3:0:0:0:
132,268,169585,1,0,3:0:0:0:
132,268,169676,1,10,3:0:0:0:
132,268,169768,1,0,3:0:0:0:
132,268,169859,38,0,L|136:164,1,97.4999955368044,2|0,0:0|0:0,0:0:0:0:
40,216,170225,1,10,0:0:0:0:
227,174,170408,2,0,L|224:272,1,97.4999955368044,10|2,0:0|0:0,0:0:0:0:
132,220,170774,1,10,0:0:0:0:
316,276,170957,2,0,L|320:172,1,97.4999955368044,10|0,0:0|0:0,0:0:0:0:
104,72,171323,54,0,P|152:64|208:80,1,97.4999955368044,10|10,0:0|0:0,0:0:0:0:
64,244,171688,1,10,0:0:0:0:
16,104,171871,1,0,0:0:0:0:
240,320,172054,38,0,P|192:328|136:312,1,97.4999955368044,10|8,3:0|3:0,0:0:0:0:
356,72,172420,2,0,P|402:84|440:116,1,97.4999955368044,14|8,3:0|3:0,0:0:0:0:
184,156,172786,1,6,0:0:0:0:
