osu file format v14

[General]
AudioFilename: Nine Point Eight - Mili.mp3
AudioLeadIn: 0
PreviewTime: 50499
Countdown: 1
SampleSet: Soft
StackLeniency: 0.7
Mode: 0
LetterboxInBreaks: 0
WidescreenStoryboard: 1

[Editor]
Bookmarks: 146960,148606,149704
DistanceSpacing: 1.4
BeatDivisor: 4
GridSize: 4
TimelineZoom: 1

[Metadata]
Title:Nine Point Eight
TitleUnicode:Nine Point Eight
Artist:Mili
ArtistUnicode:Mili
Creator:TheKoala
Version:Hard
Source:Deemo
Tags:Rayark Flowers Alice Hans Piano Girl Tree Collection 1 9.8 Arutsuki
BeatmapID:710205
BeatmapSetID:318047

[Difficulty]
HPDrainRate:6
CircleSize:3.5
OverallDifficulty:6
ApproachRate:7.5
SliderMultiplier:1.3
SliderTickRate:1

[Events]
//Background and Video events
0,0,"deemo.jpg",0,0
//Break Periods
2,74937,85620
2,124493,129522
//Storyboard Layer 0 (Background)
//Storyboard Layer 1 (Fail)
//Storyboard Layer 2 (Pass)
//Storyboard Layer 3 (Foreground)
//Storyboard Sound Samples

[TimingPoints]
1567,365.853658536585,4,2,1,35,1,0
13274,-90.9090909090909,4,1,1,45,0,0
24981,-100,4,1,1,40,0,0
36688,-125,4,2,1,40,0,0
48396,-133.333333333333,4,1,1,35,0,0
51323,-88.4955752212389,4,1,1,60,0,1
62938,-86.9565217391304,4,1,1,60,0,0
63030,-86.9565217391304,4,1,1,60,0,1
74737,-133.333333333333,4,2,1,35,0,0
98152,-90.9090909090909,4,1,1,40,0,0
102542,-86.9565217391304,4,1,1,60,0,0
103274,-86.9565217391304,4,1,1,50,0,0
104006,-86.9565217391304,4,1,1,45,0,0
109859,-100,4,2,1,45,0,0
121566,-133.333333333333,4,2,1,30,0,0
134737,-133.333333333333,4,1,1,30,0,0
136201,-86.9565217391304,4,1,1,55,0,1
146993,-117.647058823529,4,1,1,45,0,0
149371,-86.9565217391304,4,1,1,65,0,1
160987,-86.9565217391304,4,1,1,65,0,0
161079,-86.9565217391304,4,1,1,65,0,1
172786,-133.333333333333,4,2,1,35,0,0

[Colours]
Combo1 : 181,130,173
Combo2 : 113,196,152
Combo3 : 175,143,58
Combo4 : 177,206,201
Combo5 : 193,98,70

[HitObjects]
156,232,1567,22,0,P|144:184|152:140,1,65,2|0,0:0|0:0,0:0:0:0:
232,188,1932,1,0,0:0:0:0:
232,280,2115,2,0,P|192:316|116:312,1,130,2|0,0:0|0:0,0:0:0:0:
56,248,2664,2,0,P|56:204|64:168,1,65,0|0,0:0|0:0,0:0:0:0:
120,116,3030,22,0,L|208:108,1,65,2|0,0:0|0:0,0:0:0:0:
268,76,3396,1,0,0:0:0:0:
292,164,3579,2,0,L|296:312,1,130,2|0,0:0|0:0,0:0:0:0:
224,352,4127,1,2,0:0:0:0:
172,280,4310,1,2,0:0:0:0:
196,192,4493,38,0,P|228:168|264:160,1,65,2|0,0:0|0:0,0:0:0:0:
260,252,4859,1,0,0:0:0:0:
172,280,5042,2,0,P|116:236|112:164,1,130,2|0,0:0|0:0,0:0:0:0:
140,96,5591,2,0,L|212:76,1,65,0|0,0:0|0:0,0:0:0:0:
292,52,5957,22,0,P|352:40|420:80,1,130,2|0,0:0|0:0,0:0:0:0:
480,128,6506,2,0,B|488:196|488:196|479:256,1,130,2|0,0:0|0:0,0:0:0:0:
472,360,7054,1,2,0:0:0:0:
392,376,7237,1,2,0:0:0:0:
304,324,7420,38,0,P|260:316|232:316,1,65,2|0,0:0|0:0,0:0:0:0:
152,344,7786,1,0,0:0:0:0:
68,304,7969,2,0,P|108:260|196:260,1,130,2|0,0:0|0:0,0:0:0:0:
239,315,8518,2,0,P|271:314|303:307,1,65,0|0,0:0|0:0,0:0:0:0:
356,240,8884,22,0,P|352:200|360:168,1,65,2|0,0:0|0:0,0:0:0:0:
440,212,9249,1,0,0:0:0:0:
420,295,9432,2,0,P|363:324|303:306,1,130,2|0,0:0|0:0,0:0:0:0:
252,232,9981,1,2,0:0:0:0:
276,144,10164,1,2,0:0:0:0:
336,76,10347,38,0,L|432:68,1,65,2|0,0:0|0:0,0:0:0:0:
492,60,10713,1,0,0:0:0:0:
484,152,10896,2,0,L|468:300,1,130,2|0,0:0|0:0,0:0:0:0:
388,320,11445,2,0,P|340:320|304:308,1,65,0|0,0:0|0:0,0:0:0:0:
268,244,11810,22,0,P|256:184|264:112,1,130,2|0,0:0|0:0,0:0:0:0:
344,156,12359,2,0,P|356:219|349:283,1,130,2|0,0:0|0:0,0:0:0:0:
272,336,12908,2,0,P|224:324|192:296,1,65,2|2,0:0|0:0,0:0:0:0:
172,224,13274,54,0,L|164:144,1,71.5000021820069,6|0,0:0|0:0,0:0:0:0:
184,52,13640,1,8,0:0:0:0:
256,120,13823,2,0,P|325:130|387:97,1,143.000004364014,2|0,0:0|0:0,0:0:0:0:
464,32,14371,2,0,P|488:88|488:132,1,71.5000021820069,8|0,0:0|0:0,0:0:0:0:
448,188,14737,38,0,L|460:272,1,71.5000021820069,2|0,0:0|0:0,0:0:0:0:
432,356,15103,1,8,0:0:0:0:
360,284,15286,2,0,P|328:216|336:128,1,143.000004364014,2|0,0:0|0:0,0:0:0:0:
348,52,15835,1,10,0:0:0:0:
256,91,16018,1,2,0:0:0:0:
172,148,16201,22,0,L|88:160,1,71.5000021820069,2|0,0:0|0:0,0:0:0:0:
148,248,16566,1,8,0:0:0:0:
244,224,16749,2,0,P|272:164|252:84,1,143.000004364014,2|0,0:0|0:0,0:0:0:0:
168,48,17298,2,0,L|84:60,1,71.5000021820069,8|0,0:0|0:0,0:0:0:0:
40,140,17664,38,0,P|56:184|56:236,1,71.5000021820069,2|0,0:0|0:0,0:0:0:0:
24,304,18030,1,8,0:0:0:0:
120,272,18213,2,0,L|272:288,1,143.000004364014,2|0,0:0|0:0,0:0:0:0:
368,300,18762,1,8,3:0:0:0:
344,196,18945,1,8,3:0:0:0:
376,88,19127,22,0,P|328:56|284:48,1,71.5000021820069,6|0,0:0|0:0,0:0:0:0:
208,48,19493,1,8,0:0:0:0:
148,136,19676,2,0,P|184:184|284:188,1,143.000004364014,2|0,0:0|0:0,0:0:0:0:
348,132,20225,2,0,P|364:180|364:224,1,71.5000021820069,8|0,0:0|0:0,0:0:0:0:
304,296,20591,38,0,L|224:300,1,71.5000021820069,2|0,0:0|0:0,0:0:0:0:
148,244,20957,1,8,0:0:0:0:
120,148,21140,2,0,P|184:148|244:216,1,143.000004364014,2|0,0:0|0:0,0:0:0:0:
233,300,21688,2,0,L|304:296,1,71.5000021820069,10|2,0:0|0:0,0:0:0:0:
396,260,22054,22,0,P|388:184|392:160,1,71.5000021820069,2|0,0:0|0:0,0:0:0:0:
484,216,22420,1,8,0:0:0:0:
476,316,22603,2,0,P|408:356|324:324,1,143.000004364014,2|0,0:0|0:0,0:0:0:0:
276,272,23152,2,0,L|216:200,1,71.5000021820069,8|0,0:0|0:0,0:0:0:0:
172,136,23518,38,0,P|228:104|256:100,2,71.5000021820069,2|0|8,0:0|0:0|0:0,0:0:0:0:
104,204,24066,2,0,P|76:136|104:68,1,143.000004364014,2|0,0:0|0:0,0:0:0:0:
180,16,24615,2,0,P|220:8|276:16,1,71.5000021820069,10|2,3:0|3:0,0:0:0:0:
324,64,24981,6,0,P|320:96|344:196,1,130,4|8,0:0|0:0,0:0:0:0:
396,264,25530,2,0,P|440:264|512:220,2,130,2|0|0,0:0|0:0|0:0,0:0:0:0:
308,244,26445,54,0,P|272:248|240:264,1,65,2|0,0:0|0:0,0:0:0:0:
300,332,26810,1,8,0:0:0:0:
384,296,26993,2,0,P|400:252|368:176,1,130,2|0,0:0|0:0,0:0:0:0:
288,140,27542,2,0,L|200:136,1,65,8|8,0:0|0:0,0:0:0:0:
148,176,27908,6,0,P|152:236|200:284,1,130,0|8,0:0|0:0,0:0:0:0:
284,284,28457,2,0,L|428:264,1,130,0|8,0:0|0:0,0:0:0:0:
456,192,29006,2,0,L|380:184,1,65,0|8,0:0|0:0,0:0:0:0:
287,173,29371,5,0,0:0:0:0:
146,266,29737,1,8,0:0:0:0:
297,341,30103,1,8,0:0:0:0:
374,210,30469,2,0,P|368:171|379:138,1,65,10|2,0:0|0:0,0:0:0:0:
405,60,30835,38,0,P|357:44|273:88,1,130,2|8,0:0|0:0,0:0:0:0:
273,162,31384,2,0,L|297:302,1,130,2|0,0:0|0:0,0:0:0:0:
383,310,31932,2,0,L|390:233,1,65,8|0,0:0|0:0,0:0:0:0:
422,160,32298,6,0,L|414:88,2,65,2|0|8,0:0|0:0|0:0,0:0:0:0:
340,128,32847,2,0,P|288:104|200:136,1,130,2|0,0:0|0:0,0:0:0:0:
212,212,33396,2,0,P|244:208|273:195,1,65,8|8,0:0|0:0,0:0:0:0:
340,128,33762,54,0,P|388:108|472:140,1,130,2|8,0:0|0:0,0:0:0:0:
468,219,34310,2,0,P|432:255|416:343,1,130,2|8,0:0|0:0,0:0:0:0:
332,296,34859,2,0,L|264:304,1,65,0|8,0:0|0:0,0:0:0:0:
180,336,35225,5,2,0:0:0:0:
248,180,35591,1,8,0:0:0:0:
396,264,35957,2,0,P|392:224|396:188,1,65,0|0,0:0|0:0,0:0:0:0:
403,154,36231,1,0,0:0:0:0:
403,154,36323,2,0,L|399:102,3,32.5,8|8|8|8,0:0|3:0|3:0|3:0,0:0:0:0:
412,84,36688,22,0,P|352:60|268:108,1,156,4|0,0:0|0:0,0:0:0:0:
255,174,37420,2,0,L|259:234,1,52,8|0,0:0|0:0,0:0:0:0:
264,302,37786,1,0,0:0:0:0:
155,199,38152,2,0,P|159:131|231:67,1,156,2|0,0:0|0:0,0:0:0:0:
295,84,38884,2,0,P|367:84|407:72,1,104,8|8,0:0|0:0,0:0:0:0:
461,31,39432,1,8,0:0:0:0:
461,31,39615,38,0,P|445:87|457:147,1,104,2|0,0:0|0:0,0:0:0:0:
471,207,40164,2,0,L|475:263,1,52,0|8,0:0|0:0,0:0:0:0:
348,351,40713,2,0,L|232:339,1,104,0|2,0:0|0:0,0:0:0:0:
206,271,41262,2,0,P|218:247|246:215,1,52,0|0,0:0|0:0,0:0:0:0:
300,186,41627,1,0,0:0:0:0:
300,186,41719,1,0,0:0:0:0:
300,186,41810,2,0,P|328:146|336:122,1,52,8|0,0:0|0:0,0:0:0:0:
392,76,42176,1,8,3:0:0:0:
308,52,42359,1,8,3:0:0:0:
221,64,42542,22,0,P|170:112|175:205,1,156,2|2,0:0|0:0,0:0:0:0:
208,263,43274,2,0,P|260:287|308:275,1,104,8|2,0:0|0:0,0:0:0:0:
345,126,44006,1,2,0:0:0:0:
345,126,44554,1,2,0:0:0:0:
392,187,44737,2,0,L|392:243,1,52,10|2,0:0|0:0,0:0:0:0:
421,337,45103,1,10,3:0:0:0:
484,268,45286,1,10,3:0:0:0:
496,176,45469,38,0,P|492:124|416:52,1,156,2|2,0:0|0:0,0:0:0:0:
344,39,46201,1,0,0:0:0:0:
214,124,46566,2,0,P|258:160|314:168,1,104,2|2,0:0|0:0,0:0:0:0:
379,348,47481,1,2,0:0:0:0:
308,315,47664,2,0,L|248:311,1,52,10|0,0:0|0:0,0:0:0:0:
187,274,48030,1,10,3:0:0:0:
242,218,48213,1,8,3:0:0:0:
242,218,48304,1,0,3:0:0:0:
242,218,48396,22,0,P|258:182|266:110,1,97.50000371933,4|0,0:0|0:0,0:0:0:0:
200,93,48945,2,0,P|195:53|190:29,2,48.750001859665,2|0|0,0:0|0:0|0:0,0:0:0:0:
158,153,49493,1,2,0:0:0:0:
184,272,49859,54,0,P|192:328|212:364,2,97.50000371933,0|0|2,0:0|0:0|0:0,0:0:0:0:
292,184,50774,1,8,3:3:0:0:
292,184,50865,1,0,3:3:0:0:
292,184,50957,2,0,L|365:187,1,73.1250027894975,8|0,3:3|2:2,0:0:0:0:
400,108,51323,22,0,L|316:104,1,73.4500002241516,6|0,0:0|0:0,0:0:0:0:
224,108,51688,1,8,0:0:0:0:
152,188,51871,2,0,P|140:248|148:280,1,73.4500002241516,2|0,0:0|0:0,0:0:0:0:
200,344,52237,2,0,P|252:332|292:336,1,73.4500002241516,0|8,0:0|0:0,0:0:0:0:
372,352,52603,1,0,0:0:0:0:
336,256,52786,6,0,P|332:204|344:168,1,73.4500002241516,2|0,0:0|0:0,0:0:0:0:
420,120,53152,1,8,0:0:0:0:
432,224,53335,2,0,P|356:224|280:216,1,146.900000448303,2|0,0:0|0:0,0:0:0:0:
196,164,53884,1,10,0:0:0:0:
188,64,54066,1,10,0:0:0:0:
284,104,54249,54,0,L|368:120,1,73.4500002241516,2|0,0:0|0:0,0:0:0:0:
456,144,54615,1,10,0:0:0:0:
408,236,54798,2,0,L|324:252,1,73.4500002241516,2|0,0:0|0:0,0:0:0:0:
236,276,55164,1,2,0:0:0:0:
236,276,55347,2,0,P|180:264|136:264,1,73.4500002241516,10|0,0:0|0:0,0:0:0:0:
72,308,55713,6,0,P|64:248|76:152,1,146.900000448303,2|8,0:0|0:0,0:0:0:0:
256,64,56445,2,0,L|296:68,2,36.7250001120758,2|0|0,0:0|0:0|0:0,0:0:0:0:
184,136,56810,2,0,P|196:184|256:224,1,110.175000336227,8|0,3:0|2:0,0:0:0:0:
292,224,57176,54,0,P|280:272|256:316,2,73.4500002241516,10|0|0,0:0|0:0|0:0,0:0:0:0:
280,120,57725,2,0,P|336:100|424:136,1,146.900000448303,2|0,0:0|0:0,0:0:0:0:
432,228,58274,2,0,P|424:272|428:320,1,73.4500002241516,0|0,0:0|0:0,0:0:0:0:
332,348,58640,6,0,P|292:292|200:280,1,146.900000448303,2|0,0:0|0:0,0:0:0:0:
112,292,59188,2,0,P|96:212|140:140,1,146.900000448303,2|0,0:0|0:0,0:0:0:0:
224,108,59737,2,0,P|244:104|272:92,3,36.7250001120758,8|8|8|8,3:0|3:0|3:0|3:0,0:0:0:0:
300,64,60103,54,0,P|344:52|384:52,2,73.4500002241516,2|0|8,0:0|0:0|0:0,0:0:0:0:
348,156,60652,2,0,P|390:171|423:194,2,73.4500002241516,2|0|0,0:0|0:0|0:0,0:0:0:0:
334,258,61201,2,0,P|360:295|374:332,1,73.4500002241516,10|0,0:0|0:0,0:0:0:0:
268,340,61566,6,0,L|184:336,1,73.4500002241516,2|8,0:0|0:0,0:0:0:0:
112,276,61932,1,2,0:0:0:0:
52,360,62115,1,0,0:0:0:0:
40,208,62298,2,0,P|44:168|56:120,1,73.4500002241516,10|0,0:0|0:0,0:0:0:0:
200,88,62664,2,0,P|207:123|211:160,1,73.4500002241516,12|2,0:0|0:0,0:0:0:0:
140,288,63030,54,0,L|220:276,1,74.7500014257431,6|0,0:0|0:0,0:0:0:0:
316,256,63396,1,8,0:0:0:0:
404,312,63579,2,0,P|356:356|276:356,1,149.500002851486,2|0,0:0|0:0,0:0:0:0:
316,256,64127,2,0,P|320:208|308:160,1,74.7500014257431,8|0,0:0|0:0,0:0:0:0:
228,124,64493,5,2,0:0:0:0:
144,188,64676,1,0,0:0:0:0:
176,288,64859,1,8,0:0:0:0:
256,220,65042,2,0,L|416:236,1,149.500002851486,2|0,0:0|0:0,0:0:0:0:
504,196,65591,1,10,0:0:0:0:
488,300,65774,1,10,0:0:0:0:
428,144,65957,54,0,L|336:132,1,74.7500014257431,2|0,0:0|0:0,0:0:0:0:
260,88,66323,1,10,0:0:0:0:
212,184,66506,2,0,L|304:196,1,74.7500014257431,2|0,0:0|0:0,0:0:0:0:
476,204,66872,1,2,0:0:0:0:
380,240,67054,1,10,0:0:0:0:
476,204,67237,1,0,0:0:0:0:
450,94,67420,6,0,P|398:82|370:82,1,74.7500014257431,2|0,0:0|0:0,0:0:0:0:
308,171,67786,2,0,P|316:239|264:307,1,149.500002851486,8|2,0:0|0:0,0:0:0:0:
210,207,68335,1,0,0:0:0:0:
210,207,68426,1,0,3:0:0:0:
210,207,68518,2,0,P|162:207|122:219,1,74.7500014257431,8|0,3:0|3:0,0:0:0:0:
38,270,68884,54,0,L|42:362,2,74.7500014257431,6|0|0,0:0|0:0|0:0,0:0:0:0:
53,158,69432,2,0,P|93:98|173:78,1,149.500002851486,2|0,0:0|0:0,0:0:0:0:
266,124,69981,2,0,P|330:132|366:128,1,74.7500014257431,0|0,0:0|0:0,0:0:0:0:
449,103,70347,5,2,0:0:0:0:
437,207,70530,1,8,0:0:0:0:
465,307,70713,1,0,0:0:0:0:
361,283,70896,2,0,P|289:295|197:259,1,149.500002851486,0|0,0:0|0:0,0:0:0:0:
181,175,71445,2,0,P|181:139|177:119,3,37.3750007128716,8|8|8|8,3:0|3:0|3:0|3:0,0:0:0:0:
196,84,71810,54,0,L|288:68,2,74.7500014257431,2|0|8,0:0|0:0|0:0,0:0:0:0:
94,133,72359,2,0,L|19:135,2,74.7500014257431,2|0|0,0:0|0:0|0:0,0:0:0:0:
202,165,72908,2,0,L|275:177,1,74.7500014257431,10|0,0:0|0:0,0:0:0:0:
384,168,73274,6,0,P|372:220|368:260,1,74.7500014257431,2|8,0:0|0:0,0:0:0:0:
464,288,73640,2,0,P|476:236|480:196,1,74.7500014257431,0|0,0:0|0:0,0:0:0:0:
460,112,74006,1,10,0:0:0:0:
460,112,74188,1,0,0:0:0:0:
372,52,74371,1,12,0:0:0:0:
372,52,74554,1,0,0:0:0:0:
268,88,74737,21,4,0:0:0:0:
102,161,86445,54,0,B|224:139|256:54|256:54|287:139|412:161,2,390.00001487732
156,216,90835,21,0,0:0:0:0:
376,192,91566,1,0,0:0:0:0:
104,96,92298,37,2,0:0:0:0:
376,324,93762,1,0,0:0:0:0:
344,52,95225,21,0,0:0:0:0:
336,292,96688,2,0,P|256:339|174:289,1,195.00000743866,0|0,0:0|0:0,0:0:0:0:
140,120,98152,53,4,0:0:0:0:
140,120,98335,2,0,B|180:96|224:76|272:96|312:120|312:120|356:144|396:168|464:128|500:104,1,357.500010910034,2|0,0:0|0:0,0:0:0:0:
392,44,99615,5,4,0:0:0:0:
392,44,99798,2,0,L|400:220,1,143.000004364014,2|2,0:0|0:0,0:0:0:0:
244,316,100530,1,2,0:0:0:0:
152,276,100713,1,10,0:0:0:0:
112,184,100896,1,10,0:0:0:0:
112,184,101079,5,4,3:0:0:0:
148,84,101262,2,0,L|192:80,2,35.7500010910034,0|0|8,3:0|3:0|3:0,0:0:0:0:
44,108,101627,2,0,L|8:104,2,35.7500010910034,0|0|8,3:0|3:0|3:0,0:0:0:0:
132,172,101993,2,0,L|176:168,2,35.7500010910034,0|0|8,3:0|3:0|3:0,0:0:0:0:
88,272,102359,2,0,L|96:328,1,35.7500010910034,8|0,3:0|0:0,0:0:0:0:
140,332,102542,38,0,P|184:340|264:276,2,149.500002851486,8|8|8,0:0|0:0|0:0,0:0:0:0:
200,112,103640,2,0,P|204:88|216:64,3,37.3750007128716,0|0|0|0,3:0|3:0|3:0|3:0,0:0:0:0:
252,44,104006,6,0,P|256:124|320:168,1,149.500002851486,2|8,0:0|0:0,0:0:0:0:
420,204,104554,2,0,P|372:252|368:340,1,149.500002851486,2|0,0:0|0:0,0:0:0:0:
468,304,105103,1,8,0:0:0:0:
260,340,105469,54,0,P|236:296|192:272,1,74.7500014257431,2|0,0:0|0:0,0:0:0:0:
112,280,105835,1,8,0:0:0:0:
112,280,106018,2,0,P|116:216|168:144,1,149.500002851486,2|0,0:0|0:0,0:0:0:0:
268,128,106566,1,10,0:0:0:0:
328,216,106749,1,2,0:0:0:0:
380,124,106932,6,0,L|228:100,1,149.500002851486,2|8,0:0|0:0,0:0:0:0:
148,160,107481,2,0,P|156:212|240:276,1,149.500002851486,2|0,0:0|0:0,0:0:0:0:
332,264,108030,1,8,0:0:0:0:
332,264,108213,1,0,0:0:0:0:
420,316,108396,53,0,3:0:0:0:
428,212,108579,2,0,P|420:176|420:152,1,37.3750007128716,8|8,3:0|3:0,0:0:0:0:
432,124,108762,2,0,P|408:84|300:68,1,149.500002851486,8|8,3:0|3:0,0:0:0:0:
216,104,109310,1,0,3:0:0:0:
225,211,109493,1,8,3:0:0:0:
332,202,109676,1,8,3:0:0:0:
216,104,109859,6,0,P|147:109|77:223,1,195,6|8,0:0|0:0,0:0:0:0:
106,279,110591,2,0,P|98:315|78:343,2,65,8|0|0,0:0|0:0|0:0,0:0:0:0:
295,325,111323,2,0,L|495:305,1,195,2|0,0:0|0:0,0:0:0:0:
441,220,112054,2,0,P|441:180|485:84,1,130,10|0,0:0|0:0,0:0:0:0:
404,48,112603,1,0,0:0:0:0:
404,48,112786,38,0,P|344:96|220:84,1,195,2|8,0:0|0:0,0:0:0:0:
156,40,113518,1,8,0:0:0:0:
148,220,113884,2,0,P|168:256|264:280,1,130,0|0,0:0|0:0,0:0:0:0:
328,240,114432,1,0,0:0:0:0:
364,156,114615,1,0,0:0:0:0:
208,60,114981,1,2,0:0:0:0:
192,240,115347,1,8,3:0:0:0:
260,180,115530,1,8,3:0:0:0:
280,92,115713,22,0,P|316:56|412:56,1,130,2|0,0:0|0:0,0:0:0:0:
408,136,116262,2,0,B|400:192|400:192|416:272,1,130,2|0,0:0|0:0,0:0:0:0:
464,340,116810,2,0,P|416:344|368:344,1,65,2|0,0:0|0:0,0:0:0:0:
316,312,117176,1,2,0:0:0:0:
316,312,117725,1,2,0:0:0:0:
224,312,117908,2,0,L|152:320,1,65,8|2,0:0|0:0,0:0:0:0:
68,332,118274,1,8,3:0:0:0:
96,244,118457,1,10,3:0:0:0:
56,164,118640,38,0,P|80:116|168:96,1,130,2|0,0:0|0:0,0:0:0:0:
204,164,119188,1,0,0:0:0:0:
204,164,119371,2,0,L|344:172,1,130,10|2,0:0|0:0,0:0:0:0:
504,108,120103,1,2,0:0:0:0:
492,200,120286,1,0,0:0:0:0:
472,288,120469,2,0,L|400:300,1,65,0|2,0:0|0:0,0:0:0:0:
320,280,120835,2,0,P|304:316|276:348,1,65,8|0,0:0|0:0,0:0:0:0:
196,324,121201,1,8,3:0:0:0:
148,248,121384,1,8,3:0:0:0:
148,248,121475,1,0,3:0:0:0:
148,248,121566,1,4,0:0:0:0:
80,215,130347,70,0,L|75:273,1,48.750001859665,8|0,0:0|0:0,0:0:0:0:
152,282,130713,2,0,L|156:233,1,48.750001859665,0|0,0:0|0:0,0:0:0:0:
143,156,131079,2,0,L|138:107,1,48.750001859665,0|0,0:0|0:0,0:0:0:0:
215,89,131445,2,0,L|219:137,1,48.750001859665,0|0,0:0|0:0,0:0:0:0:
259,204,131810,22,0,P|288:209|316:207,1,48.750001859665,8|0,0:0|0:0,0:0:0:0:
385,210,132176,2,0,P|409:209|433:214,1,48.750001859665,0|0,0:0|0:0,0:0:0:0:
434,292,132542,2,0,P|410:296|385:296,1,48.750001859665,0|0,0:0|0:0,0:0:0:0:
308,298,132908,2,0,P|283:297|259:302,1,48.750001859665,0|0,0:0|0:0,0:0:0:0:
167,339,133274,38,0,L|50:334,1,97.50000371933,8|0,0:0|0:0,0:0:0:0:
45,241,133823,2,0,L|142:245,1,97.50000371933,0|0,0:0|0:0,0:0:0:0:
179,152,134371,2,0,L|130:149,1,48.750001859665,0|0,0:0|0:0,0:0:0:0:
280,177,134737,22,0,L|377:181,1,97.50000371933,8|0,0:0|0:0,0:0:0:0:
390,265,135286,2,0,P|358:325|317:346,1,97.50000371933,0|0,0:0|0:0,0:0:0:0:
262,300,135835,2,0,L|222:304,3,24.3750009298325,8|8|8|8,3:0|3:0|3:0|3:0,0:0:0:0:
190,280,136201,6,0,P|178:240|228:135,1,149.500002851486,4|8,0:0|0:0,0:0:0:0:
326,158,136749,2,0,B|382:142|382:142|426:154|426:154|486:142,1,149.500002851486,2|0,0:0|0:0,0:0:0:0:
424,48,137298,2,0,B|384:40|384:40|332:52,1,74.7500014257431,10|0,0:0|0:0,0:0:0:0:
256,96,137664,6,0,P|216:60|196:32,2,74.7500014257431,2|0|10,0:0|0:0|0:0,0:0:0:0:
348,160,138213,1,0,0:0:0:0:
356,272,138396,2,0,P|356:320|344:356,1,74.7500014257431,2|0,0:0|0:0,0:0:0:0:
236,296,138762,1,10,3:0:0:0:
236,296,138945,2,0,P|184:256|172:152,1,149.500002851486,10|0,3:0|0:0,0:0:0:0:
212,84,139493,6,0,L|304:96,1,74.7500014257431,10|0,0:0|0:0,0:0:0:0:
388,76,139859,2,0,L|388:168,1,74.7500014257431,2|2,0:0|0:0,0:0:0:0:
428,248,140225,1,10,0:0:0:0:
228,308,140591,6,0,P|216:252|216:212,1,74.7500014257431,2|0,0:0|0:0,0:0:0:0:
308,184,140957,2,0,P|320:240|320:280,1,74.7500014257431,10|0,0:0|0:0,0:0:0:0:
228,308,141323,2,0,L|136:308,1,74.7500014257431,10|2,0:0|0:0,0:0:0:0:
76,240,141688,1,8,3:0:0:0:
68,136,141871,1,8,3:0:0:0:
60,32,142054,6,0,P|136:32|200:104,1,149.500002851486,6|10,1:1|1:1,0:0:0:0:
204,184,142603,2,0,P|232:216|368:152,1,224.250004277229,2|10,1:1|1:1,0:0:0:0:
360,40,143335,1,2,1:1:0:0:
360,40,143426,1,0,1:1:0:0:
360,40,143518,6,0,P|404:44|456:80,1,74.7500014257431,14|2,1:1|1:1,0:0:0:0:
460,108,143792,1,0,1:1:0:0:
460,108,143884,2,0,L|452:200,1,74.7500014257431,10|10,1:1|1:1,0:0:0:0:
392,292,144249,2,0,P|328:268|292:268,1,74.7500014257431,2|0,1:1|1:1,0:0:0:0:
212,308,144615,1,8,1:1:0:0:
204,204,144798,1,8,1:1:0:0:
196,100,144981,5,0,0:0:0:0:
196,100,145164,2,0,P|240:80|356:196,1,224.250004277229,0|2,0:0|0:0,0:0:0:0:
348,284,145896,1,0,0:0:0:0:
252,240,146079,2,0,L|168:256,1,74.7500014257431,10|0,0:0|0:0,0:0:0:0:
96,320,146445,53,12,0:0:0:0:
120,120,146810,1,10,0:0:0:0:
120,120,146993,1,4,0:0:0:0:
152,168,147908,38,0,P|160:220|188:276,2,110.50000210762,0|0|4,0:0|0:0|0:0,0:0:0:0:
296,116,148823,1,8,3:0:0:0:
296,116,148914,1,0,3:0:0:0:
296,116,149006,2,0,P|312:164|320:204,1,82.8750015807152,8|0,3:0|2:0,0:0:0:0:
332,276,149371,22,0,P|276:272|200:336,1,149.500002851486,6|8,0:0|0:0,0:0:0:0:
116,268,149920,2,0,B|92:188|92:188|96:104,1,149.500002851486,2|0,0:0|0:0,0:0:0:0:
160,40,150469,1,8,0:0:0:0:
232,116,150652,1,0,0:0:0:0:
324,68,150835,6,0,P|376:64|408:72,1,74.7500014257431,2|0,0:0|0:0,0:0:0:0:
472,144,151201,1,8,0:0:0:0:
436,244,151384,2,0,B|372:236|372:236|332:244|332:244|256:232,1,149.500002851486,2|0,0:0|0:0,0:0:0:0:
200,180,151932,1,10,3:0:0:0:
200,180,152115,1,10,3:0:0:0:
144,268,152298,54,0,L|172:352,1,74.7500014257431,2|0,0:0|0:0,0:0:0:0:
252,276,152664,1,10,0:0:0:0:
152,160,152847,2,0,L|68:188,1,74.7500014257431,2|0,0:0|0:0,0:0:0:0:
144,268,153213,1,2,0:0:0:0:
260,168,153396,2,0,L|232:84,1,74.7500014257431,10|0,0:0|0:0,0:0:0:0:
316,28,153762,6,0,P|376:48|400:132,1,149.500002851486,2|8,0:0|0:0,0:0:0:0:
364,224,154310,1,0,0:0:0:0:
364,224,154402,1,0,0:0:0:0:
364,224,154493,2,0,P|356:276|368:308,1,74.7500014257431,8|8,3:0|3:0,0:0:0:0:
464,328,154859,2,0,P|476:284|464:200,1,112.125002138615,8|0,3:0|2:0,0:0:0:0:
440,176,155225,53,6,0:0:0:0:
348,128,155408,1,0,0:0:0:0:
264,192,155591,1,0,0:0:0:0:
176,136,155774,2,0,L|168:304,1,149.500002851486,2|0,0:0|0:0,0:0:0:0:
256,344,156323,1,0,0:0:0:0:
344,284,156506,1,0,0:0:0:0:
436,332,156688,5,2,0:0:0:0:
344,284,156871,1,8,0:0:0:0:
436,236,157054,1,0,0:0:0:0:
344,188,157237,1,2,0:0:0:0:
344,188,157786,2,0,P|296:196|280:196,3,37.3750007128716,10|0|10|0,3:0|3:0|3:0|3:0,0:0:0:0:
256,192,158152,54,0,L|252:288,2,74.7500014257431,2|0|8,0:0|0:0|0:0,0:0:0:0:
172,132,158701,2,0,L|168:36,2,74.7500014257431,2|0|0,0:0|0:0|0:0,0:0:0:0:
252,68,159249,2,0,L|344:72,1,74.7500014257431,10|0,0:0|0:0,0:0:0:0:
408,136,159615,6,0,P|380:176|368:224,1,74.7500014257431,2|8,0:0|0:0,0:0:0:0:
408,300,159981,1,0,0:0:0:0:
408,300,160164,1,0,0:0:0:0:
473,170,160347,2,0,P|442:149|408:136,1,74.7500014257431,10|0,0:0|0:0,0:0:0:0:
304,108,160713,1,14,0:0:0:0:
200,108,160896,1,0,0:0:0:0:
256,204,161079,54,0,P|256:248|240:288,1,74.7500014257431,6|0,0:0|0:0,0:0:0:0:
160,340,161445,1,8,0:0:0:0:
144,236,161627,2,0,P|204:236|304:276,1,149.500002851486,2|0,0:0|0:0,0:0:0:0:
360,344,162176,2,0,P|376:288|392:256,1,74.7500014257431,8|0,0:0|0:0,0:0:0:0:
464,208,162542,6,0,P|488:244|500:292,2,74.7500014257431,2|0|8,0:0|0:0|0:0,0:0:0:0:
380,148,163091,2,0,P|332:172|248:144,1,112.125002138615,2|0,0:0|0:0,0:0:0:0:
228,140,163457,1,0,0:0:0:0:
152,68,163640,1,10,3:0:0:0:
116,168,163823,1,10,3:0:0:0:
196,248,164006,54,0,L|276:276,1,74.7500014257431,2|0,0:0|0:0,0:0:0:0:
228,140,164371,1,10,0:0:0:0:
116,168,164554,2,0,L|91:238,1,74.7500014257431,2|0,0:0|0:0,0:0:0:0:
196,248,164919,1,2,0:0:0:0:
228,140,165103,1,10,0:0:0:0:
152,56,165286,1,0,0:0:0:0:
228,140,165469,6,0,P|288:152|372:92,1,149.500002851486,2|8,0:0|0:0,0:0:0:0:
144,104,166201,2,0,P|136:140|136:168,3,37.3750007128716,8|0|8|0,3:0|3:0|3:0|3:0,0:0:0:0:
164,196,166566,2,0,P|160:252|128:312,1,112.125002138615,8|0,3:0|2:0,0:0:0:0:
132,356,166932,54,0,P|172:344|216:344,1,74.7500014257431,6|0,0:0|0:0,0:0:0:0:
316,356,167298,1,0,0:0:0:0:
380,264,167481,2,0,P|348:228|320:100,1,149.500002851486,2|0,0:0|0:0,0:0:0:0:
356,28,168030,1,0,0:0:0:0:
356,28,168213,1,0,0:0:0:0:
240,64,168396,6,0,L|144:68,1,74.7500014257431,2|8,0:0|0:0,0:0:0:0:
60,32,168762,1,0,0:0:0:0:
108,152,168945,2,0,L|272:148,1,149.500002851486,2|0,0:0|0:0,0:0:0:0:
360,144,169493,2,0,P|364:176|364:212,3,37.3750007128716,10|0|10|0,3:0|3:0|3:0|3:0,0:0:0:0:
344,236,169859,54,0,P|336:284|348:336,2,74.7500014257431,2|0|10,0:0|0:0|0:0,0:0:0:0:
256,164,170408,2,0,P|236:192|232:264,2,74.7500014257431,10|2|10,0:0|0:0|0:0,0:0:0:0:
208,64,170957,2,0,P|172:88|148:140,1,74.7500014257431,10|0,0:0|0:0,0:0:0:0:
100,212,171323,6,0,L|100:288,1,74.7500014257431,10|10,0:0|0:0,0:0:0:0:
192,352,171688,2,0,L|216:256,1,74.7500014257431,10|0,0:0|0:0,0:0:0:0:
200,116,172054,2,0,P|156:96|120:92,1,74.7500014257431,10|8,3:0|3:0,0:0:0:0:
276,200,172420,2,0,P|320:220|356:224,1,74.7500014257431,14|8,3:0|3:0,0:0:0:0:
452,196,172786,21,6,0:0:0:0:
