osu file format v14

[General]
AudioFilename: Nine Point Eight - Mili.mp3
AudioLeadIn: 0
PreviewTime: 50499
Countdown: 1
SampleSet: Normal
StackLeniency: 0.7
Mode: 0
LetterboxInBreaks: 0
WidescreenStoryboard: 1

[Editor]
Bookmarks: 146960,148606,149704
DistanceSpacing: 1.2
BeatDivisor: 4
GridSize: 4
TimelineZoom: 1

[Metadata]
Title:Nine Point Eight
TitleUnicode:Nine Point Eight
Artist:Mili
ArtistUnicode:Mili
Creator:TheKoala
Version:Easy
Source:Deemo
Tags:Rayark Flowers Alice Hans Piano Girl Tree Collection 1 9.8 Arutsuki
BeatmapID:1119224
BeatmapSetID:318047

[Difficulty]
HPDrainRate:2
CircleSize:2
OverallDifficulty:2
ApproachRate:2
SliderMultiplier:0.8
SliderTickRate:1

[Events]
//Background and Video events
0,0,"deemo.jpg",0,0
//Break Periods
2,48596,49763
2,74937,84885
2,124493,134641
//Storyboard Layer 0 (Background)
//Storyboard Layer 1 (Fail)
//Storyboard Layer 2 (Pass)
//Storyboard Layer 3 (Foreground)
//Storyboard Sound Samples

[TimingPoints]
1567,365.853658536585,4,2,1,35,1,0
13274,-100.0,4,1,1,45,0,0
24981,-100.0,4,1,1,40,0,0
36688,-100.0,4,2,1,40,0,0
48396,-100.0,4,1,1,35,0,0
51323,-100.0,4,1,1,60,0,1
62938,-100.0,4,1,1,60,0,0
63030,-100.0,4,1,1,60,0,1
74737,-100.0,4,2,1,35,0,0
98152,-100.0,4,1,1,40,0,0
102542,-100.0,4,1,1,60,0,0
103274,-100.0,4,1,1,50,0,0
104006,-100.0,4,1,1,45,0,0
109859,-100.0,4,2,1,45,0,0
121566,-100.0,4,2,1,30,0,0
134737,-100.0,4,1,1,30,0,0
136201,-100.0,4,1,1,55,0,1
146993,-100.0,4,1,1,45,0,0
149371,-100.0,4,1,1,65,0,1
160987,-100.0,4,1,1,65,0,0
161079,-100.0,4,1,1,65,0,1
172786,-100.0,4,2,1,35,0,0

[Colours]
Combo1 : 181,130,173
Combo2 : 113,196,152
Combo3 : 175,143,58
Combo4 : 177,206,201
Combo5 : 193,98,70

[HitObjects]
348,232,1567,22,0,P|396:256|468:252,2,120,2|2|0,0:0|0:0|0:0,0:0:0:0:
376,140,3030,2,0,P|372:86|333:26,2,120,2|2|2,0:0|0:0|0:0,0:0:0:0:
280,156,4493,22,0,L|160:172,2,120,2|2|0,0:0|0:0|0:0,0:0:0:0:
376,140,5957,2,0,L|494:124,2,120,2|2|2,0:0|0:0|0:0,0:0:0:0:
288,180,7420,38,0,P|260:240|100:280,1,240,2|0,0:0|0:0,0:0:0:0:
92,184,8884,2,0,P|120:124|280:84,1,240,2|2,0:0|0:0,0:0:0:0:
368,104,10347,22,0,L|324:348,1,240,2|0,0:0|0:0,0:0:0:0:
232,324,11810,2,0,L|189:87,1,240,2|2,0:0|0:0,0:0:0:0:
100,52,13274,54,0,P|68:76|32:152,2,120,6|2|8,0:0|0:0|0:0,0:0:0:0:
189,87,14737,2,0,L|309:87,1,120,2|2,0:0|0:0,0:0:0:0:
424,176,15835,1,10,0:0:0:0:
348,236,16201,38,0,P|356:304|388:348,2,120,2|2|8,0:0|0:0|0:0,0:0:0:0:
356,140,17664,2,0,P|312:108|248:104,1,120,2|2,0:0|0:0,0:0:0:0:
124,176,18762,1,8,3:0:0:0:
168,260,19127,22,0,L|296:272,2,120,6|2|8,0:0|0:0|0:0,0:0:0:0:
124,176,20591,2,0,L|-4:188,1,120,2|2,0:0|0:0,0:0:0:0:
64,316,21688,1,10,0:0:0:0:
155,286,22054,38,0,P|223:274|279:290,2,120,2|2|8,0:0|0:0|0:0,0:0:0:0:
64,316,23518,2,0,L|64:184,1,120,2|2,0:0|0:0,0:0:0:0:
124,64,24615,1,10,3:0:0:0:
200,124,24981,6,0,P|288:144|360:28,1,240,4|8,0:0|0:0,0:0:0:0:
264,48,26445,2,0,L|248:288,1,240,2|8,0:0|0:0,0:0:0:0:
160,320,27908,54,0,P|108:300|80:304,2,80,0|8|0,0:0|0:0|0:0,0:0:0:0:
252,352,29006,1,0,0:0:0:0:
347,350,29371,2,0,P|338:314|347:257,1,80,0|8,0:0|0:0,0:0:0:0:
329,176,30103,2,0,P|338:137|334:97,1,80,8|10,0:0|0:0,0:0:0:0:
247,56,30835,6,0,P|127:140|135:236,1,240,2|8,0:0|0:0,0:0:0:0:
186,298,32298,2,0,P|258:310|358:194,1,240,2|8,0:0|0:0,0:0:0:0:
318,107,33762,54,0,P|344:84|398:59,2,80,2|8|0,0:0|0:0|0:0,0:0:0:0:
257,181,34859,1,0,0:0:0:0:
165,152,35225,2,0,L|81:148,1,80,2|8,0:0|0:0,0:0:0:0:
77,52,35957,2,0,L|161:48,1,80,0|8,0:0|0:0,0:0:0:0:
244,88,36688,38,0,P|312:172|180:312,2,320,4|2|2,0:0|0:0|0:0,0:0:0:0:
112,228,40347,37,8,0:0:0:0:
280,320,41079,1,2,0:0:0:0:
436,208,41810,1,8,0:0:0:0:
320,56,42542,22,0,P|216:92|200:288,2,320,2|2|2,0:0|0:0|0:0,0:0:0:0:
408,96,45835,37,0,0:0:0:0:
420,192,46201,2,0,P|412:244|396:268,1,80,0|2,0:0|0:0,0:0:0:0:
312,308,46932,2,0,P|256:280|184:196,1,160,2|10,0:0|0:0,0:0:0:0:
156,120,48030,1,10,3:0:0:0:
200,36,48396,1,4,0:0:0:0:
360,260,51323,22,0,P|400:292|484:304,2,120,6|2|8,0:0|0:0|0:0,0:0:0:0:
304,180,52786,2,0,P|256:198|203:265,2,120,2|2|10,0:0|0:0|0:0,0:0:0:0:
400,172,54249,6,0,P|400:96|252:64,1,240,2|10,0:0|0:0,0:0:0:0:
220,140,55713,2,0,B|240:208|240:292|240:292|268:256|316:244,1,240,2|8,0:0|3:0,0:0:0:0:
404,228,57176,54,0,L|396:364,2,120,10|2|0,0:0|0:0|0:0,0:0:0:0:
464,152,58640,2,0,L|456:32,2,120,2|2|8,0:0|0:0|3:0,0:0:0:0:
368,140,60103,6,0,P|300:124|188:236,1,240,2|10,0:0|0:0,0:0:0:0:
240,312,61566,2,0,B|316:328|316:328|408:292,1,160,2|10,0:0|0:0,0:0:0:0:
404,204,62664,1,12,0:0:0:0:
348,128,63030,54,0,P|304:128|232:184,2,120,6|2|8,0:0|0:0|0:0,0:0:0:0:
404,204,64493,2,0,P|451:239|510:244,2,120,2|2|10,0:0|0:0|0:0,0:0:0:0:
408,108,65957,6,0,P|344:72|244:176,1,240,2|10,0:0|0:0,0:0:0:0:
256,268,67420,2,0,L|96:296,1,160,2|2,0:0|0:0,0:0:0:0:
36,224,68518,1,8,3:0:0:0:
84,140,68884,54,0,L|68:4,2,120,6|2|0,0:0|0:0|0:0,0:0:0:0:
180,128,70347,2,0,L|316:144,2,120,2|0|8,0:0|0:0|3:0,0:0:0:0:
148,220,71810,6,0,P|176:296|328:312,1,240,2|10,0:0|0:0,0:0:0:0:
372,236,73274,1,2,0:0:0:0:
276,68,74006,1,10,0:0:0:0:
104,152,74737,1,4,0:0:0:0:
268,280,86445,22,0,P|411:245|407:97,2,320,0|0|0,0:0|0:0|0:0,0:0:0:0:
80,180,90835,22,0,P|72:244|120:328,2,160,0|0|2,0:0|0:0|0:0,0:0:0:0:
268,280,93762,2,0,P|411:245|407:97,1,320,0|0,0:0|0:0,0:0:0:0:
256,192,95408,12,4,98152,0:0:0:0:
312,128,99615,54,0,L|432:124,2,120,4|2|10,0:0|0:0|0:0,0:0:0:0:
232,180,101079,2,0,P|136:204|36:104,1,240,4|8,3:0|3:0,0:0:0:0:
103,45,102542,2,0,L|271:57,1,160,8|8,0:0|0:0,0:0:0:0:
358,64,103640,1,0,3:0:0:0:
388,155,104006,6,0,P|368:207|320:251,1,120,2|2,0:0|0:0,0:0:0:0:
177,259,105103,1,8,0:0:0:0:
120,181,105469,2,0,B|88:141|84:97|108:65|108:65|136:89|168:101|196:101|228:93,1,240,2|10,0:0|0:0,0:0:0:0:
301,56,106932,54,0,B|325:152|325:152|381:216|381:216|397:276,1,240,2|8,0:0|0:0,0:0:0:0:
337,346,108396,2,0,P|293:302|185:294,1,160,0|8,3:0|3:0,0:0:0:0:
115,337,109493,1,8,3:0:0:0:
56,260,109859,54,0,P|72:152|256:104,2,320,6|2|2,0:0|0:0|0:0,0:0:0:0:
232,336,113518,21,8,0:0:0:0:
376,212,114249,1,0,0:0:0:0:
248,68,114981,1,2,0:0:0:0:
92,180,115713,38,0,P|112:248|328:276,2,320,2|2|2,0:0|0:0|0:0,0:0:0:0:
244,60,119371,21,10,0:0:0:0:
412,156,120103,1,2,0:0:0:0:
400,348,120835,1,8,0:0:0:0:
236,248,121566,53,4,0:0:0:0:
80,256,136201,6,0,P|72:184|216:128,1,240,4|10,0:0|0:0,0:0:0:0:
268,192,137664,2,0,L|388:200,2,120,2|0|10,0:0|0:0|3:0,0:0:0:0:
224,276,139127,6,0,B|384:288|384:288|417:289|446:273|463:247,1,240,0|10,0:0|0:0,0:0:0:0:
446,161,140591,2,0,P|434:101|454:37,2,120,2|0|8,0:0|0:0|3:0,0:0:0:0:
421,253,142054,6,0,P|325:269|225:169,1,240,6|10,1:1|1:1,0:0:0:0:
241,82,143518,2,0,P|177:66|88:97,1,160,14|2,1:1|1:1,0:0:0:0:
39,176,144615,1,8,1:1:0:0:
59,269,144981,6,0,P|147:277|219:249,1,160,0|2,0:0|0:0,0:0:0:0:
285,188,146079,1,10,0:0:0:0:
377,213,146445,2,0,L|501:209,1,120,12|4,0:0|0:0,0:0:0:0:
112,280,149371,38,0,P|108:204|128:148,2,120,6|2|8,0:0|0:0|0:0,0:0:0:0:
204,256,150835,2,0,P|280:260|336:240,2,120,2|2|10,0:0|0:0|3:0,0:0:0:0:
180,164,152298,6,0,B|184:128|200:96|232:72|232:72|264:112|316:128|360:124,1,240,2|10,0:0|0:0,0:0:0:0:
440,104,153762,2,0,L|432:272,1,160,2|8,0:0|3:0,0:0:0:0:
376,340,154859,1,8,3:0:0:0:
284,308,155225,54,0,L|164:320,2,120,6|2|0,0:0|0:0|0:0,0:0:0:0:
360,248,156688,2,0,L|480:260,2,120,2|2|10,0:0|0:0|3:0,0:0:0:0:
272,212,158152,6,0,P|228:148|84:204,1,240,2|10,0:0|0:0,0:0:0:0:
96,284,159615,2,0,P|144:344|232:364,1,160,2|10,0:0|0:0,0:0:0:0:
308,320,160713,1,14,0:0:0:0:
404,304,161079,54,0,L|432:180,2,120,6|2|8,0:0|0:0|0:0,0:0:0:0:
308,320,162542,2,0,L|280:196,2,120,2|2|10,0:0|0:0|3:0,0:0:0:0:
212,308,164006,6,0,L|92:320,1,120,2|2,0:0|0:0,0:0:0:0:
44,184,165103,1,10,0:0:0:0:
104,112,165469,2,0,P|144:88|264:116,1,160,2|8,0:0|3:0,0:0:0:0:
292,192,166566,1,8,3:0:0:0:
312,284,166932,54,0,L|440:280,2,120,6|2|0,0:0|0:0|0:0,0:0:0:0:
216,272,168396,2,0,L|88:268,2,120,2|2|10,0:0|0:0|3:0,0:0:0:0:
280,200,169859,6,0,P|272:156|180:68,2,160,2|2|10,0:0|0:0|0:0,0:0:0:0:
272,296,171688,2,0,L|364:288,1,80,10|10,0:0|3:0,0:0:0:0:
448,280,172420,1,14,3:0:0:0:
476,188,172786,1,6,0:0:0:0:
