osu file format v14

[General]
AudioFilename: audio.mp3
AudioLeadIn: 0
PreviewTime: 46665
Countdown: 0
SampleSet: Soft
StackLeniency: 0.7
Mode: 0
LetterboxInBreaks: 0
WidescreenStoryboard: 0

[Editor]
Bookmarks: 69331,78665,83665,99998,125331
DistanceSpacing: 0.7
BeatDivisor: 4
GridSize: 4
TimelineZoom: 1.9

[Metadata]
Title:Nine Point Eight (Speed up ver.)
TitleUnicode:Nine Point Eight (Speed up ver.)
Artist:Mili
ArtistUnicode:Mili
Creator:Ameyy
Version:Extra
Source:Deemo
Tags:Sakura Blossom
BeatmapID:1439136
BeatmapSetID:680647

[Difficulty]
HPDrainRate:7
CircleSize:3.5
OverallDifficulty:8.5
ApproachRate:9.3
SliderMultiplier:1.9
SliderTickRate:1

[Events]
//Background and Video events
0,0,"Konachan.com - 248837 sample.jpg",0,0
//Break Periods
2,69531,78111
2,125531,130111
//Storyboard Layer 0 (Background)
//Storyboard Layer 1 (Fail)
//Storyboard Layer 2 (Pass)
//Storyboard Layer 3 (Foreground)
//Storyboard Sound Samples

[TimingPoints]
1332,333.333333333333,4,2,0,100,1,0
16498,-125,4,3,0,80,0,0
17331,-100,4,2,0,80,0,0
22665,-125,4,2,0,60,0,0
31998,-133.333333333333,4,2,0,60,0,0
32331,-142.857142857143,4,2,0,60,0,0
32665,-153.846153846154,4,2,0,60,0,0
32998,-153.846153846154,4,2,0,90,0,0
33331,-200,4,2,0,40,0,0
46165,-133.333333333333,4,2,0,60,0,0
46665,-100,4,2,0,60,0,1
51665,-100,4,3,0,90,0,1
51998,-133.333333333333,4,2,0,60,0,0
54331,-133.333333333333,4,3,0,90,0,1
54665,-100,4,2,0,60,0,0
57331,-100,4,2,0,60,0,1
62165,-100,4,3,0,90,0,1
62665,-133.333333333333,4,2,0,60,0,0
64998,-100,4,3,0,90,0,0
65331,-100,4,2,0,60,0,1
67331,-100,4,3,0,90,0,1
67998,-200,4,3,0,5,0,0
78665,-200,4,3,0,20,0,0
87998,-166.666666666667,4,3,0,20,0,0
88998,-166.666666666667,4,1,0,60,0,0
89331,-83.3333333333333,4,2,0,60,0,1
100165,-100,4,2,0,60,0,0
101331,-90.9090909090909,4,2,0,60,0,1
106665,-133.333333333333,4,2,0,60,0,0
108998,-100,4,3,0,90,0,1
109331,-100,4,2,0,60,0,1
117331,-133.333333333333,4,2,0,60,0,0
119665,-133.333333333333,4,3,0,90,0,0
119998,-90.9090909090909,4,2,0,60,0,1
121998,-90.9090909090909,4,3,0,90,0,1
122665,-200,4,2,0,5,0,0

[Colours]
Combo1 : 123,180,120
Combo2 : 171,152,201
Combo3 : 228,109,128
Combo4 : 112,181,207

[HitObjects]
152,68,11998,6,0,B|96:68|68:108|68:108|84:144|156:156,1,190,4|8,0:0|0:0,0:0:0:0:
136,248,12498,2,0,L|148:108,1,95
248,132,12831,1,0,0:0:0:0:
180,324,12998,2,0,P|125:337|76:308,1,95,8|0,0:0|0:0,0:0:0:0:
269,246,13331,1,0,0:0:0:0:
350,359,13498,2,0,L|378:251,1,95,0|8,0:0|0:0,0:0:0:0:
248,132,13831,6,0,P|234:187|259:245,1,95
348,127,14165,1,0,0:0:0:0:
242,27,14331,1,8,0:0:0:0:
242,222,14498,1,0,0:0:0:0:
443,127,14665,6,0,L|331:127,1,95,4|0,0:0|0:0,0:0:0:0:
481,20,14998,1,8,0:0:0:0:
486,208,15165,2,0,L|487:314,1,95
398,344,15498,1,0,0:0:0:0:
242,222,15665,2,0,P|178:215|135:232,1,95,8|0,0:0|0:0,0:0:0:0:
298,319,15998,1,0,0:0:0:0:
325,153,16165,2,0,L|333:43,1,95,0|8,0:0|0:0,0:0:0:0:
235,61,16498,5,0,0:0:0:0:
430,94,16665,1,0,0:0:0:0:
151,114,16831,1,0,0:0:0:0:
139,121,16998,1,8,0:0:0:0:
126,130,17165,1,0,0:0:0:0:
264,165,17331,6,0,B|198:214|116:177|116:177|114:132,1,190,4|8,0:0|0:0,0:0:0:0:
430,94,17831,1,0,0:0:0:0:
353,192,17998,2,0,P|283:175|239:145,1,95
467,182,18331,1,8,0:0:0:0:
376,308,18498,2,0,L|252:311,1,95
102,226,18831,5,0,0:0:0:0:
184,278,18998,2,0,P|172:334|137:374,1,95,8|0,0:0|0:0,0:0:0:0:
239,161,19331,1,0,0:0:0:0:
102,226,19498,1,0,0:0:0:0:
120,86,19665,1,8,0:0:0:0:
184,278,19831,1,0,0:0:0:0:
151,6,19998,6,0,P|81:5|58:142,1,190,4|8,0:0|0:0,0:0:0:0:
257,76,20498,1,0,0:0:0:0:
241,164,20665,2,0,L|354:183,1,95
490,241,20998,1,8,0:0:0:0:
506,329,21165,2,0,L|393:348,1,95
330,289,21498,1,0,0:0:0:0:
136,294,21665,2,0,P|197:317|253:326,1,95,8|0,0:0|0:0,0:0:0:0:
92,194,21998,5,0,0:0:0:0:
38,326,22165,1,0,0:0:0:0:
218,203,22331,1,8,0:0:0:0:
29,97,22498,1,0,0:0:0:0:
218,203,22665,6,0,P|279:215|380:175,1,152,4|8,0:0|0:0,0:0:0:0:
456,136,23165,2,0,B|428:200|476:244|449:296,1,152
363,188,23665,1,8,0:0:0:0:
337,317,23831,1,0,0:0:0:0:
456,286,23998,5,0,0:0:0:0:
249,292,24165,2,0,L|239:372,1,76,0|8,0:0|0:0,0:0:0:0:
363,188,24498,1,0,0:0:0:0:
164,221,24665,2,0,L|152:301,1,76
308,95,24998,1,8,0:0:0:0:
212,54,25165,1,8,0:0:0:0:
165,221,25331,6,0,P|216:176|218:78,1,152,4|8,0:0|0:0,0:0:0:0:
26,231,25831,2,0,B|46:270|46:270|175:324,1,152
275,330,26331,2,0,P|329:308|360:280,1,76,8|8,0:0|0:0,0:0:0:0:
417,107,26665,2,0,P|393:153|430:265,1,152,0|8,0:0|0:0,0:0:0:0:
502,146,27165,1,0,0:0:0:0:
319,100,27331,1,0,0:0:0:0:
149,160,27498,1,0,0:0:0:0:
149,160,27581,1,0,0:0:0:0:
149,160,27665,2,0,P|123:211|122:241,1,76,12|0,0:0|0:0,0:0:0:0:
216,328,27998,6,0,P|240:292|317:354,1,152,4|8,0:0|0:0,0:0:0:0:
141,313,28498,2,0,L|234:331,1,76
422,158,28831,1,0,0:0:0:0:
372,233,28998,2,0,L|268:210,1,76,8|0,0:0|0:0,0:0:0:0:
242,132,29331,5,0,0:0:0:0:
422,158,29498,1,0,0:0:0:0:
348,12,29665,1,8,0:0:0:0:
297,216,29831,2,0,L|295:310,1,76
422,158,30165,1,0,0:0:0:0:
265,44,30331,1,8,0:0:0:0:
397,245,30498,1,8,0:0:0:0:
242,132,30665,6,0,B|220:140|198:189|198:189|162:152|121:152,1,152,0|8,0:0|0:0,0:0:0:0:
397,245,31165,2,0,P|450:227|387:199,1,152
303,204,31665,5,8,0:0:0:0:
242,132,31831,1,0,0:0:0:0:
104,251,31997,2,0,L|87:353,1,76
216,298,32331,2,0,L|215:391,1,66.4999979705811,8|0,0:0|0:0,0:0:0:0:
338,275,32664,2,0,L|329:360,1,66.4999979705811
446,267,32998,5,8,3:0:0:0:
439,246,33081,1,0,3:0:0:0:
442,224,33165,1,0,3:0:0:0:
448,203,33248,1,0,3:0:0:0:
445,186,33331,6,0,B|461:149|420:97|420:97|363:131|365:179,1,190,2|0,0:0|0:0,0:0:0:0:
192,137,34665,2,0,P|246:174|166:216,1,190,2|0,0:0|0:0,0:0:0:0:
92,149,35665,1,8,0:0:0:0:
334,132,35998,1,0,0:0:0:0:
413,248,36331,2,0,P|418:308|417:316,1,47.5
332,341,36665,1,0,0:0:0:0:
168,218,36998,5,0,0:0:0:0:
261,113,37331,2,0,P|301:112|328:116,1,47.5
364,188,37665,1,0,0:0:0:0:
364,188,37998,6,0,L|303:202,1,47.5
124,127,38331,2,0,P|161:132|191:128,1,47.5,8|0,0:0|0:0,0:0:0:0:
93,48,38665,2,0,P|50:84|79:200,1,190
153,261,39665,1,8,0:0:0:0:
194,341,39998,2,0,B|232:332|246:263|246:263|261:332|302:343,1,190
335,262,40998,1,8,0:0:0:0:
463,231,41331,5,0,0:0:0:0:
439,140,41498,2,0,P|424:78|423:76,1,47.5
343,69,41831,1,0,0:0:0:0:
253,81,41998,2,0,P|192:89|156:123,1,95
232,168,42498,1,0,0:0:0:0:
253,81,42665,2,0,L|230:28,1,47.5
143,28,42998,2,0,P|91:40|32:31,1,95
1,122,43498,1,0,0:0:0:0:
19,210,43665,1,0,0:0:0:0:
84,271,43831,1,0,0:0:0:0:
168,303,43998,1,4,0:0:0:0:
273,287,45331,5,4,1:0:0:0:
378,348,45665,1,12,1:0:0:0:
475,277,45998,5,0,0:0:0:0:
416,113,46165,1,0,0:0:0:0:
416,113,46248,1,0,0:0:0:0:
416,113,46331,1,0,0:0:0:0:
416,113,46665,6,0,P|339:150|242:112,1,190,4|8,1:0|0:0,0:0:0:0:
416,113,47165,2,0,L|416:317,1,190
315,316,47665,1,8,0:0:0:0:
416,303,47831,1,0,0:0:0:0:
238,211,47998,2,0,L|209:335,1,95
135,346,48331,1,8,0:0:0:0:
222,85,48498,6,0,P|276:78|327:90,1,95
48,188,48831,1,0,0:0:0:0:
48,188,48915,1,0,0:0:0:0:
48,188,48998,2,0,L|85:74,1,95,8|8,0:0|0:0,0:0:0:0:
335,176,49331,6,0,B|276:173|249:206|249:206|219:171|148:175,1,190,0|8,0:0|0:0,0:0:0:0:
431,66,49831,2,0,P|483:129|462:248,1,190
373,283,50331,1,8,0:0:0:0:
335,176,50498,1,0,0:0:0:0:
449,337,50665,2,0,P|402:369|349:368,1,95
205,240,50998,5,8,0:0:0:0:
368,277,51165,1,0,0:0:0:0:
288,82,51331,5,0,0:0:0:0:
365,268,51498,1,0,0:0:0:0:
455,68,51665,6,0,P|402:74|384:72,1,47.5,8|0,0:0|0:0,0:0:0:0:
288,82,51831,1,0,0:0:0:0:
436,210,51998,6,0,B|395:186|395:186|277:192,1,142.500005435944,4|2,0:0|0:0,0:0:0:0:
198,143,52498,1,0,0:0:0:0:
288,82,52665,1,0,0:0:0:0:
301,192,52831,1,0,0:0:0:0:
123,194,52998,2,0,P|110:131|120:105,1,71.2500027179719,2|0,0:0|0:0,0:0:0:0:
270,278,53331,6,0,P|283:341|273:367,1,71.2500027179719
195,331,53665,1,2,0:0:0:0:
301,192,53831,2,0,L|443:210,1,142.500005435944
201,107,54331,1,8,0:0:0:0:
201,107,54415,1,0,0:0:0:0:
201,107,54498,1,0,0:0:0:0:
201,107,54581,1,0,0:0:0:0:
201,107,54665,6,0,L|75:134,1,95,4|0,0:0|0:0,0:0:0:0:
379,146,54998,2,0,P|381:83|355:39,1,95,8|0,0:0|0:0,0:0:0:0:
133,238,55331,2,0,P|131:301|157:345,1,95
424,252,55665,2,0,L|293:224,1,95,8|0,0:0|0:0,0:0:0:0:
109,123,55998,2,0,B|164:118|164:118|204:100,1,95
326,327,56331,2,0,L|331:221,1,95,8|0,0:0|0:0,0:0:0:0:
200,101,56665,1,0,0:0:0:0:
162,204,56831,1,0,0:0:0:0:
366,142,56998,2,0,L|432:129,1,47.5,8|0,0:0|0:0,0:0:0:0:
468,68,57165,1,0,0:0:0:0:
200,101,57331,6,0,B|172:182|239:218|187:304,1,190,4|8,1:0|0:0,0:0:0:0:
123,45,57831,2,0,P|201:9|299:81,1,190
456,203,58331,2,0,L|359:249,1,95,8|0,0:0|0:0,0:0:0:0:
414,330,58665,1,0,0:0:0:0:
363,144,58831,1,0,0:0:0:0:
270,314,58998,1,8,0:0:0:0:
363,135,59165,2,0,L|164:140,1,190
441,45,59665,1,8,0:0:0:0:
441,45,59748,1,0,0:0:0:0:
441,45,59831,2,0,L|455:119,1,47.5,0|8,0:0|0:0,0:0:0:0:
447,239,59998,6,0,B|386:293|359:292|359:292|272:266,1,190,0|8,0:0|0:0,0:0:0:0:
275,172,60498,1,0,0:0:0:0:
447,239,60665,2,0,P|472:308|470:355,1,95
372,131,60998,1,8,0:0:0:0:
288,66,61165,1,0,0:0:0:0:
275,269,61331,6,0,P|190:281|140:181,1,190,0|8,0:0|0:0,0:0:0:0:
24,200,61831,1,0,0:0:0:0:
205,143,61998,1,0,0:0:0:0:
85,315,62165,1,0,0:0:0:0:
89,77,62331,1,8,0:0:0:0:
89,77,62415,1,0,0:0:0:0:
89,77,62498,2,0,L|166:62,1,47.5
205,143,62665,6,0,L|365:135,1,142.500005435944,4|2,0:0|0:0,0:0:0:0:
442,186,63165,1,0,0:0:0:0:
466,104,63331,1,0,0:0:0:0:
416,33,63498,1,0,0:0:0:0:
331,21,63665,1,2,0:0:0:0:
267,77,63831,1,0,0:0:0:0:
442,186,63998,6,0,L|431:281,1,71.2500027179719
350,281,64331,1,2,0:0:0:0:
211,282,64498,2,0,P|295:296|355:278,1,142.500005435944
126,185,64998,1,8,0:0:0:0:
118,196,65081,1,0,0:0:0:0:
111,208,65165,1,0,0:0:0:0:
106,221,65248,1,0,0:0:0:0:
105,235,65331,6,0,L|106:347,1,95,4|0,0:0|0:0,0:0:0:0:
343,164,65665,2,0,P|264:154|227:170,1,95,8|0,0:0|0:0,0:0:0:0:
373,249,65998,1,0,0:0:0:0:
419,107,66165,1,0,0:0:0:0:
479,270,66331,1,8,0:0:0:0:
261,239,66498,1,0,0:0:0:0:
405,49,66665,1,0,0:0:0:0:
368,238,66831,5,0,0:0:0:0:
245,27,66998,1,8,0:0:0:0:
361,235,67165,5,0,0:0:0:0:
108,105,67331,1,0,0:0:0:0:
354,236,67498,5,0,0:0:0:0:
95,226,67665,1,8,0:0:0:0:
453,116,67831,5,0,0:0:0:0:
208,194,67998,2,0,B|171:253|134:258|65:255|43:224|8:183|49:160|30:113|65:97|128:138|117:193|94:227,1,380,4|0,0:0|0:0,0:0:0:0:
255,193,78665,5,0,0:0:0:0:
255,193,79998,1,0,0:0:0:0:
266,204,80832,1,0,0:0:0:0:
266,204,80998,1,0,0:0:0:0:
266,204,81165,1,0,0:0:0:0:
266,204,81331,2,0,P|184:220|162:208,1,95
177,217,81831,2,0,P|237:197|281:215,1,95
349,266,82331,2,0,L|389:373,1,95
343,176,82998,5,0,0:0:0:0:
349,266,83165,2,0,P|415:278|446:266,1,95
439,269,83665,2,0,P|393:254|340:273,1,95
166,326,85331,5,0,0:0:0:0:
227,134,86331,5,0,0:0:0:0:
310,74,86498,1,0,0:0:0:0:
388,191,86665,2,0,L|491:197,1,95
334,274,87165,2,0,L|231:268,1,95
172,211,87665,1,0,0:0:0:0:
172,211,87998,6,0,P|123:160|116:112,1,113.999996520996
207,105,88498,2,0,P|227:53|284:19,1,113.999996520996
405,115,88998,2,0,L|416:154,1,28.4999991302491
298,192,89165,2,0,L|306:152,1,28.4999991302491
420,244,89331,6,0,P|379:299|311:321,1,113.999996520996
209,222,89665,1,0,0:0:0:0:
413,143,89831,2,0,P|487:165|515:206,1,113.999996520996
484,329,90165,1,0,0:0:0:0:
303,164,90331,2,0,P|238:120|171:120,1,113.999996520996
108,216,90665,1,0,0:0:0:0:
246,347,90831,6,0,L|372:343,1,113.999996520996
484,329,91165,1,0,0:0:0:0:
413,143,91331,2,0,P|380:80|332:54,1,113.999996520996
204,115,91665,1,0,0:0:0:0:
303,164,91831,1,0,0:0:0:0:
108,216,91998,6,0,P|98:288|121:370,1,113.999996520996
250,360,92331,1,0,0:0:0:0:
204,115,92498,2,0,L|88:103,1,113.999996520996
10,198,92831,1,0,0:0:0:0:
303,164,92998,2,0,L|427:160,1,113.999996520996
362,281,93331,5,0,0:0:0:0:
204,115,93498,1,0,0:0:0:0:
235,262,93665,1,0,0:0:0:0:
364,82,93831,1,0,0:0:0:0:
465,231,93998,2,0,L|458:354,1,113.999996520996
362,281,94331,1,0,0:0:0:0:
362,281,94415,1,0,0:0:0:0:
362,281,94498,1,0,0:0:0:0:
243,144,94665,6,0,P|185:111|160:54,1,113.999996520996
209,45,94887,1,0,0:0:0:0:
244,88,94998,1,0,0:0:0:0:
243,144,95109,1,0,0:0:0:0:
207,186,95220,1,0,0:0:0:0:
170,212,95331,1,0,0:0:0:0:
136,256,95443,1,0,0:0:0:0:
141,312,95554,1,0,0:0:0:0:
180,351,95665,1,0,0:0:0:0:
239,360,95748,6,0,L|312:355,2,56.9999982604981
305,259,95998,2,0,L|399:252,2,56.9999982604981
430,172,96248,2,0,P|448:193|461:218,2,56.9999982604981
316,127,96498,2,0,P|289:73|271:49,2,56.9999982604981
183,120,96748,1,0,0:0:0:0:
191,103,96831,6,0,L|437:107,1,227.999993041992
391,14,97331,1,0,0:0:0:0:
374,252,97498,2,0,P|304:278|248:263,1,113.999996520996,0|8,0:0|0:0,0:0:0:0:
305,183,97831,1,0,0:0:0:0:
190,346,97998,1,0,0:0:0:0:
165,120,98165,1,0,0:0:0:0:
279,362,98331,1,8,0:0:0:0:
345,96,98498,1,0,0:0:0:0:
148,264,98665,6,0,L|28:271,1,113.999996520996
165,120,98998,1,8,0:0:0:0:
316,302,99165,6,0,B|385:315|441:230|443:148|382:114|318:134|277:172|277:172|303:126|283:43|231:47|138:52|171:169,1,569.999982604981,4|0,0:0|0:0,0:0:0:0:
60,281,100331,6,0,L|153:228,1,95,12|0,0:0|0:0,0:0:0:0:
220,325,100581,1,0,0:0:0:0:
220,325,100665,2,0,P|302:344|352:328,1,95,4|0,0:0|0:0,0:0:0:0:
442,330,100998,2,0,L|409:269,1,47.5
445,192,101165,1,0,0:0:0:0:
262,151,101331,6,0,B|314:156|349:206|349:206|396:168|452:196,1,209.000006378174,4|8,1:0|0:0,0:0:0:0:
155,73,101831,2,0,B|120:105|120:105|116:293,1,209.000006378174
280,57,102331,1,8,0:0:0:0:
155,73,102498,2,0,L|33:101,1,104.500003189087
232,241,102831,1,0,0:0:0:0:
280,57,102998,1,8,0:0:0:0:
381,333,103165,2,0,P|303:338|232:241,1,209.000006378174
468,207,103665,5,8,0:0:0:0:
468,207,103748,1,0,0:0:0:0:
468,207,103831,2,0,L|464:291,1,52.2500015945435
379,240,103998,1,0,0:0:0:0:
280,57,104165,5,0,0:0:0:0:
327,130,104331,2,0,L|445:95,1,104.500003189087,8|0,0:0|0:0,0:0:0:0:
158,117,104665,2,0,P|166:191|209:242,1,104.500003189087
197,31,104998,5,8,0:0:0:0:
69,200,105165,1,0,0:0:0:0:
289,219,105331,1,0,0:0:0:0:
108,51,105498,1,0,0:0:0:0:
253,304,105665,1,8,0:0:0:0:
355,146,105831,1,0,0:0:0:0:
148,302,105998,6,0,L|255:304,1,104.500003189087,0|8,0:0|0:0,0:0:0:0:
390,323,106248,1,8,0:0:0:0:
412,337,106331,2,0,P|445:282|443:239,1,104.500003189087,8|0,0:0|0:0,0:0:0:0:
355,146,106665,6,0,B|310:123|261:171|203:125,1,142.500005435944,0|2,0:0|0:0,0:0:0:0:
133,83,107165,1,0,0:0:0:0:
125,181,107331,1,0,0:0:0:0:
216,133,107498,1,0,0:0:0:0:
38,184,107665,2,0,P|60:243|87:260,1,71.2500027179719,2|0,0:0|0:0,0:0:0:0:
153,271,107998,1,0,0:0:0:0:
298,362,108165,2,0,L|299:267,1,71.2500027179719,0|2,0:0|0:0,0:0:0:0:
427,271,108498,2,0,P|347:306|293:287,1,142.500005435944
428,223,108998,6,0,L|425:297,1,47.5,8|0,0:0|0:0,0:0:0:0:
343,153,109165,2,0,P|388:121|409:118,1,47.5,8|0,0:0|0:0,0:0:0:0:
218,188,109331,2,0,P|144:191|97:167,1,95
257,101,109665,1,8,0:0:0:0:
234,280,109831,1,0,0:0:0:0:
311,31,109998,6,0,P|242:14|194:35,1,95
34,172,110331,2,0,P|103:189|151:168,1,95,8|0,0:0|0:0,0:0:0:0:
88,101,110665,1,0,0:0:0:0:
65,303,110831,1,0,0:0:0:0:
256,215,110998,1,8,0:0:0:0:
35,172,111165,1,0,0:0:0:0:
171,300,111331,5,0,0:0:0:0:
203,138,111498,1,0,0:0:0:0:
291,295,111665,1,8,0:0:0:0:
137,206,111831,1,0,0:0:0:0:
137,206,111998,6,0,L|343:195,1,190,4|8,1:0|0:0,0:0:0:0:
448,109,112498,2,0,P|422:189|479:318,1,190
448,109,112998,2,0,P|387:112|316:140,1,95,8|0,0:0|0:0,0:0:0:0:
257,245,113331,5,0,0:0:0:0:
178,142,113498,1,0,0:0:0:0:
267,32,113665,1,8,0:0:0:0:
326,301,113831,2,0,P|268:332|174:238,1,190
81,204,114331,1,8,0:0:0:0:
91,315,114498,1,0,0:0:0:0:
286,167,114665,6,0,L|80:184,1,190,0|8,0:0|0:0,0:0:0:0:
332,94,115165,2,0,P|366:132|364:195,1,95
308,255,115498,1,0,0:0:0:0:
426,93,115665,2,0,L|322:94,1,95,8|0,0:0|0:0,0:0:0:0:
459,10,115998,1,0,0:0:0:0:
452,183,116165,5,0,0:0:0:0:
267,32,116331,1,8,0:0:0:0:
448,191,116498,5,0,0:0:0:0:
189,98,116665,1,0,0:0:0:0:
447,202,116831,5,0,0:0:0:0:
165,218,116998,1,8,0:0:0:0:
165,218,117081,1,8,0:0:0:0:
165,218,117165,1,8,0:0:0:0:
258,244,117331,6,0,P|218:301|144:310,1,142.500005435944,0|2,0:0|0:0,0:0:0:0:
65,231,117831,2,0,L|76:150,1,71.2500027179719
144,74,118165,2,0,P|194:61|235:67,1,71.2500027179719,0|2,0:0|0:0,0:0:0:0:
349,75,118498,1,0,0:0:0:0:
247,144,118665,1,0,0:0:0:0:
343,67,118831,1,0,0:0:0:0:
252,152,118998,1,2,0:0:0:0:
338,58,119165,2,0,L|339:215,1,142.500005435944
285,315,119665,2,0,L|280:366,3,35.625001358986,8|0|0|0,0:0|0:0|0:0|0:0,0:0:0:0:
285,315,119998,6,0,P|213:308|171:284,1,104.500003189087
55,98,120331,2,0,P|127:105|169:129,1,104.500003189087,8|0,0:0|0:0,0:0:0:0:
72,339,120665,2,0,P|61:257|87:192,1,104.500003189087
261,82,120998,2,0,P|272:164|246:229,1,104.500003189087,8|0,0:0|0:0,0:0:0:0:
155,215,121331,5,0,0:0:0:0:
364,212,121498,1,0,0:0:0:0:
246,374,121665,1,8,0:0:0:0:
355,114,121831,1,0,0:0:0:0:
159,112,121998,1,0,0:0:0:0:
335,315,122165,1,0,0:0:0:0:
253,32,122331,1,8,0:0:0:0:
24,222,122498,1,0,0:0:0:0:
355,114,122665,6,0,B|378:41|378:41|419:104|419:104|482:94|482:94|433:162|433:162|468:231|468:231|398:188|398:188|344:245|344:245|355:164|355:164|291:126|291:126|361:113,1,760,4|4,0:0|0:0,0:0:0:0:
256,192,130665,12,4,132665,0:0:0:0:
