osu file format v14

[General]
AudioFilename: audio.mp3
AudioLeadIn: 0
PreviewTime: 51493
Countdown: 0
SampleSet: Soft
StackLeniency: 0.4
Mode: 0
LetterboxInBreaks: 0
WidescreenStoryboard: 1

[Editor]
Bookmarks: 13536,25243,36950,48658,74999,98414,110121,121828,124755,136463,149633,152560,163627,173048
DistanceSpacing: 0.3
BeatDivisor: 4
GridSize: 32
TimelineZoom: 0.9999999

[Metadata]
Title:Nine Point Eight
TitleUnicode:Nine Point Eight
Artist:Mili
ArtistUnicode:Mili
Creator:SMOKELIND
Version:Iceluin's Normal
Source:DEEMO
Tags:momocashew cassie wei projectmili yamato kasai hamo project English 9.8 Mag Mell Rock - EX - -_EX_- Iceluin FA Featured Artist mappers' guild 98 Video Game
BeatmapID:3993440
BeatmapSetID:1920432

[Difficulty]
HPDrainRate:4
CircleSize:3.5
OverallDifficulty:4.4
ApproachRate:5
SliderMultiplier:1.1
SliderTickRate:1

[Events]
//Background and Video events
0,0,"BG.jpg",0,0
//Break Periods
2,76662,97214
//Storyboard Layer 0 (Background)
//Storyboard Layer 1 (Fail)
//Storyboard Layer 2 (Pass)
//Storyboard Layer 3 (Foreground)
//Storyboard Layer 4 (Overlay)
//Storyboard Sound Samples

[TimingPoints]
1829,365.853658536585,4,2,77,27,1,0
13536,-100,4,2,77,77,0,0
25243,-111.111111111111,4,2,77,57,0,0
36950,-125,4,2,77,57,0,0
48841,-125,4,2,77,47,0,0
51036,-125,4,2,77,67,0,0
51585,-90.9090909090909,4,2,77,77,0,0
74999,-125,4,2,77,47,0,0
98414,-111.111111111111,4,2,77,67,0,0
100609,-111.111111111111,4,2,77,57,0,0
101341,-111.111111111111,4,2,77,67,0,0
101615,-111.111111111111,4,2,77,57,0,0
110121,-125,4,2,77,57,0,0
124755,-125,4,2,77,47,0,0
134999,-125,4,2,77,57,0,0
135731,-125,4,2,77,67,0,0
136463,-100,4,2,77,77,0,0
146707,-125,4,2,77,77,0,0
148170,-125,4,2,77,47,0,0
149085,-125,4,2,77,67,0,0
149633,-90.9090909090909,4,2,77,77,0,0
173048,-125,4,2,77,47,0,0

[Colours]
Combo1 : 122,218,254
Combo2 : 121,121,255

[HitObjects]
160,352,13536,6,0,P|213:342|268:332,1,110,6|8,1:0|0:0,0:0:0:0:
312,355,14085,2,0,P|365:345|420:335,1,110,2|0,0:0|1:0,0:0:0:0:
453,298,14633,2,0,P|467:246|436:203,1,110,10|2,0:0|1:0,0:0:0:0:
399,170,15182,2,0,L|409:115,1,55,0|10,0:0|0:0,0:0:0:0:
350,35,15731,1,2,0:0:0:0:
272,96,16097,1,8,0:0:0:0:
214,16,16463,6,0,P|162:2|118:32,1,110,6|8,1:0|0:0,0:0:0:0:
87,70,17011,2,0,P|97:124|107:178,1,110,2|0,0:0|1:0,0:0:0:0:
77,218,17560,2,0,P|87:272|97:326,1,110,10|2,0:0|1:0,0:0:0:0:
140,349,18109,2,0,L|194:339,1,55,0|10,0:0|0:0,0:0:0:0:
283,382,18658,1,2,0:0:0:0:
349,309,19024,1,8,0:0:0:0:
349,309,19207,1,8,0:0:0:0:
349,309,19389,6,0,P|338:254|328:200,1,110,6|8,1:0|0:0,0:0:0:0:
290,169,19938,2,0,P|235:179|181:189,1,110,2|0,0:0|1:0,0:0:0:0:
137,165,20487,2,0,P|127:110|116:56,1,110,10|2,0:0|1:0,0:0:0:0:
149,18,21036,2,0,L|203:8,1,55,0|10,0:0|0:0,0:0:0:0:
277,73,21584,1,2,0:0:0:0:
344,0,21950,1,8,0:0:0:0:
418,65,22316,6,0,P|447:109|433:160,1,110,6|8,1:0|0:0,0:0:0:0:
402,199,22865,2,0,P|412:253|422:307,1,110,2|0,0:0|1:0,0:0:0:0:
389,345,23414,2,0,P|337:359|293:329,1,110,10|2,0:0|1:0,0:0:0:0:
261,291,23963,2,0,L|206:300,1,55,0|10,0:0|0:0,0:0:0:0:
143,376,24511,1,2,0:0:0:0:
62,317,24877,1,14,0:0:0:0:
125,240,25243,6,0,P|151:200|140:153,1,98.9999969787599,6|10,1:0|0:0,0:0:0:0:
103,119,25792,2,0,P|54:127|5:136,2,98.9999969787599,2|2|2,0:0|1:0|0:0,0:0:0:0:
124,73,26707,1,2,1:0:0:0:
202,11,27072,1,10,0:0:0:0:
202,11,27255,1,2,0:0:0:0:
296,54,27621,1,2,1:0:0:0:
296,54,27804,2,0,L|344:45,1,49.4999984893799,10|10,0:0|0:0,0:0:0:0:
394,40,28170,5,2,1:0:0:0:
484,91,28536,1,10,0:0:0:0:
484,91,28719,2,0,P|514:127|498:172,1,98.9999969787599,2|8,0:0|0:0,0:0:0:0:
436,249,29450,1,8,0:0:0:0:
436,249,29633,2,0,B|283:277|283:277|247:253,1,197.99999395752,2|10,1:0|0:0,0:0:0:0:
215,215,30548,2,0,P|207:192|221:173,1,49.4999984893799,0|12,1:0|0:0,0:0:0:0:
295,106,31097,5,4,1:0:0:0:
244,27,31463,1,10,0:0:0:0:
244,27,31646,2,0,P|195:35|146:44,1,98.9999969787599,2|2,0:0|1:0,0:0:0:0:
124,88,32194,1,10,0:0:0:0:
27,68,32560,2,0,L|18:19,2,49.4999984893799,2|2|10,1:0|0:0|0:0,0:0:0:0:
2,111,33109,1,2,0:0:0:0:
79,181,33475,1,2,1:0:0:0:
79,181,33658,2,0,L|87:229,1,49.4999984893799,2|10,0:0|0:0,0:0:0:0:
95,278,34024,6,0,P|45:297|37:349,1,98.9999969787599,2|10,1:0|0:0,0:0:0:0:
61,380,34572,2,0,P|109:371|158:363,1,98.9999969787599,2|2,0:0|1:0,0:0:0:0:
218,285,35304,1,8,0:0:0:0:
218,285,35487,1,2,1:0:0:0:
298,343,35853,1,10,0:0:0:0:
358,266,36219,1,2,1:0:0:0:
438,323,36585,1,10,0:0:0:0:
498,246,36950,6,0,P|487:178|475:116,1,132,2|0,1:0|1:0,0:0:0:0:
435,87,37682,2,0,P|413:83|394:93,1,44,8|0,0:0|1:0,0:0:0:0:
274,11,38414,2,0,P|205:21|143:33,1,132,2|0,1:0|1:0,0:0:0:0:
96,44,39146,1,10,0:0:0:0:
40,123,39511,1,2,3:0:0:0:
109,189,39877,6,0,P|101:234|94:275,1,88,2|2,1:0|0:0,0:0:0:0:
90,327,40426,1,2,1:0:0:0:
90,327,40609,1,10,0:0:0:0:
185,339,40975,2,0,P|192:293|199:252,1,88,2|2,0:0|1:0,0:0:0:0:
211,208,41524,1,2,3:0:0:0:
211,208,41707,1,2,1:0:0:0:
171,119,42072,1,10,0:0:0:0:
238,49,42438,1,2,3:0:0:0:
322,96,42804,6,0,P|386:83|451:73,1,132,2|0,1:0|1:0,0:0:0:0:
493,99,43536,2,0,L|485:142,1,44,8|0,0:0|1:0,0:0:0:0:
477,190,43902,1,2,0:0:0:0:
455,284,44268,2,0,P|392:268|340:304,1,132,2|0,1:0|1:0,0:0:0:0:
311,343,45000,1,10,0:0:0:0:
234,284,45365,1,10,0:0:0:0:
148,329,45731,6,0,L|157:372,2,44,2|2|2,1:0|1:0|0:0,0:0:0:0:
113,303,46280,1,2,1:0:0:0:
113,303,46463,1,10,0:0:0:0:
43,236,46828,2,0,L|0:245,2,44,2|2|2,0:0|1:0|1:0,0:0:0:0:
70,197,47377,1,2,3:0:0:0:
70,197,47560,1,2,0:0:0:0:
137,127,47926,2,0,L|127:83,2,44,10|2|10,0:0|1:0|0:0,0:0:0:0:
175,154,48475,2,0,P|197:158|215:146,1,44,2|14,0:0|1:2,0:0:0:0:
416,320,50121,5,2,3:0:0:0:
498,269,50487,1,2,3:0:0:0:
439,191,50853,2,0,L|446:147,1,44,6|8,3:2|0:3,0:0:0:0:
455,99,51219,1,12,1:2:0:0:
385,32,51585,6,0,P|355:36|325:42,1,60.5000018463135,2|2,1:0|1:0,0:0:0:0:
290,18,51950,1,10,0:0:0:0:
290,18,52133,2,0,P|230:28|171:40,1,121.000003692627,2|2,1:0|1:0,0:0:0:0:
136,74,52682,2,0,L|77:84,1,60.5000018463135,8|2,0:0|1:0,0:0:0:0:
33,60,53048,2,0,L|23:1,2,60.5000018463135,2|2|10,1:0|0:0|0:0,0:0:0:0:
0,96,53597,1,2,1:0:0:0:
54,182,53963,1,2,1:0:0:0:
54,182,54146,2,0,L|64:241,1,60.5000018463135,10|10,0:0|0:0,0:0:0:0:
77,288,54511,6,0,P|134:277|179:314,1,121.000003692627,2|10,1:0|0:0,0:0:0:0:
210,352,55060,2,0,P|269:340|329:331,1,121.000003692627,2|2,1:0|1:0,0:0:0:0:
370,357,55609,2,0,L|429:346,1,60.5000018463135,10|2,0:0|1:0,0:0:0:0:
455,304,55975,2,0,B|420:264|467:217|474:226|518:180|484:142,1,181.500005538941,2|2,1:0|1:0,0:0:0:0:
452,106,56707,2,0,P|394:95|350:133,1,121.000003692627,8|12,0:3|1:2,0:0:0:0:
280,200,57438,6,0,L|291:259,2,60.5000018463135,2|2|2,1:0|1:0|0:0,0:0:0:0:
240,171,57987,2,0,L|180:182,1,60.5000018463135,2|8,1:0|0:0,0:0:0:0:
116,255,58536,1,2,0:0:0:0:
33,203,58902,2,0,P|23:146|11:80,1,121.000003692627,2|2,1:0|1:0,0:0:0:0:
43,47,59450,2,0,L|102:58,1,60.5000018463135,0|8,1:0|0:0,0:0:0:0:
187,10,59999,2,0,P|216:7|240:24,1,60.5000018463135,2|8,3:0|0:0,0:0:0:0:
275,58,60365,6,0,P|334:46|394:36,1,121.000003692627,2|8,1:0|0:0,0:0:0:0:
441,62,60914,1,0,1:0:0:0:
441,62,61097,2,0,P|478:105|458:160,1,121.000003692627,2|8,0:0|0:0,0:0:0:0:
392,231,61828,2,0,L|403:290,1,60.5000018463135,2|8,1:0|0:0,0:0:0:0:
373,329,62194,2,0,P|314:317|254:307,1,121.000003692627,0|14,1:0|0:0,0:0:0:0:
218,340,62743,2,0,L|159:329,1,60.5000018463135,2|12,1:0|0:0,0:0:0:0:
71,372,63292,6,0,P|66:342|60:312,1,60.5000018463135,2|2,1:0|1:0,0:0:0:0:
27,285,63657,1,10,0:0:0:0:
27,285,63841,2,0,P|8:230|44:184,1,121.000003692627,2|2,1:0|1:0,0:0:0:0:
88,163,64389,2,0,L|147:173,1,60.5000018463135,8|2,0:0|1:0,0:0:0:0:
193,156,64755,2,0,P|186:127|202:102,2,60.5000018463135,2|0|8,1:0|0:0|0:0,0:0:0:0:
226,191,65304,1,2,1:0:0:0:
296,265,65670,1,2,1:0:0:0:
296,265,65853,2,0,L|355:254,1,60.5000018463135,10|10,0:0|0:0,0:0:0:0:
390,289,66219,6,0,P|445:308|491:272,1,121.000003692627,2|10,1:0|0:0,0:0:0:0:
512,229,66767,2,0,P|501:169|490:109,1,121.000003692627,2|2,1:0|1:0,0:0:0:0:
469,20,67499,1,2,1:0:0:0:
469,20,67682,2,0,B|388:35|388:35|372:49|372:49|295:62,1,181.500005538941,2|0,1:0|1:0,0:0:0:0:
261,98,68414,2,0,P|269:144|276:187,2,90.7500027694703,10|8|12,0:0|0:0|1:2,0:0:0:0:
216,78,69145,6,0,L|205:19,2,60.5000018463135,2|2|2,1:0|1:0|0:0,0:0:0:0:
182,114,69694,2,0,L|122:103,1,60.5000018463135,2|8,1:0|0:0,0:0:0:0:
43,159,70243,1,2,0:0:0:0:
96,239,70609,2,0,L|156:250,2,60.5000018463135,2|10|2,1:0|0:0|1:0,0:0:0:0:
64,275,71157,2,0,L|75:334,1,60.5000018463135,2|8,1:0|0:0,0:0:0:0:
165,368,71706,2,0,P|193:373|215:353,1,60.5000018463135,10|10,0:0|0:0,0:0:0:0:
250,319,72072,6,0,P|309:328|369:339,1,121.000003692627,2|8,1:0|0:0,0:0:0:0:
417,347,72621,2,0,P|426:288|437:228,1,121.000003692627,2|0,1:0|1:0,0:0:0:0:
445,179,73170,1,8,0:0:0:0:
511,108,73536,2,0,P|516:80|496:58,1,60.5000018463135,2|8,1:0|0:0,0:0:0:0:
456,29,73902,2,0,P|397:38|337:49,1,121.000003692627,0|14,1:0|0:0,0:0:0:0:
252,0,74633,1,12,0:0:0:0:
180,65,74999,6,0,B|120:143|211:222|225:205|323:289|262:369,1,352,2|0,1:0|1:0,0:0:0:0:
96,128,98414,6,0,L|87:79,1,49.4999984893799,14|0,0:0|0:0,0:0:0:0:
87,79,99877,6,0,L|96:128,1,49.4999984893799,14|0,0:0|0:0,0:0:0:0:
242,104,100609,2,0,L|233:55,2,49.4999984893799,0|0|2,3:0|3:0|3:2,0:0:0:0:
284,139,101158,1,10,0:0:0:0:
284,139,101341,6,0,P|332:129|381:121,1,98.9999969787599,14|2,1:2|3:2,0:0:0:0:
461,64,102072,2,0,P|489:102|476:148,1,98.9999969787599,8|8,0:0|0:0,0:0:0:0:
450,192,102621,1,10,0:0:0:0:
450,192,102804,2,0,L|458:240,1,49.4999984893799,10|0,0:0|1:0,0:0:0:0:
424,276,103170,2,0,L|432:324,1,49.4999984893799,8|0,0:0|1:0,0:0:0:0:
405,366,103536,1,10,0:0:0:0:
316,321,103902,2,0,L|267:312,1,49.4999984893799,0|8,1:0|0:0,0:0:0:0:
239,271,104268,6,0,P|200:241|153:248,1,98.9999969787599,4|10,1:2|0:0,0:0:0:0:
120,286,104817,2,0,P|128:334|136:383,2,98.9999969787599,2|2|0,0:0|1:0|0:0,0:0:0:0:
75,263,105732,1,2,1:0:0:0:
13,192,106097,1,10,0:0:0:0:
13,192,106280,1,2,0:0:0:0:
93,132,106646,1,2,1:0:0:0:
93,132,106829,2,0,L|102:84,1,49.4999984893799,10|2,0:0|0:0,0:0:0:0:
114,34,107195,5,2,1:0:0:0:
215,52,107561,1,10,0:0:0:0:
215,52,107744,2,0,P|206:101|198:149,1,98.9999969787599,2|2,0:0|1:0,0:0:0:0:
258,234,108475,1,0,0:0:0:0:
258,234,108658,2,0,P|216:259|169:248,2,98.9999969787599,2|2|10,1:0|0:0|0:0,0:0:0:0:
291,196,109573,2,0,L|350:207,1,49.4999984893799,0|12,1:0|0:3,0:0:0:0:
426,248,110121,6,0,P|438:181|449:118,1,132,2|0,1:0|1:0,0:0:0:0:
415,82,110853,2,0,P|392:79|374:91,1,44,8|0,0:0|1:0,0:0:0:0:
256,6,111585,2,0,P|204:44|141:35,1,132,2|0,1:0|1:0,0:0:0:0:
99,9,112317,1,10,0:0:0:0:
22,67,112682,1,2,3:0:0:0:
60,155,113048,6,0,P|34:188|46:229,1,88,2|2,1:0|0:0,0:0:0:0:
80,271,113597,1,2,1:0:0:0:
80,271,113780,1,10,0:0:0:0:
173,246,114146,2,0,P|198:212|186:171,1,88,2|2,0:0|1:0,0:0:0:0:
153,130,114695,1,2,3:0:0:0:
153,130,114878,1,2,1:0:0:0:
201,46,115243,1,10,0:0:0:0:
287,89,115609,1,2,3:0:0:0:
335,5,115975,6,0,P|400:14|464:28,1,132,2|0,1:0|1:0,0:0:0:0:
490,69,116707,2,0,P|493:90|483:109,1,44,8|0,0:0|1:0,0:0:0:0:
444,138,117073,1,2,0:0:0:0:
501,215,117439,2,0,P|488:278|478:344,1,132,2|0,1:0|1:0,0:0:0:0:
439,374,118171,1,10,0:0:0:0:
365,311,118536,1,10,0:0:0:0:
272,340,118902,6,0,P|283:358|279:379,2,44,2|2|2,1:0|1:0|0:0,0:0:0:0:
240,309,119451,1,2,1:0:0:0:
240,309,119634,1,10,0:0:0:0:
171,241,119999,2,0,P|152:252|131:248,2,44,2|2|2,0:0|1:0|1:0,0:0:0:0:
204,206,120548,1,2,3:0:0:0:
204,206,120731,1,2,0:0:0:0:
271,137,121096,2,0,P|259:118|263:97,2,44,10|2|10,0:0|1:0|0:0,0:0:0:0:
303,168,121646,2,0,L|363:157,1,44,2|12,0:0|1:2,0:0:0:0:
64,96,124755,6,0,P|236:107|379:10,1,352,2|2,1:0|1:0,0:0:0:0:
379,10,127682,5,2,1:0:0:0:
160,320,129146,1,2,1:0:0:0:
160,320,130609,6,0,B|98:238|196:154|210:171|301:92|241:14,2,352,2|2|10,1:0|1:0|0:0,0:0:0:0:
246,375,133902,5,0,0:0:0:0:
246,375,134085,1,2,0:0:0:0:
297,293,134450,2,0,P|364:303|427:315,1,132,2|2,0:0|1:0,0:0:0:0:
505,256,135365,1,2,0:0:0:0:
505,256,135548,1,2,0:0:0:0:
456,178,135914,1,2,3:2:0:0:
456,178,136097,2,0,L|462:134,1,44,10|8,0:0|0:0,0:0:0:0:
433,93,136463,6,0,P|380:80|336:110,1,110,6|8,1:0|0:0,0:0:0:0:
304,147,137011,2,0,P|247:135|193:127,1,110,2|0,1:0|1:0,0:0:0:0:
155,156,137560,1,10,0:0:0:0:
75,105,137926,1,2,1:0:0:0:
75,105,138109,2,0,L|84:50,2,55,2|10|2,1:0|0:0|1:0,0:0:0:0:
34,134,138658,1,2,0:0:0:0:
85,230,139024,1,8,0:0:0:0:
85,230,139207,1,10,0:0:0:0:
85,230,139389,6,0,P|74:283|64:338,1,110,6|10,1:0|0:0,0:0:0:0:
97,375,139938,1,2,1:0:0:0:
178,317,140304,1,2,1:0:0:0:
178,317,140487,1,10,0:0:0:0:
270,353,140853,2,0,L|325:343,1,55,2|2,1:0|1:0,0:0:0:0:
362,375,141219,2,0,L|417:365,1,55,10|2,0:0|1:0,0:0:0:0:
436,320,141585,2,0,L|491:310,2,55,10|4|12,0:0|0:3|0:3,0:0:0:0:
406,287,142133,1,8,0:0:0:0:
406,287,142316,6,0,P|396:232|385:178,1,110,6|10,1:0|0:0,0:0:0:0:
412,137,142865,1,2,1:0:0:0:
474,61,143231,1,2,1:0:0:0:
474,61,143414,1,10,0:0:0:0:
388,11,143780,2,0,P|335:-2|291:28,1,110,2|10,1:0|0:0,0:0:0:0:
255,61,144328,2,0,P|201:50|146:41,1,110,2|2,1:0|1:0,0:0:0:0:
118,83,144877,1,8,0:0:0:0:
118,83,145060,1,8,0:0:0:0:
118,83,145243,6,0,P|128:136|137:191,1,110,6|8,1:0|0:0,0:0:0:0:
107,231,145792,1,0,1:0:0:0:
44,308,146158,1,2,1:0:0:0:
44,308,146341,2,0,P|28:330|38:355,1,55,10|2,0:0|1:0,0:0:0:0:
79,380,146707,6,0,P|122:371|165:364,1,88,14|2,0:0|1:0,0:0:0:0:
197,327,147255,2,0,B|224:364|312:389|352:327|345:282|296:265|287:282,1,220,14|2,0:0|3:0,0:0:0:0:
206,229,148536,1,2,3:0:0:0:
267,154,148902,2,0,L|259:110,1,44,6|8,3:2|0:3,0:0:0:0:
250,62,149268,1,12,1:2:0:0:
345,49,149633,6,0,L|355:109,1,60.5000018463135,2|0,1:0|1:0,0:0:0:0:
401,135,149998,1,10,0:0:0:0:
401,135,150181,2,0,P|437:180|419:235,1,121.000003692627,2|2,1:0|1:0,0:0:0:0:
389,273,150730,2,0,L|330:263,1,60.5000018463135,10|2,0:0|1:0,0:0:0:0:
287,288,151096,2,0,L|297:347,2,60.5000018463135,2|2|10,1:0|0:0|0:0,0:0:0:0:
253,252,151645,1,2,1:0:0:0:
181,316,152011,1,2,1:0:0:0:
181,316,152194,2,0,L|122:306,1,60.5000018463135,10|10,0:0|0:0,0:0:0:0:
73,294,152560,6,0,P|61:234|49:175,1,121.000003692627,2|10,1:0|0:0,0:0:0:0:
44,126,153109,2,0,P|103:137|162:149,1,121.000003692627,2|2,1:0|1:0,0:0:0:0:
205,126,153657,2,0,L|194:67,1,60.5000018463135,10|2,0:0|1:0,0:0:0:0:
231,35,154023,2,0,B|271:70|318:23|309:16|355:-28|393:6,1,181.500005538941,2|0,1:0|1:0,0:0:0:0:
434,28,154755,2,0,P|450:52|443:80,1,60.5000018463135,8|8,0:3|0:3,0:0:0:0:
425,125,155121,1,12,0:0:0:0:
363,199,155486,6,0,L|374:258,2,60.5000018463135,2|2|2,1:0|1:0|0:0,0:0:0:0:
324,169,156035,2,0,L|264:180,1,60.5000018463135,2|8,1:0|0:0,0:0:0:0:
183,126,156584,1,2,0:0:0:0:
118,198,156950,2,0,P|128:255|140:321,1,121.000003692627,2|2,1:0|1:0,0:0:0:0:
174,350,157498,2,0,L|233:339,1,60.5000018463135,2|8,1:0|0:0,0:0:0:0:
321,379,158047,2,0,L|380:369,1,60.5000018463135,2|8,3:2|0:0,0:0:0:0:
428,357,158414,6,0,P|409:301|445:256,1,121.000003692627,2|8,1:0|0:0,0:0:0:0:
489,233,158962,1,0,1:0:0:0:
489,233,159146,2,0,P|477:173|465:114,1,121.000003692627,2|8,0:0|0:0,0:0:0:0:
394,48,159876,2,0,L|335:59,1,60.5000018463135,2|8,1:0|0:0,0:0:0:0:
308,100,160243,2,0,P|262:136|207:117,1,121.000003692627,0|14,1:0|0:0,0:0:0:0:
175,81,160791,2,0,L|164:22,1,60.5000018463135,2|12,1:0|0:0,0:0:0:0:
67,36,161341,6,0,L|78:95,1,60.5000018463135,2|2,1:0|1:0,0:0:0:0:
45,131,161707,1,10,0:0:0:0:
45,131,161889,2,0,P|26:186|62:232,1,121.000003692627,2|2,1:0|1:0,0:0:0:0:
105,251,162437,2,0,L|164:241,1,60.5000018463135,8|2,0:0|1:0,0:0:0:0:
196,204,162803,2,0,P|203:175|187:150,2,60.5000018463135,2|2|10,1:0|0:0|0:0,0:0:0:0:
238,228,163352,1,2,1:0:0:0:
307,160,163718,1,2,1:0:0:0:
307,160,163902,2,0,P|328:142|361:149,1,60.5000018463135,10|10,0:0|0:0,0:0:0:0:
396,177,164267,6,0,P|386:236|376:296,1,121.000003692627,2|10,1:0|0:0,0:0:0:0:
364,343,164815,2,0,P|307:326|260:360,1,121.000003692627,2|2,1:0|1:0,0:0:0:0:
195,295,165547,1,2,1:0:0:0:
195,295,165731,2,0,B|50:322|50:322|19:300,1,181.500005538941,2|0,1:0|1:0,0:0:0:0:
0,259,166463,2,0,L|10:199,1,60.5000018463135,8|8,0:3|0:3,0:0:0:0:
23,152,166828,1,12,0:0:0:0:
103,97,167193,6,0,P|108:67|93:42,2,60.5000018463135,2|2|2,1:0|1:0|0:0,0:0:0:0:
141,127,167742,2,0,L|201:116,1,60.5000018463135,2|8,1:0|0:0,0:0:0:0:
261,40,168291,1,2,0:0:0:0:
338,98,168658,2,0,P|367:103|392:88,2,60.5000018463135,2|10|2,1:0|0:0|1:0,0:0:0:0:
308,136,169207,2,0,L|319:196,1,60.5000018463135,2|8,1:0|0:0,0:0:0:0:
261,273,169755,2,0,L|272:333,1,60.5000018463135,10|10,0:0|0:0,0:0:0:0:
308,363,170120,6,0,P|367:352|427:342,1,121.000003692627,2|8,1:0|0:0,0:0:0:0:
455,303,170669,2,0,P|445:243|434:183,1,121.000003692627,0|0,1:0|1:0,0:0:0:0:
457,140,171218,1,8,0:0:0:0:
395,64,171585,1,2,1:0:0:0:
311,111,171950,1,2,1:0:0:0:
249,36,172316,2,0,L|189:26,1,60.5000018463135,14|0,0:0|1:0,0:0:0:0:
151,56,172682,2,0,L|91:46,1,60.5000018463135,14|0,0:0|0:0,0:0:0:0:
50,72,173048,6,0,B|-36:113|-52:240|25:306|102:295|132:223|91:201,1,352,2|0,1:0|1:0,0:0:0:0:
