osu file format v14

[General]
AudioFilename: audio.mp3
AudioLeadIn: 0
PreviewTime: 51493
Countdown: 0
SampleSet: Soft
StackLeniency: 0.4
Mode: 0
LetterboxInBreaks: 0
WidescreenStoryboard: 1

[Editor]
DistanceSpacing: 1.4
BeatDivisor: 4
GridSize: 32
TimelineZoom: 1.2

[Metadata]
Title:Nine Point Eight
TitleUnicode:Nine Point Eight
Artist:Mili
ArtistUnicode:Mili
Creator:SMOKELIND
Version:Ex's Hard
Source:DEEMO
Tags:momocashew cassie wei projectmili yamato kasai hamo project English 9.8 Mag Mell Rock - EX - -_EX_- Iceluin FA Featured Artist mappers' guild 98 Video Game
BeatmapID:3982134
BeatmapSetID:1920432

[Difficulty]
HPDrainRate:4.5
CircleSize:4
OverallDifficulty:7
ApproachRate:8
SliderMultiplier:1.4
SliderTickRate:1

[Events]
//Background and Video events
0,0,"BG.jpg",0,0
//Break Periods
2,76663,96200
2,124755,129859
//Storyboard Layer 0 (Background)
//Storyboard Layer 1 (Fail)
//Storyboard Layer 2 (Pass)
//Storyboard Layer 3 (Foreground)
//Storyboard Layer 4 (Overlay)
//Storyboard Sound Samples

[TimingPoints]
1829,365.853658536585,4,2,77,27,1,0
13536,-100,4,2,77,77,0,0
25243,-125,4,2,77,57,0,0
36950,-142.857142857143,4,2,77,57,0,0
49024,-142.857142857143,4,2,77,47,0,0
50121,-125,4,2,77,47,0,0
51036,-125,4,2,77,67,0,0
51585,-125,4,2,77,77,0,0
51768,-100,4,2,77,77,0,0
74999,-100,4,2,77,47,0,0
96950,-125,4,2,77,47,0,0
98414,-125,4,2,77,67,0,0
99511,-111.111111111111,4,2,77,67,0,0
100608,-111.111111111111,4,2,77,57,0,0
101341,-111.111111111111,4,2,77,67,0,0
101706,-111.111111111111,4,2,77,57,0,0
110121,-142.857142857143,4,2,77,57,0,0
130609,-142.857142857143,4,2,77,47,0,0
134999,-142.857142857143,4,2,77,57,0,0
135730,-142.857142857143,4,2,77,67,0,0
136463,-100,4,2,77,77,0,0
148170,-100,4,2,77,47,0,0
149085,-100,4,2,77,67,0,0
149633,-100,4,2,77,77,0,0
173048,-100,4,2,77,47,0,0

[Colours]
Combo1 : 122,218,254
Combo2 : 121,121,255

[HitObjects]
422,270,13536,6,0,P|357:265|302:318,1,140,6|8,1:0|2:0,2:0:0:0:
230,377,14085,2,0,L|206:225,1,140,2|0,2:0|1:0,2:0:0:0:
110,235,14633,2,0,P|57:254|29:266,1,70,10|0,2:0|2:0,2:0:0:0:
23,162,14999,5,2,1:0:0:0:
112,104,15182,2,0,B|190:107|174:149|267:150,1,140,0|0,2:0|2:0,2:0:0:0:
329,101,15731,1,2,2:0:0:0:
400,167,15914,2,0,P|453:163|502:160,1,70,0|8,1:0|2:0,2:0:0:0:
469,161,16280,1,0,2:0:0:0:
510,59,16463,6,0,P|457:25|369:50,1,140,6|8,1:0|2:0,2:0:0:0:
306,97,17011,2,0,P|259:104|143:120,1,140,2|0,2:0|1:0,2:0:0:0:
73,87,17560,2,0,P|63:120|56:154,1,70,10|0,2:0|2:0,2:0:0:0:
33,250,17926,5,2,1:0:0:0:
120,205,18109,2,0,P|197:218|215:280,1,140,0|0,2:0|2:0,2:0:0:0:
284,181,18658,2,0,P|290:146|298:112,1,70,2|0,2:0|1:0,2:0:0:0:
297,112,19024,1,8,2:0:0:0:
368,246,19207,5,8,2:0:0:0:
298,314,19389,2,0,P|303:362|306:400,2,70,6|0|8,1:0|2:0|2:0,2:0:0:0:
368,246,19938,2,0,P|424:270|506:252,1,140,2|0,2:0|1:0,2:0:0:0:
498,148,20487,2,0,P|455:158|428:188,1,70,10|0,2:0|2:0,2:0:0:0:
368,246,20853,5,2,1:0:0:0:
298,314,21036,2,0,B|229:313|245:355|167:358,1,140,0|0,2:0|2:0,2:0:0:0:
82,302,21585,2,0,P|73:356|68:387,1,70,2|0,2:0|1:0,2:0:0:0:
70,371,21950,1,8,2:0:0:0:
2,249,22133,5,0,2:0:0:0:
90,207,22316,2,0,P|136:198|181:189,2,70,6|0|8,1:0|2:0|2:0,2:0:0:0:
11,147,22865,2,0,P|0:95|86:68,1,140,2|0,2:0|1:0,2:0:0:0:
159,23,23414,2,0,P|168:70|173:121,1,70,10|0,2:0|2:0,2:0:0:0:
158,193,23780,5,2,1:0:0:0:
249,227,23963,2,0,P|307:241|396:260,1,140,0|0,2:0|2:0,2:0:0:0:
463,198,24511,2,0,P|428:206|374:217,1,70,2|0,2:0|1:0,2:0:0:0:
394,212,24877,1,14,2:0:0:0:
314,116,25060,5,0,1:0:0:0:
378,36,25243,2,0,P|436:40|466:105,1,112,6|10,1:0|2:0,2:0:0:0:
392,135,25792,2,0,P|442:128|519:119,2,112,2|2|2,2:0|1:0|2:0,2:0:0:0:
303,190,26707,6,0,P|306:217|310:245,1,56,2|2,1:0|2:0,2:0:0:0:
310,245,27072,1,10,2:0:0:0:
250,123,27255,2,0,P|262:68|274:13,1,112,2|2,2:0|1:0,2:0:0:0:
182,49,27804,2,0,P|143:57|104:66,1,56,10|10,2:0|2:0,2:0:0:0:
44,21,28170,6,0,P|27:74|70:134,1,112,2|10,1:0|2:0,2:0:0:0:
116,181,28719,2,0,P|161:189|238:208,1,112,2|8,2:0|2:0,2:0:0:0:
115,273,29268,2,0,P|92:277|53:286,1,56,2|8,2:0|2:0,2:0:0:0:
60,284,29633,1,2,1:0:0:0:
148,364,29816,5,0,2:0:0:0:
230,333,29999,2,0,P|252:337|291:346,1,56,8|0,2:0|2:0,2:0:0:0:
372,372,30365,1,10,2:0:0:0:
447,322,30548,5,0,1:0:0:0:
460,325,30639,1,0,1:0:0:0:
474,330,30730,1,12,2:0:0:0:
365,270,30914,1,0,2:0:0:0:
460,228,31097,6,0,B|470:166|439:180|446:111,1,112,4|10,1:0|2:0,2:0:0:0:
455,31,31646,2,0,P|488:27|526:21,1,56,2|0,2:0|2:0,2:0:0:0:
510,23,32011,1,2,1:0:0:0:
369,85,32194,2,0,P|336:81|298:75,1,56,10|0,2:0|2:0,2:0:0:0:
217,65,32560,6,0,P|221:32|227:-6,1,56,2|2,1:0|2:0,2:0:0:0:
224,9,32926,1,10,2:0:0:0:
137,126,33109,2,0,P|192:136|232:196,1,112,2|2,2:0|1:0,2:0:0:0:
277,248,33658,2,0,P|272:275|265:315,1,56,2|10,2:0|2:0,2:0:0:0:
191,360,34024,6,0,P|158:340|198:273,1,112,2|10,1:0|2:0,2:0:0:0:
267,303,34572,2,0,P|314:313|387:328,2,112,2|2|8,2:0|1:0|2:0,2:0:0:0:
180,256,35487,2,0,P|146:248|111:240,1,56,2|0,1:0|2:0,2:0:0:0:
29,277,35853,2,0,P|21:243|13:208,1,56,10|0,2:0|2:0,2:0:0:0:
0,115,36219,1,2,1:0:0:0:
107,155,36402,1,0,3:0:0:0:
107,155,36493,1,0,3:0:0:0:
107,155,36585,2,0,L|153:145,3,28,10|8|8|8,2:0|2:0|2:0|2:0,2:0:0:0:
158,146,36950,6,0,P|198:160|264:78,1,146.999995513916,2|0,1:0|1:0,2:0:0:0:
231,33,37682,1,8,2:0:0:0:
231,33,37865,2,0,P|278:46|342:64,1,97.9999970092774,0|0,1:0|2:0,2:0:0:0:
402,21,38414,6,0,P|432:42|391:128,1,146.999995513916,2|0,1:0|1:0,2:0:0:0:
298,179,39146,2,0,P|345:189|360:192,1,48.9999985046387,10|0,2:0|1:0,2:0:0:0:
434,203,39511,2,0,P|406:209|379:215,1,48.9999985046387,2|8,3:0|2:0,2:0:0:0:
300,284,39877,2,0,B|311:339|279:327|296:392,1,97.9999970092774,2|2,1:0|2:0,2:0:0:0:
293,380,40426,1,2,1:0:0:0:
384,331,40609,6,0,P|425:343|451:351,1,48.9999985046387,10|0,2:0|1:0,2:0:0:0:
496,300,40975,2,0,P|495:251|439:231,1,97.9999970092774,2|2,2:0|1:0,2:0:0:0:
456,228,41524,1,2,3:0:0:0:
375,188,41707,2,0,P|367:230|361:258,1,48.9999985046387,2|0,1:0|1:0,2:0:0:0:
302,316,42072,2,0,P|344:324|372:330,1,48.9999985046387,10|0,2:0|1:0,2:0:0:0:
238,255,42438,2,0,P|196:263|168:269,1,48.9999985046387,2|8,3:0|2:0,2:0:0:0:
106,210,42804,6,0,P|102:258|88:360,1,146.999995513916,2|0,1:0|1:0,2:0:0:0:
12,368,43536,1,8,2:0:0:0:
12,368,43719,2,0,P|4:316|0:264,1,97.9999970092774,0|0,1:0|1:0,2:0:0:0:
0,169,44268,6,0,P|62:200|142:169,1,146.999995513916,2|0,1:0|1:0,2:0:0:0:
193,125,44999,2,0,P|213:153|234:169,1,48.9999985046387,10|0,2:0|1:0,2:0:0:0:
235,258,45365,2,0,P|267:244|292:234,1,48.9999985046387,10|8,2:0|2:0,2:0:0:0:
174,332,45731,5,2,1:0:0:0:
174,332,45914,2,0,P|132:322|106:255,1,97.9999970092774,2|2,1:0|1:0,2:0:0:0:
178,245,46463,2,0,P|224:253|295:264,1,97.9999970092774,10|2,2:0|2:0,2:0:0:0:
274,261,47011,1,2,1:0:0:0:
371,219,47194,5,2,1:0:0:0:
371,219,47377,2,0,P|380:273|390:333,1,97.9999970092774,2|0,3:0|1:0,2:0:0:0:
480,328,47926,2,0,P|468:359|468:390,1,48.9999985046387,10|2,2:0|1:0,2:0:0:0:
466,374,48292,1,10,2:0:0:0:
512,243,48475,5,2,2:0:0:0:
507,231,48566,1,8,2:0:0:0:
502,221,48658,1,6,1:2:0:0:
191,35,50121,6,0,P|246:40|302:47,2,112,2|2|6,3:0|3:0|3:2,2:0:0:0:
96,60,51036,5,8,2:3:0:0:
89,63,51127,1,8,2:3:0:0:
83,66,51219,1,12,1:2:0:0:
189,180,51585,5,2,1:0:0:0:
281,125,51768,2,0,P|289:191|297:226,1,70,2|10,1:0|2:0,2:0:0:0:
230,288,52133,2,0,P|150:270|86:256,1,140,2|2,1:0|1:0,2:0:0:0:
200,378,52682,1,8,2:0:0:0:
310,341,52865,5,2,1:0:0:0:
310,341,52957,1,0,1:0:0:0:
310,341,53048,2,0,P|366:352|402:358,1,70,2|2,1:0|2:0,2:0:0:0:
483,316,53414,1,10,2:0:0:0:
401,240,53597,2,0,P|376:197|416:125,1,140,2|2,1:0|1:0,2:0:0:0:
416,124,54146,1,10,2:0:0:0:
504,57,54328,1,10,2:0:0:0:
401,14,54511,6,0,P|349:7|316:3,1,70,2|0,1:0|1:0,2:0:0:0:
252,83,54877,1,10,2:0:0:0:
192,2,55060,2,0,P|213:38|167:121,1,140,2|2,1:0|1:0,2:0:0:0:
77,158,55609,2,0,P|71:113|66:78,1,70,10|2,2:0|1:0,2:0:0:0:
166,223,55975,6,0,P|172:178|177:143,1,70,2|0,1:0|2:0,2:0:0:0:
75,253,56341,1,8,2:0:0:0:
75,253,56524,1,2,1:0:0:0:
153,327,56707,2,0,L|160:373,2,35,8|8|8,2:3|2:3|1:3,2:0:0:0:
235,257,57072,2,0,P|279:266|325:280,1,70,12|0,1:2|2:0,2:0:0:0:
175,153,57438,6,0,P|160:89|241:55,1,140,2|2,1:0|2:0,2:0:0:0:
213,49,57987,1,2,1:0:0:0:
323,39,58170,2,0,B|334:122|286:89|295:192,1,140,8|2,2:0|2:0,2:0:0:0:
293,172,58719,1,2,1:0:0:0:
411,147,58902,6,0,P|449:144|507:140,1,70,2|10,1:0|2:0,2:0:0:0:
512,246,59268,1,2,1:0:0:0:
436,353,59450,2,0,P|378:349|341:272,1,140,0|0,1:0|1:0,2:0:0:0:
244,237,59999,1,2,3:0:0:0:
230,238,60091,1,0,3:0:0:0:
216,239,60182,1,8,2:0:0:0:
202,240,60274,1,8,2:0:0:0:
186,241,60365,6,0,P|181:282|175:333,1,70,2|0,1:0|1:0,2:0:0:0:
77,358,60731,2,0,P|62:299|54:268,1,70,8|0,2:0|1:0,2:0:0:0:
60,291,61097,1,2,2:0:0:0:
113,196,61280,1,0,1:0:0:0:
71,98,61463,2,0,P|10:109|-7:112,1,70,8|0,2:0|2:0,2:0:0:0:
130,13,61828,6,0,P|194:28|231:106,1,140,2|0,1:0|1:0,2:0:0:0:
230,88,62377,1,0,1:0:0:0:
253,200,62560,1,14,2:0:0:0:
156,244,62743,2,0,P|95:233|78:230,1,70,2|12,1:0|2:0,2:0:0:0:
177,345,63109,1,0,2:0:0:0:
273,302,63292,6,0,P|276:336|280:371,1,70,2|2,1:0|1:0,2:0:0:0:
280,371,63658,1,10,2:0:0:0:
367,261,63841,2,0,P|430:293|513:263,1,140,2|2,1:0|1:0,2:0:0:0:
512,170,64389,1,8,2:0:0:0:
406,193,64572,5,2,1:0:0:0:
406,193,64664,1,0,1:0:0:0:
406,193,64755,2,0,P|399:147|394:108,1,70,2|0,1:0|2:0,2:0:0:0:
469,48,65121,1,8,2:0:0:0:
350,11,65304,2,0,P|309:20|286:122,1,140,2|2,1:0|1:0,2:0:0:0:
277,103,65853,1,10,2:0:0:0:
220,200,66036,1,10,2:0:0:0:
317,244,66219,6,0,P|378:233|395:230,1,70,2|0,1:0|1:0,2:0:0:0:
430,333,66585,1,10,2:0:0:0:
326,362,66768,2,0,B|243:373|276:325|173:334,1,140,2|2,1:0|1:0,2:0:0:0:
92,295,67316,2,0,P|86:336|81:376,1,70,8|2,2:0|1:0,2:0:0:0:
22,237,67682,6,0,P|10:155|0:76,1,140,2|8,1:0|2:0,2:0:0:0:
2,98,68231,1,0,1:0:0:0:
104,134,68414,1,10,2:0:0:0:
191,79,68597,1,0,1:0:0:0:
191,79,68688,1,8,2:0:0:0:
191,79,68780,2,0,P|231:97|245:121,1,70,4|12,1:0|1:2,2:0:0:0:
308,45,69146,6,0,P|287:151|278:199,1,140,2|2,1:0|2:0,2:0:0:0:
281,182,69694,1,2,1:0:0:0:
199,293,69877,2,0,B|215:214|161:225|189:137,1,140,8|2,2:0|2:0,2:0:0:0:
183,156,70426,1,2,2:0:0:0:
152,68,70609,6,0,P|105:75|59:81,1,70,2|10,1:0|2:0,2:0:0:0:
226,3,70975,1,2,1:0:0:0:
270,105,71158,2,0,P|351:112|424:118,1,140,2|0,1:0|1:0,2:0:0:0:
425,221,71707,1,10,2:0:0:0:
429,234,71799,1,8,2:0:0:0:
434,247,71890,1,10,2:0:0:0:
438,260,71982,1,8,2:0:0:0:
443,275,72072,6,0,P|481:286|517:296,1,70,2|0,1:0|1:0,2:0:0:0:
354,215,72438,2,0,P|320:224|286:234,1,70,8|2,2:0|1:0,2:0:0:0:
208,303,72804,2,0,P|222:345|231:375,1,70,2|0,2:0|1:0,2:0:0:0:
105,286,73170,1,8,2:0:0:0:
163,205,73353,5,0,2:0:0:0:
163,205,73536,2,0,P|174:151|181:119,1,70,2|8,1:0|2:0,2:0:0:0:
270,78,73902,2,0,P|259:24|252:-8,1,70,0|0,1:0|1:0,2:0:0:0:
355,141,74268,1,14,2:0:0:0:
428,71,74450,1,0,1:0:0:0:
501,154,74633,2,0,P|507:213|511:254,1,70,12|0,2:0|2:0,2:0:0:0:
460,342,74999,5,2,1:0:0:0:
256,192,75091,12,0,76463,1:0:0:0:
98,85,96950,6,0,B|187:93|171:43|266:51,1,168,0|0,1:0|2:0,2:0:0:0:
306,152,97682,2,0,B|217:160|233:110|138:118,1,168,0|8,1:0|3:0,2:0:0:0:
144,117,98414,1,14,2:0:0:0:
164,229,98597,5,0,2:0:0:0:
164,229,99511,2,0,P|173:276|189:343,1,94.499997116089,0|0,3:0|2:0,2:0:0:0:
183,321,99877,1,14,2:0:0:0:
288,374,100060,6,0,P|344:365|372:361,1,62.9999980773926,0|0,2:0|2:0,2:0:0:0:
426,318,100426,2,0,P|482:327|510:331,1,62.9999980773926,0|0,2:0|3:0,2:0:0:0:
488,327,100792,1,0,3:0:0:0:
383,244,100975,1,2,3:2:0:0:
458,194,101158,5,10,2:0:0:0:
458,194,101249,1,0,2:0:0:0:
458,194,101341,2,0,P|478:133|446:67,1,125.999996154785,14|2,1:2|3:2,2:0:0:0:
381,18,101889,1,2,3:2:0:0:
381,18,101981,1,0,3:0:0:0:
381,18,102072,2,0,P|366:65|357:101,1,62.9999980773926,8|2,2:0|3:2,2:0:0:0:
351,89,102347,1,0,3:0:0:0:
339,100,102438,2,0,P|353:147|366:181,1,62.9999980773926,8|10,2:0|2:0,2:0:0:0:
297,225,102804,6,0,P|336:236|362:245,1,62.9999980773926,10|0,2:0|1:0,2:0:0:0:
263,135,103170,2,0,P|233:144|203:151,1,62.9999980773926,8|0,2:0|1:0,2:0:0:0:
90,153,103536,2,0,P|81:123|74:93,1,62.9999980773926,10|0,2:0|1:0,2:0:0:0:
11,243,103902,2,0,L|42:254,3,31.4999990386963,0|0|8|8,1:0|3:0|2:0|2:0,2:0:0:0:
64,259,104268,6,0,B|129:273|111:305|180:313,1,125.999996154785,4|10,1:2|2:0,2:0:0:0:
258,379,104816,2,0,P|268:310|277:252,1,125.999996154785,2|2,2:0|1:0,2:0:0:0:
355,184,105365,2,0,P|402:193|431:198,1,62.9999980773926,8|0,2:0|2:0,2:0:0:0:
466,291,105731,6,0,P|434:295|403:299,2,62.9999980773926,2|2|10,1:0|2:0|2:0,2:0:0:0:
416,195,106280,2,0,P|425:125|432:61,1,125.999996154785,2|2,2:0|1:0,2:0:0:0:
355,4,106828,1,10,2:0:0:0:
355,4,107011,1,2,2:0:0:0:
263,94,107194,6,0,P|308:104|331:110,1,62.9999980773926,2|0,1:0|2:0,2:0:0:0:
324,108,107560,1,10,2:0:0:0:
205,41,107743,2,0,P|226:97|191:165,1,125.999996154785,2|2,2:0|1:0,2:0:0:0:
108,197,108292,2,0,P|75:195|20:193,1,62.9999980773926,8|0,2:0|2:0,2:0:0:0:
148,292,108658,6,0,P|141:324|131:358,2,41.9999987182618,2|8|8,1:0|2:0|2:0,2:0:0:0:
207,239,109024,2,0,P|200:207|190:173,2,41.9999987182618,2|8|0,2:0|2:0|2:0,2:0:0:0:
256,302,109389,2,0,P|292:313|330:324,1,62.9999980773926,10|0,2:0|1:0,2:0:0:0:
333,327,109664,1,8,2:3:0:0:
351,327,109755,2,0,P|387:316|425:305,1,62.9999980773926,12|0,2:3|2:0,2:0:0:0:
505,263,110121,6,0,P|526:215|459:167,1,146.999995513916,2|0,1:0|1:0,2:0:0:0:
399,215,110853,1,8,2:0:0:0:
399,215,111036,2,0,P|414:182|441:109,1,97.9999970092774,0|0,1:0|2:0,2:0:0:0:
321,53,111585,6,0,B|335:133|376:109|386:193,1,146.999995513916,2|0,1:0|1:0,2:0:0:0:
295,225,112316,2,0,P|256:215|231:209,1,48.9999985046387,10|0,2:0|1:0,2:0:0:0:
182,185,112682,2,0,P|221:175|246:169,1,48.9999985046387,2|8,3:0|2:0,2:0:0:0:
152,272,113048,2,0,P|110:298|59:291,1,97.9999970092774,2|2,1:0|2:0,2:0:0:0:
63,293,113597,1,2,1:0:0:0:
14,204,113780,6,0,P|8:164|4:135,1,48.9999985046387,10|0,2:0|1:0,2:0:0:0:
61,98,114146,2,0,P|66:56|73:-9,1,97.9999970092774,2|2,2:0|1:0,2:0:0:0:
72,0,114694,1,2,3:0:0:0:
159,70,114877,2,0,P|201:62|229:56,1,48.9999985046387,2|0,1:0|1:0,2:0:0:0:
250,147,115243,2,0,P|225:151|201:156,1,48.9999985046387,10|0,2:0|1:0,2:0:0:0:
244,242,115609,2,0,P|268:237|292:232,1,48.9999985046387,2|8,3:0|2:0,2:0:0:0:
391,203,115975,6,0,B|406:281|360:264|385:357,1,146.999995513916,2|0,1:0|1:0,2:0:0:0:
459,371,116707,1,8,2:0:0:0:
459,371,116889,2,0,P|489:330|451:291,1,97.9999970092774,0|0,1:0|1:0,2:0:0:0:
363,253,117438,6,0,P|328:263|206:293,1,146.999995513916,2|0,1:0|1:0,2:0:0:0:
211,197,118170,2,0,P|187:189|164:181,1,48.9999985046387,10|0,2:0|1:0,2:0:0:0:
89,226,118536,2,0,P|84:250|79:274,1,48.9999985046387,10|8,2:0|2:0,2:0:0:0:
13,202,118902,5,2,1:0:0:0:
13,202,119085,2,0,P|8:177|4:153,1,48.9999985046387,2|2,1:0|2:0,2:0:0:0:
36,56,119450,1,2,1:0:0:0:
134,110,119633,2,0,P|138:85|154:4,1,97.9999970092774,10|2,2:0|2:0,2:0:0:0:
152,13,120182,1,2,1:0:0:0:
232,97,120365,6,0,P|272:107|300:113,1,48.9999985046387,2|2,1:0|3:0,2:0:0:0:
377,142,120731,2,0,P|408:113|388:61,1,97.9999970092774,2|10,2:0|2:0,2:0:0:0:
393,64,121280,1,2,1:0:0:0:
304,34,121463,2,0,P|294:74|286:97,1,48.9999985046387,10|2,2:0|2:0,2:0:0:0:
284,94,121737,1,8,2:0:0:0:
278,110,121828,6,0,P|266:152|246:227,1,97.9999970092774,12|0,1:2|2:0,0:0:0:0:
222,274,122377,2,0,P|187:294|109:292,1,97.9999970092774,0|0,0:2|0:2,0:0:0:0:
68,251,122926,1,0,0:2:0:0:
14,325,123109,6,0,P|32:276|45:222,1,97.9999970092774,0|0,0:2|0:2,0:0:0:0:
6,147,123658,1,0,0:2:0:0:
43,43,130609,5,2,1:0:0:0:
308,364,132072,5,2,1:0:0:0:
479,88,133170,6,0,P|488:47|494:19,1,48.9999985046387,2|2,2:0|2:0,2:0:0:0:
397,0,133536,6,0,P|353:19|356:72,1,97.9999970092774,10|0,2:0|2:0,2:0:0:0:
398,129,134085,2,0,P|439:123|515:103,2,97.9999970092774,2|2|0,2:0|2:0|2:0,2:0:0:0:
315,183,134999,6,0,P|277:177|207:167,1,97.9999970092774,2|2,1:0|2:0,2:0:0:0:
114,149,135548,2,0,P|108:113|103:81,1,48.9999985046387,2|0,2:0|1:0,2:0:0:0:
36,212,135914,1,2,3:2:0:0:
122,276,136097,1,10,2:0:0:0:
134,276,136188,1,8,2:0:0:0:
146,277,136279,1,8,2:0:0:0:
158,278,136371,1,8,2:0:0:0:
170,279,136463,6,0,B|243:263|238:308|313:292,1,140,6|8,1:0|2:0,2:0:0:0:
386,243,137011,2,0,P|373:166|311:148,1,140,2|0,1:0|1:0,2:0:0:0:
405,84,137560,2,0,P|449:75|483:67,1,70,10|2,2:0|1:0,2:0:0:0:
473,69,137926,1,2,1:0:0:0:
340,0,138109,5,2,1:0:0:0:
270,71,138292,2,0,P|222:66|184:63,1,70,10|2,2:0|1:0,2:0:0:0:
200,64,138658,1,2,2:0:0:0:
116,1,138841,2,0,P|127:77|136:152,1,140,2|10,1:0|2:0,2:0:0:0:
65,225,139389,6,0,P|22:192|49:94,1,140,6|10,1:0|2:0,2:0:0:0:
135,139,139938,2,0,P|197:148|223:154,1,70,2|0,1:0|2:0,2:0:0:0:
204,149,140304,1,2,1:0:0:0:
284,215,140487,5,10,2:0:0:0:
284,215,140670,1,0,1:0:0:0:
356,137,140853,2,0,P|348:82|345:43,1,70,2|2,1:0|1:0,2:0:0:0:
438,177,141219,2,0,P|493:185|532:188,1,70,10|2,2:0|1:0,2:0:0:0:
384,289,141585,2,0,P|329:297|290:300,1,70,10|4,2:0|2:3,2:0:0:0:
314,298,141950,1,12,2:3:0:0:
220,254,142133,1,8,2:0:0:0:
155,340,142316,6,0,P|111:342|98:256,1,140,6|10,1:0|2:0,2:0:0:0:
167,195,142865,1,2,1:0:0:0:
167,195,142957,1,2,2:0:0:0:
167,195,143048,2,0,L|161:157,3,35,2|2|2|2,2:0|2:0|1:0|2:0,2:0:0:0:
147,146,143414,2,0,L|152:108,3,35,10|2|2|2,2:0|2:0|1:0|2:0,2:0:0:0:
136,96,143780,5,2,1:0:0:0:
236,59,143963,1,2,1:0:0:0:
236,59,144054,1,2,2:0:0:0:
236,59,144146,2,0,P|273:66|325:74,1,70,10|2,2:0|1:0,2:0:0:0:
319,86,144420,1,0,2:0:0:0:
333,100,144511,1,2,2:0:0:0:
416,31,144694,2,0,P|458:43|459:133,1,140,2|8,1:0|2:0,2:0:0:0:
405,206,145243,6,0,P|345:201|254:192,1,140,6|8,1:0|2:0,2:0:0:0:
265,193,145792,1,0,1:0:0:0:
159,199,145975,2,0,P|149:160|138:118,1,70,2|2,2:0|1:0,2:0:0:0:
81,256,146341,2,0,P|42:246|0:235,1,70,10|2,2:0|1:0,2:0:0:0:
101,351,146707,5,14,2:0:0:0:
193,291,146889,2,0,P|185:243|176:197,1,70,0|2,2:0|1:0,2:0:0:0:
280,362,147255,1,14,2:0:0:0:
374,256,148170,6,0,P|424:265|531:284,2,140,2|2|6,3:0|3:0|3:2,2:0:0:0:
276,232,149085,5,8,2:3:0:0:
273,239,149176,1,8,2:3:0:0:
270,245,149268,1,12,1:2:0:0:
465,59,149633,5,2,1:0:0:0:
367,6,149816,2,0,P|356:65|347:100,1,70,0|10,1:0|2:0,2:0:0:0:
260,15,150182,2,0,P|233:70|259:152,1,140,2|2,1:0|1:0,2:0:0:0:
321,232,150731,1,10,2:0:0:0:
241,303,150914,5,2,1:0:0:0:
241,303,151005,1,0,1:0:0:0:
241,303,151097,2,0,P|233:350|227:386,1,70,2|2,1:0|2:0,2:0:0:0:
163,245,151463,1,10,2:0:0:0:
71,301,151646,2,0,P|33:290|32:194,1,140,2|2,1:0|1:0,2:0:0:0:
99,134,152194,1,10,2:0:0:0:
99,134,152377,1,10,2:0:0:0:
204,143,152560,6,0,P|197:109|181:79,1,70,2|0,1:0|1:0,2:0:0:0:
259,8,152926,1,10,2:0:0:0:
295,112,153109,2,0,P|240:150|229:234,1,140,2|2,1:0|1:0,2:0:0:0:
295,307,153658,2,0,P|238:319|205:327,1,70,10|2,2:0|1:0,2:0:0:0:
317,212,154024,6,0,P|351:219|385:226,1,70,2|0,1:0|2:0,2:0:0:0:
489,255,154389,1,8,2:0:0:0:
489,255,154572,1,0,1:0:0:0:
498,148,154755,2,0,L|507:111,2,35,8|8|8,2:3|2:3|2:3,2:0:0:0:
418,72,155121,2,0,P|432:26|441:-7,1,70,12|0,2:0|2:0,2:0:0:0:
296,100,155487,6,0,B|224:79|225:120|149:92,1,140,2|2,1:0|2:0,2:0:0:0:
158,95,156036,1,2,1:0:0:0:
74,30,156219,2,0,P|51:85|30:166,1,140,8|2,2:0|2:0,2:0:0:0:
30,162,156768,1,2,1:0:0:0:
121,234,156950,6,0,P|169:244|208:257,1,70,2|10,1:0|2:0,2:0:0:0:
39,317,157316,1,2,1:0:0:0:
138,368,157499,2,0,P|197:330|281:354,1,140,2|0,1:0|1:0,2:0:0:0:
369,366,158048,1,2,3:2:0:0:
370,352,158140,1,0,3:0:0:0:
371,338,158231,1,8,2:0:0:0:
372,324,158323,1,8,2:0:0:0:
373,308,158414,6,0,P|414:303|465:297,1,70,2|0,1:0|1:0,2:0:0:0:
327,216,158780,2,0,P|286:211|235:205,1,70,8|0,2:0|1:0,2:0:0:0:
257,207,159146,1,2,2:0:0:0:
180,285,159328,1,0,1:0:0:0:
101,211,159511,2,0,P|49:202|16:197,1,70,8|0,2:0|1:0,2:0:0:0:
140,120,159877,6,0,P|206:119|246:32,1,140,2|0,1:0|1:0,2:0:0:0:
247,63,160426,1,0,1:0:0:0:
329,147,160609,1,14,2:0:0:0:
409,73,160792,2,0,P|420:30|422:-14,1,70,2|12,1:0|2:0,2:0:0:0:
507,142,161158,1,0,2:0:0:0:
438,228,161341,6,0,P|427:277|419:316,1,70,2|2,1:0|1:0,2:0:0:0:
422,296,161707,1,10,2:0:0:0:
340,371,161889,2,0,P|287:342|315:265,1,140,2|2,1:0|1:0,2:0:0:0:
357,178,162438,1,8,2:0:0:0:
258,134,162621,5,2,1:0:0:0:
258,134,162713,1,0,1:0:0:0:
258,134,162804,2,0,P|249:81|241:39,1,70,2|2,1:0|2:0,2:0:0:0:
150,121,163170,1,10,2:0:0:0:
109,28,163353,2,0,B|130:100|89:99|113:165,1,140,2|2,1:0|1:0,2:0:0:0:
113,165,163902,1,10,2:0:0:0:
27,232,164085,1,10,2:0:0:0:
112,307,164268,6,0,P|158:318|205:329,1,70,2|0,1:0|1:0,2:0:0:0:
267,257,164633,1,10,2:0:0:0:
211,168,164816,2,0,P|190:122|258:65,1,140,2|2,1:0|1:0,2:0:0:0:
350,95,165365,2,0,P|360:42|367:2,1,70,8|2,2:0|1:0,2:0:0:0:
384,189,165731,6,0,P|446:210|515:172,1,140,2|8,1:0|2:0,2:0:0:0:
509,178,166280,1,0,1:0:0:0:
448,307,166463,1,8,2:3:0:0:
448,307,166554,1,8,2:3:0:0:
448,307,166646,1,8,2:3:0:0:
341,279,166828,2,0,P|328:332|321:369,1,70,12|0,2:0|2:0,2:0:0:0:
219,381,167194,6,0,B|198:309|239:310|215:244,1,140,2|2,1:0|2:0,2:0:0:0:
214,243,167743,1,2,1:0:0:0:
142,176,167926,2,0,P|75:199|8:166,1,140,8|2,2:0|2:0,2:0:0:0:
14,172,168475,1,2,1:0:0:0:
2,66,168658,6,0,P|48:56|91:48,1,70,2|10,1:0|2:0,2:0:0:0:
169,1,169024,1,2,1:0:0:0:
245,82,169207,2,0,P|234:173|225:241,1,140,2|2,1:0|1:0,2:0:0:0:
151,296,169755,1,10,2:0:0:0:
155,309,169847,1,8,2:0:0:0:
160,322,169938,1,10,2:0:0:0:
164,335,170030,1,8,2:0:0:0:
169,350,170120,6,0,P|207:361|243:371,1,70,2|0,1:0|1:0,2:0:0:0:
330,308,170487,2,0,P|368:319|404:329,1,70,8|0,2:0|1:0,2:0:0:0:
270,206,170853,2,0,P|256:262|249:298,1,70,2|0,2:0|1:0,2:0:0:0:
354,171,171219,1,8,2:0:0:0:
437,242,171402,5,0,2:0:0:0:
437,242,171585,2,0,P|487:257|523:266,1,70,2|8,1:0|2:0,2:0:0:0:
415,125,171950,2,0,P|365:140|329:149,1,70,2|0,1:0|1:0,2:0:0:0:
249,186,172316,1,14,2:0:0:0:
147,144,172499,1,0,1:0:0:0:
76,227,172682,2,0,P|66:273|58:315,1,70,14|0,2:0|2:0,2:0:0:0:
4,157,173048,5,2,1:0:0:0:
256,192,173139,12,0,174511,1:0:0:0:
