osu file format v14

[General]
AudioFilename: audio.mp3
AudioLeadIn: 0
PreviewTime: 51493
Countdown: 0
SampleSet: Soft
StackLeniency: 0.7
Mode: 0
LetterboxInBreaks: 0
WidescreenStoryboard: 0

[Editor]
DistanceSpacing: 0.3
BeatDivisor: 4
GridSize: 32
TimelineZoom: 1.7

[Metadata]
Title:Nine Point Eight
TitleUnicode:Nine Point Eight
Artist:Mili
ArtistUnicode:Mili
Creator:SMOKELIND
Version:9.8
Source:DEEMO
Tags:momocashew cassie wei projectmili yamato kasai hamo project English 9.8 Mag Mell Rock - EX - -_EX_- Iceluin FA Featured Artist mappers' guild 98 Video Game
BeatmapID:3963608
BeatmapSetID:1920432

[Difficulty]
HPDrainRate:5
CircleSize:4.2
OverallDifficulty:8
ApproachRate:9
SliderMultiplier:2.47
SliderTickRate:1

[Events]
//Background and Video events
0,0,"BG.jpg",0,0
//Break Periods
2,75198,75863
2,122120,124155
//Storyboard Layer 0 (Background)
//Storyboard Layer 1 (Fail)
//Storyboard Layer 2 (Pass)
//Storyboard Layer 3 (Foreground)
//Storyboard Layer 4 (Overlay)
//Storyboard Sound Samples

[TimingPoints]
1829,365.853658536585,4,2,77,27,1,0
1829,-588.235294117647,4,2,77,27,0,0
13536,-93.4579439252336,4,2,77,77,0,0
14633,-212.765957446809,4,2,77,77,0,0
14907,-212.765957446809,4,2,77,5,0,0
14999,-93.4579439252336,4,2,77,77,0,0
17560,-212.765957446809,4,2,77,77,0,0
17834,-212.765957446809,4,2,77,5,0,0
17926,-93.4579439252336,4,2,77,77,0,0
19024,-129.87012987013,4,2,77,77,0,0
19115,-129.87012987013,4,2,77,5,0,0
19207,-129.87012987013,4,2,77,77,0,0
19298,-129.87012987013,4,2,77,5,0,0
19389,-93.4579439252336,4,2,77,77,0,0
20487,-270.270270270271,4,2,77,77,0,0
20761,-270.270270270271,4,2,77,5,0,0
20853,-93.4579439252336,4,2,77,77,0,0
23414,-270.270270270271,4,2,77,77,0,0
23688,-270.270270270271,4,2,77,5,0,0
23780,-93.4579439252336,4,2,77,77,0,0
25243,-129.87012987013,4,2,77,57,0,0
26066,-129.87012987013,4,2,77,5,0,0
26158,-129.87012987013,4,2,77,57,0,0
28444,-129.87012987013,4,2,77,5,0,0
28536,-129.87012987013,4,2,77,57,0,0
31920,-129.87012987013,4,2,77,5,0,0
32011,-129.87012987013,4,2,77,57,0,0
36950,-175.438596491228,4,2,77,57,0,0
48749,-175.438596491228,4,2,77,5,0,0
48841,-588.235294117647,4,2,77,47,0,0
51036,-114.942528735632,4,2,77,67,0,0
51585,-93.4579439252336,4,2,77,77,0,0
52407,-93.4579439252336,4,2,77,5,0,0
52499,-93.4579439252336,4,2,77,77,0,0
52590,-93.4579439252336,4,2,77,5,0,0
52682,-93.4579439252336,4,2,77,77,0,0
54146,-129.87012987013,4,2,77,77,0,0
54237,-129.87012987013,4,2,77,5,0,0
54328,-129.87012987013,4,2,77,77,0,0
54419,-129.87012987013,4,2,77,5,0,0
54511,-93.4579439252336,4,2,77,77,0,0
54785,-93.4579439252336,4,2,77,5,0,0
54877,-93.4579439252336,4,2,77,77,0,0
57438,-114.942528735632,4,2,77,77,0,0
60365,-93.4579439252336,4,2,77,77,0,0
61371,-93.4579439252336,4,2,77,5,0,0
61463,-93.4579439252336,4,2,77,77,0,0
62651,-93.4579439252336,4,2,77,5,0,0
62743,-93.4579439252336,4,2,77,77,0,0
62926,-175.438596491228,4,2,77,77,0,0
63200,-175.438596491228,4,2,77,5,0,0
63292,-93.4579439252336,4,2,77,77,0,0
65853,-129.87012987013,4,2,77,77,0,0
65944,-129.87012987013,4,2,77,5,0,0
66036,-129.87012987013,4,2,77,77,0,0
66127,-129.87012987013,4,2,77,5,0,0
66219,-93.4579439252336,4,2,77,77,0,0
67042,-93.4579439252336,4,2,77,5,0,0
67133,-93.4579439252336,4,2,77,77,0,0
67224,-93.4579439252336,4,2,77,5,0,0
67316,-93.4579439252336,4,2,77,77,0,0
68780,-129.87012987013,4,2,77,77,0,0
68871,-129.87012987013,4,2,77,5,0,0
68963,-129.87012987013,4,2,77,77,0,0
69054,-129.87012987013,4,2,77,5,0,0
69146,-114.942528735632,4,2,77,77,0,0
72895,-114.942528735632,4,2,77,5,0,0
72987,-114.942528735632,4,2,77,77,0,0
74359,-114.942528735632,4,2,77,5,0,0
74450,-114.942528735632,4,2,77,77,0,0
74633,-212.765957446808,4,2,77,77,0,0
74999,-212.765957446808,4,2,77,47,0,0
98414,-93.4579439252336,4,2,77,67,0,0
100609,-149.253731343284,4,2,77,57,0,0
101341,-93.4579439252336,4,2,77,67,0,0
101615,-149.253731343284,4,2,77,57,0,0
101798,-149.253731343284,4,2,77,5,0,0
101889,-149.253731343284,4,2,77,57,0,0
102712,-149.253731343284,4,2,77,5,0,0
102804,-114.942528735632,4,2,77,57,0,0
104268,-114.942528735632,4,2,77,57,0,0
105365,-270.27027027027,4,2,77,57,0,0
105639,-270.27027027027,4,2,77,5,0,0
105731,-114.942528735632,4,2,77,57,0,0
107468,-114.942528735632,4,2,77,5,0,0
107560,-114.942528735632,4,2,77,57,0,0
107651,-114.942528735632,4,2,77,5,0,0
107743,-114.942528735632,4,2,77,57,0,0
109480,-114.942528735632,4,2,77,5,0,0
109572,-149.253731343283,4,2,77,57,0,0
109755,-370.370370370369,4,2,77,57,0,0
110121,-175.438596491228,4,2,77,57,0,0
121920,-175.438596491228,4,2,77,5,0,0
124755,-370.370370370369,4,2,77,47,0,0
130609,-270.27027027027,4,2,77,47,0,0
132072,-212.765957446808,4,2,77,47,0,0
133536,-175.438596491228,4,2,77,47,0,0
134999,-149.253731343283,4,2,77,57,0,0
135731,-129.87012987013,4,2,77,67,0,0
136463,-103.092783505155,4,2,77,77,0,0
136554,-103.092783505155,4,2,77,5,0,0
136646,-103.092783505155,4,2,77,77,0,0
137103,-103.092783505155,4,2,77,5,0,0
137194,-103.092783505155,4,2,77,77,0,0
137651,-103.092783505155,4,2,77,5,0,0
137743,-103.092783505155,4,2,77,77,0,0
138749,-103.092783505155,4,2,77,5,0,0
138841,-103.092783505155,4,2,77,77,0,0
139663,-103.092783505155,4,2,77,5,0,0
139755,-103.092783505155,4,2,77,77,0,0
139846,-103.092783505155,4,2,77,5,0,0
139938,-103.092783505155,4,2,77,77,0,0
140944,-103.092783505155,4,2,77,5,0,0
141036,-103.092783505155,4,2,77,77,0,0
141310,-103.092783505155,4,2,77,5,0,0
141402,-103.092783505155,4,2,77,77,0,0
144968,-103.092783505155,4,2,77,5,0,0
145060,-103.092783505155,4,2,77,77,0,0
145151,-103.092783505155,4,2,77,5,0,0
145243,-103.092783505155,4,2,77,77,0,0
146432,-103.092783505155,4,2,77,5,0,0
146524,-103.092783505155,4,2,77,77,0,0
146615,-103.092783505155,4,2,77,5,0,0
146707,-103.092783505155,4,2,77,77,0,0
146981,-103.092783505155,4,2,77,5,0,0
147072,-103.092783505155,4,2,77,77,0,0
148170,-588.235294117647,4,2,77,47,0,0
149085,-114.942528735632,4,2,77,67,0,0
149633,-93.4579439252336,4,2,77,77,0,0
149907,-93.4579439252336,4,2,77,5,0,0
149999,-93.4579439252336,4,2,77,77,0,0
151371,-93.4579439252336,4,2,77,5,0,0
151463,-93.4579439252336,4,2,77,77,0,0
152194,-129.87012987013,4,2,77,77,0,0
152285,-129.87012987013,4,2,77,5,0,0
152377,-129.87012987013,4,2,77,77,0,0
152468,-129.87012987013,4,2,77,5,0,0
152559,-93.4579439252336,4,2,77,77,0,0
152834,-93.4579439252336,4,2,77,5,0,0
152926,-93.4579439252336,4,2,77,77,0,0
153383,-93.4579439252336,4,2,77,5,0,0
153475,-93.4579439252336,4,2,77,77,0,0
155487,-114.942528735632,4,2,77,77,0,0
158414,-93.4579439252336,4,2,77,77,0,0
159420,-93.4579439252336,4,2,77,5,0,0
159511,-93.4579439252336,4,2,77,77,0,0
160700,-93.4579439252336,4,2,77,5,0,0
160792,-93.4579439252336,4,2,77,77,0,0
160975,-175.438596491228,4,2,77,77,0,0
161249,-175.438596491228,4,2,77,5,0,0
161341,-93.4579439252336,4,2,77,77,0,0
163902,-129.87012987013,4,2,77,77,0,0
163993,-129.87012987013,4,2,77,5,0,0
164085,-129.87012987013,4,2,77,77,0,0
164176,-129.87012987013,4,2,77,5,0,0
164267,-93.4579439252336,4,2,77,77,0,0
165091,-93.4579439252336,4,2,77,5,0,0
165182,-93.4579439252336,4,2,77,77,0,0
165273,-93.4579439252336,4,2,77,5,0,0
165365,-93.4579439252336,4,2,77,77,0,0
166005,-93.4579439252336,4,2,77,5,0,0
166097,-93.4579439252336,4,2,77,77,0,0
167194,-114.942528735632,4,2,77,77,0,0
171127,-114.942528735632,4,2,77,5,0,0
171219,-114.942528735632,4,2,77,77,0,0
172316,-149.253731343283,4,2,77,77,0,0
172682,-270.270270270268,4,2,77,77,0,0
173048,-212.765957446808,4,2,77,47,0,0

[Colours]
Combo1 : 122,218,254
Combo2 : 121,121,255

[HitObjects]
61,93,13444,5,0,0:0:0:0:
65,104,13536,1,6,1:0:0:0:
213,189,13719,1,0,1:0:0:0:
207,18,13902,1,8,0:0:0:0:
165,99,14085,5,2,0:0:0:0:
307,185,14268,1,0,0:0:0:0:
159,270,14451,1,0,1:0:0:0:
192,339,14633,6,0,L|296:357,1,87.0674986714554,10|0,0:0|2:0,0:0:0:0:
288,356,14999,6,0,P|327:299|308:241,1,132.144995967255,2|0,1:0|0:0,0:0:0:0:
206,43,15365,2,0,P|189:104|227:156,1,132.144995967255,10|0,0:0|0:0,0:0:0:0:
428,75,15731,5,2,0:0:0:0:
327,148,15914,1,0,1:0:0:0:
482,257,16097,1,8,0:0:0:0:
482,257,16463,5,6,1:0:0:0:
358,138,16646,1,0,0:0:0:0:
323,306,16829,1,8,0:0:0:0:
383,237,17012,5,2,0:0:0:0:
266,119,17195,1,0,0:0:0:0:
430,73,17378,1,0,1:0:0:0:
380,20,17560,6,0,L|269:8,1,87.0674986714554,10|0,0:0|2:0,0:0:0:0:
285,14,17926,6,0,P|262:73|189:61,1,132.144995967255,2|0,1:0|0:0,0:0:0:0:
8,32,18292,2,0,P|70:20|98:88,1,132.144995967255,10|0,0:0|0:0,0:0:0:0:
97,271,18658,5,2,0:0:0:0:
80,151,18841,1,0,1:0:0:0:
27,305,19024,6,0,P|25:277|16:248,1,47.5474990568276,8|0,0:0|2:0,0:0:0:0:
166,237,19207,2,0,P|168:265|177:294,1,47.5474990568276,8|0,0:0|2:0,0:0:0:0:
417,178,19389,5,6,1:0:0:0:
312,158,19572,1,0,0:0:0:0:
208,134,19755,1,8,0:0:0:0:
299,265,19938,5,2,0:0:0:0:
319,160,20121,1,0,0:0:0:0:
343,56,20304,1,0,1:0:0:0:
409,27,20487,6,0,L|425:111,1,68.5425016734009,10|0,0:0|2:0,0:0:0:0:
353,133,20853,6,0,B|364:162|402:172|402:172|363:182|352:212,1,132.144995967255,2|0,1:0|0:0,0:0:0:0:
496,296,21219,2,0,B|464:290|435:317|435:317|449:278|428:253,1,132.144995967255,10|0,0:0|0:0,0:0:0:0:
245,265,21585,5,2,0:0:0:0:
353,295,21768,1,0,1:0:0:0:
172,245,21950,1,8,0:0:0:0:
172,245,22316,5,6,1:0:0:0:
152,140,22499,1,0,0:0:0:0:
128,36,22682,1,8,0:0:0:0:
259,127,22865,5,2,0:0:0:0:
154,147,23048,1,0,0:0:0:0:
50,171,23231,1,0,1:0:0:0:
0,119,23414,6,0,L|11:47,1,68.5425016734009,10|0,0:0|2:0,0:0:0:0:
20,49,23780,6,0,L|-3:198,1,132.144995967255,2|0,1:0|0:0,0:0:0:0:
99,381,24146,2,0,L|122:232,1,132.144995967255,10|0,0:0|0:0,0:0:0:0:
259,182,24511,5,2,0:0:0:0:
389,290,24694,1,0,1:0:0:0:
226,337,24877,5,14,0:0:0:0:
291,273,25060,1,0,1:0:0:0:
362,205,25243,6,0,P|370:99|381:11,1,190.18999622731,6|10,1:0|0:0,0:0:0:0:
215,141,25792,2,0,P|142:132|69:126,1,142.642497170483,2|0,0:0|2:0,0:0:0:0:
70,120,26158,2,0,P|117:122|164:127,1,95.0949981136551,2|8,1:0|0:0,0:0:0:0:
69,264,26524,1,2,0:0:0:0:
69,264,26615,1,0,0:0:0:0:
69,264,26707,1,2,1:0:0:0:
25,199,26889,5,2,0:0:0:0:
53,340,27072,1,10,0:0:0:0:
144,228,27255,2,0,B|223:233|245:288|324:293,1,190.18999622731,2|2,0:0|1:0,0:0:0:0:
403,147,27804,1,10,0:0:0:0:
301,207,27987,1,10,0:0:0:0:
402,364,28170,6,0,P|419:288|428:209,1,142.642497170483,2|0,1:0|2:0,0:0:0:0:
420,219,28536,1,10,0:0:0:0:
318,127,28719,2,0,P|323:79|334:33,1,95.0949981136551,2|0,0:0|0:0,0:0:0:0:
342,29,28993,1,0,0:0:0:0:
350,24,29085,1,8,0:0:0:0:
195,183,29268,2,0,P|151:203|107:218,1,95.0949981136551,2|8,0:0|0:0,0:0:0:0:
46,4,29633,6,0,B|67:-14|106:-11|123:29|123:29|140:70|180:72|201:54,2,190.18999622731,2|8|10,1:0|0:0|0:0,0:0:0:0:
19,165,30548,1,0,1:0:0:0:
27,161,30639,1,0,1:0:0:0:
35,157,30731,1,12,0:0:0:0:
103,213,30914,1,0,0:0:0:0:
1,355,31097,6,0,P|62:306|170:298,1,190.18999622731,4|10,1:0|0:0,0:0:0:0:
359,341,31646,2,0,P|296:337|253:261,1,142.642497170483,2|0,0:0|2:0,0:0:0:0:
260,266,32011,1,2,1:0:0:0:
410,216,32194,1,10,0:0:0:0:
410,216,32560,5,2,1:0:0:0:
478,67,32743,1,2,0:0:0:0:
316,91,32926,1,10,0:0:0:0:
386,18,33109,6,0,P|400:101|414:228,1,190.18999622731,2|2,0:0|1:0,0:0:0:0:
253,49,33658,1,2,0:0:0:0:
139,169,33841,1,10,0:0:0:0:
76,130,34024,6,0,P|68:81|56:27,1,95.0949981136551,2|0,1:0|0:0,0:0:0:0:
207,201,34389,1,10,0:0:0:0:
75,206,34572,6,0,P|67:255|55:309,1,95.0949981136551,2|0,0:0|0:0,0:0:0:0:
232,131,34937,1,2,1:0:0:0:
207,201,35121,1,2,0:0:0:0:
179,71,35304,5,8,0:0:0:0:
283,191,35487,2,0,B|364:163|392:218|474:191,2,190.18999622731,2|10|2,1:0|0:0|1:0,0:0:0:0:
236,331,36402,1,0,3:0:0:0:
236,331,36493,1,0,3:0:0:0:
236,331,36585,1,10,0:0:0:0:
267,341,36676,1,8,0:0:0:0:
298,332,36767,1,8,0:0:0:0:
320,307,36859,1,8,0:0:0:0:
324,274,36950,1,2,1:0:0:0:
95,59,37499,5,0,1:0:0:0:
73,133,37682,1,8,0:0:0:0:
20,76,37865,1,0,1:0:0:0:
20,76,38414,6,0,P|116:108|211:172,1,211.184997422058,2|0,1:0|1:0,0:0:0:0:
355,133,39146,2,0,P|375:103|378:58,1,70.3949991406861,10|0,0:0|1:0,0:0:0:0:
298,75,39511,1,2,3:0:0:0:
447,141,39694,1,8,0:0:0:0:
298,75,39877,2,0,P|265:83|226:88,1,70.3949991406861,2|0,1:0|1:0,0:0:0:0:
261,242,40243,5,2,0:0:0:0:
275,165,40426,1,2,1:0:0:0:
261,242,40609,1,10,0:0:0:0:
18,147,40975,6,0,P|51:155|90:160,1,70.3949991406861,2|0,0:0|0:0,0:0:0:0:
55,314,41341,5,2,1:0:0:0:
41,237,41524,1,2,3:0:0:0:
55,314,41707,1,2,1:0:0:0:
242,358,42072,6,0,P|278:361|325:377,1,70.3949991406861,10|0,0:0|1:0,0:0:0:0:
341,227,42438,2,0,P|305:224|258:208,1,70.3949991406861,2|8,3:0|0:0,0:0:0:0:
446,317,42804,6,0,B|435:231|489:195|478:110,1,211.184997422058,2|0,1:0|1:0,0:0:0:0:
303,23,43536,1,8,0:0:0:0:
349,85,43719,1,0,1:0:0:0:
296,21,43902,1,2,0:0:0:0:
94,148,44268,6,0,P|62:161|28:172,2,70.3949991406861,2|0|0,1:0|3:0|0:0,0:0:0:0:
279,113,44999,1,10,0:0:0:0:
277,129,45182,1,0,1:0:0:0:
189,209,45365,1,10,0:0:0:0:
215,275,45548,1,8,0:0:0:0:
342,312,45731,5,2,1:0:0:0:
412,321,45914,1,2,1:0:0:0:
421,250,46097,1,2,0:0:0:0:
312,163,46280,1,2,1:0:0:0:
317,170,46463,2,0,P|328:201|350:244,1,70.3949991406861,10|0,0:0|1:0,0:0:0:0:
71,302,46828,5,2,0:0:0:0:
137,278,47011,1,2,1:0:0:0:
70,295,47194,1,2,1:0:0:0:
136,174,47377,1,2,3:0:0:0:
126,169,47560,2,0,P|86:166|39:156,1,70.3949991406861,2|0,0:0|1:0,0:0:0:0:
249,39,47926,5,10,0:0:0:0:
236,106,48109,1,2,1:0:0:0:
343,184,48292,5,10,0:0:0:0:
178,59,48566,1,8,0:0:0:0:
178,59,48658,2,0,L|129:49,1,35.197499570343,14|0,1:2|2:0,0:0:0:0:
168,61,50121,6,0,L|161:14,2,41.9900002562866,2|2|6,3:0|3:0|3:2,0:0:0:0:
79,165,51036,5,8,0:3:0:0:
75,202,51127,1,8,0:3:0:0:
72,240,51219,1,12,1:2:0:0:
72,240,51585,5,2,1:0:0:0:
251,135,51768,1,2,1:0:0:0:
80,38,51950,1,10,0:0:0:0:
138,133,52133,6,0,B|110:214|192:241|165:322,1,198.217493950882,2|0,1:0|2:0,0:0:0:0:
96,355,52499,2,0,P|88:323|99:284,1,66.0724979836274,2|0,1:0|2:0,0:0:0:0:
212,170,52682,1,8,0:0:0:0:
259,237,52865,5,2,1:0:0:0:
271,233,52957,1,0,1:0:0:0:
283,230,53048,1,2,1:0:0:0:
454,175,53231,1,2,0:0:0:0:
388,136,53414,5,10,0:0:0:0:
313,303,53597,2,0,P|250:315|183:336,1,132.144995967255,2|0,1:0|0:0,0:0:0:0:
181,347,53871,1,0,0:0:0:0:
176,359,53963,1,2,1:0:0:0:
317,294,54146,6,0,P|324:267|327:233,1,47.5474990568276,10|0,0:0|2:0,0:0:0:0:
511,283,54328,2,0,P|504:310|501:344,1,47.5474990568276,10|0,0:0|2:0,0:0:0:0:
393,383,54511,6,0,P|415:288|436:177,1,198.217493950882,2|0,1:0|2:0,0:0:0:0:
426,182,54877,1,10,0:0:0:0:
279,60,55060,2,0,B|264:2|357:-21|411:63|334:149|264:133,1,264.28999193451,2|2,1:0|1:0,0:0:0:0:
131,33,55609,1,10,0:0:0:0:
35,150,55792,1,2,1:0:0:0:
147,302,55975,6,0,P|137:168|122:32,1,264.28999193451,2|8,1:0|0:0,0:0:0:0:
23,151,56524,1,2,1:0:0:0:
45,222,56707,1,8,0:3:0:0:
57,224,56798,1,8,0:3:0:0:
69,228,56889,1,8,1:3:0:0:
203,356,57072,1,12,1:2:0:0:
203,356,57438,5,2,1:0:0:0:
271,378,57621,1,2,1:0:0:0:
316,321,57804,1,2,0:0:0:0:
225,188,57987,2,0,P|237:240|246:299,1,107.445000901714,2|8,1:0|0:0,0:0:0:0:
364,148,58353,5,2,1:0:0:0:
291,127,58536,1,2,0:0:0:0:
369,142,58719,1,2,1:0:0:0:
285,123,58902,2,0,P|273:71|264:12,1,107.445000901714,2|10,1:0|0:0,0:0:0:0:
198,82,59268,1,2,1:0:0:0:
373,138,59450,2,0,P|385:190|394:249,1,107.445000901714,0|8,1:0|0:0,0:0:0:0:
393,243,59816,1,0,1:0:0:0:
270,351,59999,5,2,3:0:0:0:
270,351,60091,1,0,3:0:0:0:
270,351,60182,1,8,0:0:0:0:
217,339,60273,1,8,0:0:0:0:
164,328,60364,1,2,1:0:0:0:
100,197,60548,1,0,1:0:0:0:
239,203,60731,5,8,0:0:0:0:
75,294,60914,1,0,1:0:0:0:
28,232,61097,6,0,B|55:149|-27:121|0:38,1,198.217493950882,2|0,0:0|2:0,0:0:0:0:
55,0,61463,2,0,B|92:-11|121:28|121:28|89:5|52:17,1,132.144995967255,8|0,0:0|0:0,0:0:0:0:
79,91,61737,1,0,0:0:0:0:
90,97,61828,1,2,1:0:0:0:
256,25,62011,1,8,0:0:0:0:
228,219,62194,1,0,1:0:0:0:
188,116,62377,1,0,1:0:0:0:
416,30,62560,6,0,L|487:44,1,66.0724979836274,14|0,0:0|2:0,0:0:0:0:
312,79,62743,1,2,1:0:0:0:
475,227,62926,6,0,P|483:267|443:243,1,105.592498711029,12|0,0:0|2:0,0:0:0:0:
419,173,63292,5,2,1:0:0:0:
277,288,63475,1,2,1:0:0:0:
164,145,63658,1,10,0:0:0:0:
107,190,63841,6,0,B|100:240|123:269|116:320,1,132.144995967255,2|0,1:0|0:0,0:0:0:0:
109,332,64115,1,0,0:0:0:0:
100,342,64207,1,2,1:0:0:0:
191,224,64389,1,8,0:0:0:0:
22,132,64572,5,2,1:0:0:0:
65,115,64664,1,0,1:0:0:0:
107,97,64755,1,2,1:0:0:0:
26,215,64938,5,0,0:0:0:0:
38,45,65121,1,8,0:0:0:0:
183,135,65304,1,2,1:0:0:0:
251,90,65487,5,0,0:0:0:0:
254,77,65578,1,0,0:0:0:0:
257,64,65670,1,2,1:0:0:0:
371,214,65853,6,0,P|341:220|308:231,1,47.5474990568276,10|0,0:0|2:0,0:0:0:0:
417,116,66036,2,0,P|446:109|480:99,1,47.5474990568276,10|0,0:0|2:0,0:0:0:0:
371,26,66219,6,0,P|394:152|413:297,1,264.28999193451,2|10,1:0|0:0,0:0:0:0:
180,322,66768,2,0,B|122:335|59:265|103:196|179:215|166:262,1,198.217493950882,2|0,1:0|2:0,0:0:0:0:
175,250,67133,2,0,P|161:226|121:226,1,66.0724979836274,2|0,1:0|2:0,0:0:0:0:
73,289,67316,1,8,0:0:0:0:
188,151,67499,1,2,1:0:0:0:
71,78,67682,6,0,B|96:48|151:44|182:97|182:97|213:150|268:146|293:117,1,264.28999193451,2|8,1:0|0:0,0:0:0:0:
205,158,68231,1,0,1:0:0:0:
383,118,68414,2,0,B|386:80|343:61|343:61|370:86|367:124,1,132.144995967255,10|0,0:0|1:0,0:0:0:0:
330,188,68688,1,8,0:0:0:0:
338,198,68780,2,0,P|363:203|403:220,1,47.5474990568276,4|0,1:0|2:0,0:0:0:0:
340,357,68963,2,0,P|316:352|294:344,1,47.5474990568276,12|0,1:2|2:0,0:0:0:0:
341,276,69146,6,0,P|396:289|469:309,2,107.445000901714,2|2|2,1:0|1:0|0:0,0:0:0:0:
146,228,69694,2,0,P|90:214|18:195,1,107.445000901714,2|8,1:0|0:0,0:0:0:0:
244,31,70060,5,2,1:0:0:0:
257,105,70243,1,2,0:0:0:0:
186,79,70426,5,2,0:0:0:0:
319,57,70609,2,0,P|370:71|429:82,1,107.445000901714,2|10,1:0|0:0,0:0:0:0:
387,0,70975,1,2,1:0:0:0:
469,173,71158,2,0,P|418:159|359:148,1,107.445000901714,2|8,1:0|0:0,0:0:0:0:
364,148,71524,1,0,1:0:0:0:
239,255,71707,1,10,0:0:0:0:
264,261,71798,1,8,0:0:0:0:
289,252,71889,1,10,0:0:0:0:
304,230,71981,1,8,0:0:0:0:
305,204,72072,1,2,1:0:0:0:
232,167,72255,5,0,1:0:0:0:
146,284,72438,1,8,0:0:0:0:
78,256,72621,6,0,P|63:171|44:77,1,161.167501352571,2|0,1:0|2:0,0:0:0:0:
52,78,72987,6,0,P|63:132|73:188,1,107.445000901714,0|8,1:0|0:0,0:0:0:0:
73,183,73353,1,0,0:0:0:0:
192,63,73536,5,2,1:0:0:0:
290,83,73719,1,8,0:0:0:0:
388,103,73902,1,0,1:0:0:0:
359,12,74085,5,0,1:0:0:0:
216,164,74268,6,0,P|223:194|228:225,1,53.7225004508572,14|0,0:0|2:0,0:0:0:0:
306,174,74450,5,0,1:0:0:0:
139,214,74633,2,0,P|105:207|137:210,1,116.089998228607,12|2,0:0|1:0,0:0:0:0:
427,67,76463,5,0,1:0:0:0:
424,77,76646,1,0,1:0:0:0:
85,67,77926,5,0,1:0:0:0:
88,77,78109,1,0,1:0:0:0:
85,317,79389,5,0,1:0:0:0:
88,307,79572,1,0,1:0:0:0:
427,317,80121,5,0,1:0:0:0:
424,307,80304,1,0,1:0:0:0:
211,154,80853,5,0,1:0:0:0:
200,148,81036,1,0,1:0:0:0:
301,230,82316,5,0,1:0:0:0:
312,236,82499,1,0,1:0:0:0:
301,154,83780,5,0,1:0:0:0:
312,148,83963,1,0,1:0:0:0:
211,230,85243,5,0,1:0:0:0:
200,236,85426,1,0,1:0:0:0:
256,61,85975,5,0,1:0:0:0:
256,49,86158,1,0,1:0:0:0:
83,321,86707,6,0,P|58:315|25:313,1,58.0449991143036,0|0,1:0|1:0,0:0:0:0:
39,230,87072,2,0,P|64:236|97:238,1,58.0449991143036
217,297,87438,6,0,P|192:291|159:289,1,58.0449991143036
173,206,87803,2,0,P|198:212|231:214,1,58.0449991143036
106,155,88170,5,0,1:0:0:0:
103,143,88353,1,0,1:0:0:0:
406,229,89633,5,0,1:0:0:0:
409,241,89816,1,0,1:0:0:0:
212,47,91097,5,0,1:0:0:0:
209,59,91280,1,0,1:0:0:0:
233,131,91463,1,0,0:0:0:0:
297,82,91646,2,0,L|288:49,2,29.0224995571518,0|0|0,0:0|0:0|1:0,0:0:0:0:
233,131,92011,1,0,1:0:0:0:
427,269,92560,5,0,1:0:0:0:
438,265,92743,1,0,1:0:0:0:
85,269,94024,5,0,1:0:0:0:
74,265,94207,1,0,1:0:0:0:
85,115,95487,5,0,1:0:0:0:
74,119,95670,1,0,1:0:0:0:
427,115,96951,5,0,1:0:0:0:
438,119,97134,1,0,1:0:0:0:
370,163,97316,1,0,0:0:0:0:
314,113,97499,2,0,L|323:71,2,29.0224995571518,0|0|0,0:0|0:0|1:0,0:0:0:0:
370,163,97865,1,0,1:0:0:0:
216,242,98231,1,8,3:0:0:0:
89,115,98414,6,0,P|153:132|153:201,1,132.144995967255,14|0,0:0|0:0,0:0:0:0:
452,354,99511,5,0,3:0:0:0:
452,354,99877,6,0,P|388:337|388:268,1,132.144995967255,14|0,0:0|0:0,0:0:0:0:
216,31,100609,5,0,3:0:0:0:
283,55,100792,1,0,3:0:0:0:
207,165,100975,1,2,3:2:0:0:
355,209,101158,1,10,0:0:0:0:
161,96,101341,6,0,P|100:111|20:126,1,132.144995967255,14|0,1:2|0:0,0:0:0:0:
32,115,101615,1,0,3:0:0:0:
32,115,101707,2,0,L|82:106,1,41.3724980429879,2|0,3:2|2:0,0:0:0:0:
133,199,101889,1,2,3:2:0:0:
120,196,101981,1,0,3:0:0:0:
108,193,102072,1,8,0:0:0:0:
41,310,102255,1,2,3:2:0:0:
67,304,102347,1,0,3:0:0:0:
91,298,102438,1,8,0:0:0:0:
306,265,102621,2,0,P|302:285|299:305,1,41.3724980429879,10|0,0:0|2:0,0:0:0:0:
223,328,102804,6,0,P|233:272|241:204,1,107.445000901714,10|0,0:0|1:0,0:0:0:0:
423,61,103170,1,8,0:0:0:0:
337,134,103353,1,0,1:0:0:0:
232,108,103536,1,10,0:0:0:0:
339,142,103719,1,0,1:0:0:0:
382,301,103902,5,0,1:0:0:0:
382,301,103993,1,0,3:0:0:0:
382,301,104085,1,8,0:0:0:0:
371,259,104176,1,8,0:0:0:0:
361,217,104268,2,0,B|336:197|292:203|275:249|275:249|258:296|214:302|189:282,1,214.890001803429,4|10,1:2|0:0,0:0:0:0:
64,154,104816,2,0,P|75:102|85:44,1,107.445000901714,2|0,0:0|0:0,0:0:0:0:
0,83,105182,1,2,1:0:0:0:
155,117,105365,6,0,P|188:107|221:100,1,68.5425016734009,8|0,0:0|2:0,0:0:0:0:
235,106,105731,5,2,1:0:0:0:
382,144,105914,1,2,0:0:0:0:
341,0,106097,1,10,0:0:0:0:
319,85,106280,6,0,P|310:138|296:305,1,214.890001803429,2|2,0:0|1:0,0:0:0:0:
219,194,106828,1,10,0:0:0:0:
374,273,107011,1,2,0:0:0:0:
219,194,107194,2,0,B|152:171|129:238|62:216,1,161.167501352571,2|0,1:0|2:0,0:0:0:0:
9,157,107560,2,0,P|35:149|66:133,1,53.7225004508572,10|0,0:0|2:0,0:0:0:0:
194,271,107743,2,0,B|210:303|178:335|178:335|194:303|178:271,1,107.445000901714,2|0,0:0|0:0,0:0:0:0:
132,194,108109,1,2,1:0:0:0:
251,100,108292,2,0,P|298:109|373:122,1,107.445000901714,8|0,0:0|0:0,0:0:0:0:
356,119,108566,5,0,0:0:0:0:
356,119,108658,2,0,P|303:142|319:214,1,143.260001202286,2|8,1:0|0:0,0:0:0:0:
475,241,109024,2,0,P|443:218|401:230,1,71.6300006011429,2|8,0:0|0:0,0:0:0:0:
195,337,109389,6,0,P|188:304|177:264,1,53.7225004508572,10|0,0:0|2:0,0:0:0:0:
269,236,109572,2,0,P|275:203|287:163,1,41.3724980429879,0|8,1:0|0:3,0:0:0:0:
128,150,109755,6,0,P|121:118|110:80,1,66.6900016281739,12|2,0:3|1:0,0:0:0:0:
111,85,110670,5,0,1:0:0:0:
183,57,110853,1,8,0:0:0:0:
253,24,111036,1,0,1:0:0:0:
253,24,111585,6,0,B|276:3|321:6|340:52|340:52|359:98|403:101|427:80,1,211.184997422058,2|0,1:0|1:0,0:0:0:0:
270,108,112316,2,0,P|248:131|258:171,1,70.3949991406861,10|0,0:0|1:0,0:0:0:0:
368,223,112682,1,2,3:0:0:0:
277,101,112865,1,8,0:0:0:0:
368,223,113048,2,0,P|401:228|436:240,1,70.3949991406861,2|0,1:0|1:0,0:0:0:0:
324,370,113414,5,2,0:0:0:0:
311,293,113597,1,2,1:0:0:0:
334,372,113780,1,10,0:0:0:0:
144,223,114146,6,0,P|110:228|75:240,1,70.3949991406861,2|0,0:0|0:0,0:0:0:0:
188,370,114512,5,2,1:0:0:0:
201,293,114695,1,2,3:0:0:0:
178,372,114878,1,2,1:0:0:0:
271,117,115243,6,0,P|256:80|262:43,1,70.3949991406861,10|0,0:0|1:0,0:0:0:0:
80,71,115609,2,0,P|95:108|89:145,1,70.3949991406861,2|8,3:0|0:0,0:0:0:0:
214,207,115975,6,0,P|176:113|187:3,1,211.184997422058,2|0,1:0|1:0,0:0:0:0:
298,124,116707,1,8,0:0:0:0:
370,97,116890,1,0,1:0:0:0:
291,116,117073,1,2,0:0:0:0:
466,258,117438,6,0,P|494:225|487:190,2,70.3949991406861,2|0|0,1:0|3:0|0:0,0:0:0:0:
280,294,118170,1,10,0:0:0:0:
278,310,118353,1,0,1:0:0:0:
224,243,118536,1,10,0:0:0:0:
304,221,118719,1,8,0:0:0:0:
195,323,118902,5,2,1:0:0:0:
118,308,119085,1,2,1:0:0:0:
197,332,119268,1,2,0:0:0:0:
62,250,119451,1,2,1:0:0:0:
121,203,119633,2,0,P|125:167|135:114,1,70.3949991406861,10|0,0:0|1:0,0:0:0:0:
276,46,119999,5,2,0:0:0:0:
353,61,120182,1,2,1:0:0:0:
274,37,120365,1,2,1:0:0:0:
409,119,120548,1,2,3:0:0:0:
350,166,120730,2,0,P|345:201|336:255,1,70.3949991406861,2|0,0:0|1:0,0:0:0:0:
237,367,121097,5,10,0:0:0:0:
210,298,121280,1,2,1:0:0:0:
286,310,121463,5,10,0:0:0:0:
112,352,121737,1,8,0:0:0:0:
112,352,121829,2,0,L|161:362,1,35.197499570343,12|0,1:2|2:0,0:0:0:0:
30,34,124755,6,0,P|140:64|256:103,1,233.415005698609,2|0,1:0|0:0,0:0:0:0:
477,174,126219,2,0,P|429:160|380:144,1,100.035002442261,2|0,1:0|0:0,0:0:0:0:
270,253,127133,2,0,P|275:231|284:210,2,33.3450008140869
162,323,127682,6,0,P|126:331|94:341,1,66.6900016281739,2|0,1:0|0:0,0:0:0:0:
73,236,128231,2,0,P|108:227|141:218,1,66.6900016281739
27,304,128780,1,0,0:0:0:0:
178,147,129146,6,0,P|169:111|160:79,1,66.6900016281739,2|0,1:0|0:0,0:0:0:0:
265,58,129695,2,0,P|273:93|283:126,1,66.6900016281739
197,12,130244,1,0,0:0:0:0:
358,144,130609,6,0,L|409:127,6,45.6950011156006,2|0|0|0|0|0|0,1:0|0:0|0:0|0:0|0:0|0:0|0:0,0:0:0:0:
317,233,131889,1,0,0:0:0:0:
328,237,131981,1,0,0:0:0:0:
340,241,132072,2,0,L|398:223,5,58.0449991143036,2|0|0|0|0|0,1:0|0:0|0:0|0:0|0:0|0:0,0:0:0:0:
395,338,133170,1,2,0:0:0:0:
388,315,133353,1,2,0:0:0:0:
194,337,133536,6,0,P|264:354|334:387,1,140.789998281372,10|0,0:0|0:0,0:0:0:0:
111,370,134085,2,0,P|96:331|101:292,1,70.3949991406861,2|0,0:0|0:0,0:0:0:0:
175,108,134450,2,0,P|185:155|165:261,1,140.789998281372,2|0,0:0|0:0,0:0:0:0:
13,147,134999,6,0,P|53:156|99:174,1,82.7449960859758,2|0,1:0|0:0,0:0:0:0:
92,170,135365,1,2,0:0:0:0:
137,28,135548,2,0,P|96:18|51:1,1,82.7449960859758,2|0,0:0|1:0,0:0:0:0:
238,138,135914,1,2,3:2:0:0:
238,138,136005,1,0,3:0:0:0:
238,138,136097,1,10,0:0:0:0:
269,128,136188,1,8,0:0:0:0:
301,118,136279,1,8,0:0:0:0:
333,109,136371,1,8,0:0:0:0:
365,100,136463,2,0,P|372:67|382:34,1,59.8975014166432,6|0,1:0|2:0,0:0:0:0:
319,208,136646,6,0,P|379:219|419:268,1,119.795002833286,2|8,1:0|0:0,0:0:0:0:
161,194,137011,2,0,P|154:160|144:127,1,59.8975014166432,2|0,1:0|2:0,0:0:0:0:
64,120,137194,2,0,P|76:188|96:242,1,119.795002833286,2|0,0:0|1:0,0:0:0:0:
261,286,137560,2,0,P|289:293|320:305,1,59.8975014166432,10|0,0:0|2:0,0:0:0:0:
315,226,137743,1,2,1:0:0:0:
210,346,137926,1,2,1:0:0:0:
161,194,138109,1,2,1:0:0:0:
229,262,138292,1,10,0:0:0:0:
229,262,138475,1,2,1:0:0:0:
395,161,138658,2,0,P|399:130|407:102,1,59.8975014166432,2|0,0:0|2:0,0:0:0:0:
332,53,138841,2,0,P|324:113|305:169,1,119.795002833286,2|8,1:0|0:0,0:0:0:0:
409,21,139207,1,10,0:0:0:0:
242,101,139389,6,0,B|164:75|138:126|61:101,1,179.69250424993,6|0,1:0|2:0,0:0:0:0:
60,94,139755,2,0,P|89:88|125:79,1,59.8975014166432,10|0,0:0|2:0,0:0:0:0:
195,181,139938,2,0,P|134:196|66:217,1,119.795002833286,2|0,1:0|0:0,0:0:0:0:
187,361,140304,1,2,1:0:0:0:
161,270,140487,1,10,0:0:0:0:
182,369,140670,1,0,1:0:0:0:
318,262,140853,6,0,P|324:230|335:196,1,59.8975014166432,2|0,1:0|2:0,0:0:0:0:
255,295,141036,1,2,1:0:0:0:
260,149,141219,6,0,P|253:180|243:215,1,59.8975014166432,10|0,0:0|2:0,0:0:0:0:
323,116,141402,5,2,1:0:0:0:
161,37,141585,1,10,0:0:0:0:
256,61,141768,5,4,0:3:0:0:
234,71,141950,1,12,0:3:0:0:
364,16,142133,5,8,0:0:0:0:
429,50,142316,2,0,P|434:79|443:112,1,59.8975014166432,6|2,1:0|0:0,0:0:0:0:
472,255,142499,1,2,1:0:0:0:
485,235,142591,1,2,0:0:0:0:
472,214,142682,2,0,P|439:207|411:197,1,59.8975014166432,10|2,0:0|0:0,0:0:0:0:
358,311,142865,2,0,P|325:317|297:328,1,59.8975014166432,2|2,1:0|0:0,0:0:0:0:
315,164,143048,2,0,P|282:157|254:147,1,59.8975014166432,2|2,0:0|0:0,0:0:0:0:
201,261,143231,2,0,P|168:267|140:278,1,59.8975014166432,2|2,1:0|0:0,0:0:0:0:
8,330,143414,5,10,0:0:0:0:
12,312,143505,1,2,0:0:0:0:
15,294,143597,1,2,1:0:0:0:
18,276,143688,1,2,0:0:0:0:
22,258,143780,1,2,1:0:0:0:
108,101,143963,1,2,1:0:0:0:
101,110,144054,2,0,P|70:122|34:122,1,59.8975014166432,2|10,0:0|0:0,0:0:0:0:
87,199,144237,1,2,0:0:0:0:
98,196,144328,2,0,P|165:172|230:168,1,119.795002833286,2|2,1:0|0:0,0:0:0:0:
354,32,144694,2,0,B|336:110|359:135|334:211,1,179.69250424993,2|0,1:0|2:0,0:0:0:0:
325,211,145060,2,0,P|335:183|340:147,1,59.8975014166432,8|0,0:0|2:0,0:0:0:0:
269,79,145243,5,6,1:0:0:0:
418,229,145426,2,0,B|356:198|286:240|291:304|210:327,1,239.590005666573,2|0,0:0|1:0,0:0:0:0:
53,239,145975,1,2,0:0:0:0:
168,78,146158,1,2,1:0:0:0:
47,232,146341,2,0,P|40:199|30:163,1,59.8975014166432,10|0,0:0|2:0,0:0:0:0:
178,80,146524,2,0,P|185:113|195:149,1,59.8975014166432,2|0,1:0|2:0,0:0:0:0:
150,301,146707,6,0,P|128:212|99:99,1,179.69250424993,14|0,0:0|2:0,0:0:0:0:
97,123,147072,1,2,1:0:0:0:
259,189,147255,1,14,0:0:0:0:
442,39,148170,6,0,L|430:85,2,41.9900002562866,2|2|6,3:0|3:0|3:2,0:0:0:0:
276,53,149085,5,8,0:3:0:0:
312,47,149176,1,8,0:3:0:0:
352,44,149268,1,12,1:2:0:0:
352,44,149633,6,0,B|329:26|288:31|273:74|273:74|258:117|218:121|195:104,1,198.217493950882,2|0,1:0|2:0,0:0:0:0:
148,46,149999,1,10,0:0:0:0:
269,178,150182,2,0,B|285:211|252:245|252:245|269:211|252:178,1,132.144995967255,2|0,1:0|0:0,0:0:0:0:
63,102,150548,5,2,1:0:0:0:
184,208,150731,1,10,0:0:0:0:
30,268,150914,1,2,1:0:0:0:
90,195,151097,5,2,1:0:0:0:
188,372,151280,2,0,P|195:342|207:307,1,66.0724979836274,2|0,0:0|2:0,0:0:0:0:
118,323,151463,5,10,0:0:0:0:
275,367,151646,2,0,P|339:346|423:328,1,132.144995967255,2|0,1:0|0:0,0:0:0:0:
413,339,151920,1,0,0:0:0:0:
424,346,152011,1,2,1:0:0:0:
497,118,152194,6,0,P|464:114|425:101,1,47.5474990568276,10|0,0:0|2:0,0:0:0:0:
404,253,152377,2,0,P|436:259|474:274,1,47.5474990568276,10|0,0:0|2:0,0:0:0:0:
495,200,152560,6,0,P|393:174|271:152,1,198.217493950882,2|0,1:0|2:0,0:0:0:0:
239,194,152926,1,10,0:0:0:0:
179,71,153109,2,0,P|201:164|213:278,1,198.217493950882,2|0,1:0|2:0,0:0:0:0:
159,313,153475,5,2,1:0:0:0:
58,188,153658,1,10,0:0:0:0:
161,322,153841,1,2,1:0:0:0:
275,187,154024,6,0,B|305:162|360:169|380:227|380:227|400:284|453:289|484:267,1,264.28999193451,2|8,1:0|0:0,0:0:0:0:
390,89,154573,1,0,1:0:0:0:
433,24,154756,1,8,0:3:0:0:
445,20,154847,1,8,0:3:0:0:
457,18,154938,1,8,0:3:0:0:
354,157,155121,1,12,0:0:0:0:
172,29,155487,5,2,1:0:0:0:
99,50,155670,1,2,1:0:0:0:
179,36,155853,1,2,0:0:0:0:
44,124,156036,2,0,P|32:70|11:12,1,107.445000901714,2|8,1:0|0:0,0:0:0:0:
134,161,156402,5,2,1:0:0:0:
207,182,156585,1,2,0:0:0:0:
127,168,156768,1,2,1:0:0:0:
265,254,156950,2,0,P|276:200|298:142,1,107.445000901714,2|10,1:0|0:0,0:0:0:0:
186,258,157317,1,2,1:0:0:0:
356,216,157499,2,0,P|342:268|335:321,1,107.445000901714,2|8,1:0|0:0,0:0:0:0:
284,145,157865,1,0,1:0:0:0:
432,292,158048,5,2,3:2:0:0:
432,292,158140,1,0,3:0:0:0:
432,292,158231,1,8,0:0:0:0:
485,280,158322,1,8,0:0:0:0:
508,231,158413,1,2,1:0:0:0:
433,145,158597,1,0,1:0:0:0:
512,90,158780,5,8,0:0:0:0:
343,206,158963,1,0,1:0:0:0:
276,173,159146,6,0,B|256:148|262:104|308:88|308:88|354:72|358:29|340:4,1,198.217493950882,2|0,0:0|2:0,0:0:0:0:
347,0,159511,2,0,P|348:68|291:97,1,132.144995967255,8|0,0:0|1:0,0:0:0:0:
100,21,159877,1,2,1:0:0:0:
217,137,160060,1,8,0:0:0:0:
10,223,160243,1,0,1:0:0:0:
89,134,160426,1,0,1:0:0:0:
230,313,160609,6,0,L|165:325,1,66.0724979836274,14|0,0:0|2:0,0:0:0:0:
264,239,160792,1,2,1:0:0:0:
453,344,160975,6,0,B|425:332|418:303|418:303|425:332|406:355,1,105.592498711029,12|0,0:0|2:0,0:0:0:0:
346,312,161341,5,2,1:0:0:0:
504,203,161524,1,2,1:0:0:0:
332,123,161707,1,10,0:0:0:0:
393,214,161889,6,0,P|409:145|424:61,1,132.144995967255,2|0,1:0|0:0,0:0:0:0:
416,71,162164,1,0,0:0:0:0:
412,58,162255,1,2,1:0:0:0:
257,172,162438,1,8,0:0:0:0:
126,43,162621,5,2,1:0:0:0:
171,36,162713,1,0,1:0:0:0:
198,72,162804,1,2,1:0:0:0:
80,238,162987,5,2,0:0:0:0:
0,52,163170,1,10,0:0:0:0:
90,244,163353,1,2,1:0:0:0:
155,194,163536,5,0,0:0:0:0:
168,197,163628,1,0,0:0:0:0:
181,200,163719,1,2,1:0:0:0:
384,72,163902,6,0,P|390:94|394:118,1,47.5474990568276,10|0,0:0|2:0,0:0:0:0:
246,147,164085,2,0,P|239:124|235:100,1,47.5474990568276,10|0,0:0|2:0,0:0:0:0:
301,22,164268,6,0,P|322:152|351:281,1,264.28999193451,2|10,1:0|0:0,0:0:0:0:
117,329,164817,2,0,B|104:271|174:208|243:252|224:328|177:315,1,198.217493950882,2|0,1:0|2:0,0:0:0:0:
193,315,165182,2,0,P|159:307|121:292,1,66.0724979836274,2|0,1:0|2:0,0:0:0:0:
58,247,165365,1,8,0:0:0:0:
241,376,165548,1,2,1:0:0:0:
49,241,165731,6,0,P|35:138|16:38,1,198.217493950882,2|0,1:0|2:0,0:0:0:0:
23,40,166097,2,0,P|35:100|47:175,1,132.144995967255,8|0,0:0|1:0,0:0:0:0:
247,39,166463,1,8,0:3:0:0:
265,44,166554,1,8,0:3:0:0:
284,49,166646,1,8,0:3:0:0:
122,112,166828,1,12,0:0:0:0:
456,348,167194,6,0,P|488:295|461:256,2,107.445000901714,2|2|2,1:0|1:0|0:0,0:0:0:0:
293,237,167743,2,0,P|261:289|287:329,1,107.445000901714,2|8,1:0|0:0,0:0:0:0:
395,177,168109,5,2,1:0:0:0:
411,104,168292,1,2,0:0:0:0:
466,156,168475,5,2,1:0:0:0:
333,120,168658,2,0,P|280:129|228:144,1,107.445000901714,2|10,1:0|0:0,0:0:0:0:
296,226,169024,1,2,1:0:0:0:
126,112,169207,2,0,P|135:164|150:216,1,107.445000901714,2|8,1:0|0:0,0:0:0:0:
222,146,169573,1,2,1:0:0:0:
76,273,169756,1,10,0:0:0:0:
51,283,169847,1,8,0:0:0:0:
25,279,169939,1,10,0:0:0:0:
6,260,170030,1,8,0:0:0:0:
3,234,170121,1,2,1:0:0:0:
64,192,170304,5,0,1:0:0:0:
159,357,170487,1,8,0:0:0:0:
277,205,170670,1,0,1:0:0:0:
200,181,170853,6,0,B|200:247|244:269|244:335,1,161.167501352571,2|0,0:0|2:0,0:0:0:0:
236,341,171219,1,8,0:0:0:0:
384,62,171585,5,2,1:0:0:0:
210,172,171768,1,8,0:0:0:0:
159,108,171950,5,2,1:0:0:0:
318,152,172133,1,0,1:0:0:0:
78,85,172316,6,0,P|71:42|60:-5,1,82.7449960859758,14|0,0:0|1:0,0:0:0:0:
393,180,172682,6,0,P|399:222|411:270,1,91.3900022312012,14|2,0:0|1:0,0:0:0:0:
