osu file format v14

[General]
AudioFilename: audio.mp3
AudioLeadIn: 0
PreviewTime: 1737
Countdown: 0
SampleSet: Soft
StackLeniency: 0.7
Mode: 0
LetterboxInBreaks: 0
WidescreenStoryboard: 1

[Editor]
DistanceSpacing: 0.9
BeatDivisor: 4
GridSize: 32
TimelineZoom: 1.6

[Metadata]
Title:Nine Point Eight
TitleUnicode:Nine Point Eight
Artist:Mili
ArtistUnicode:Mili
Creator:NeKroMan4ik
Version:Normal
Source:DEEMO
Tags:9.8 english rock fa featured artist video game momocashew cassie wei projectmili yamato kasai hamo project mag mell
BeatmapID:3976306
BeatmapSetID:1914266

[Difficulty]
HPDrainRate:3
CircleSize:3.5
OverallDifficulty:4
ApproachRate:5
SliderMultiplier:1.1
SliderTickRate:1

[Events]
//Background and Video events
0,0,"103486538_p0.jpg",0,0
//Break Periods
2,78126,96950
2,124755,129409
//Storyboard Layer 0 (Background)
//Storyboard Layer 1 (Fail)
//Storyboard Layer 2 (Pass)
//Storyboard Layer 3 (Foreground)
//Storyboard Layer 4 (Overlay)
//Storyboard Sound Samples

[TimingPoints]
1829,365.853658536585,4,2,0,70,1,0
16463,-100,4,2,0,70,0,0
16828,-100,4,2,0,70,0,0
17926,-100,4,2,0,70,0,0
18292,-100,4,2,0,70,0,0
25243,-111.111111111111,4,2,0,60,0,0
36950,-111.111111111111,4,2,0,50,0,0
50121,-111.111111111111,4,2,0,60,0,0
51585,-100,4,2,0,75,0,0
57438,-100,4,2,0,65,0,0
60365,-100,4,2,0,70,0,0
63292,-100,4,2,0,75,0,0
69146,-100,4,2,0,65,0,0
72072,-100,4,2,0,70,0,0
77926,-100,4,2,0,20,0,0
98414,-111.111111111111,4,2,0,75,0,0
99511,-111.111111111111,4,2,0,75,0,0
99877,-111.111111111111,4,2,0,75,0,0
101341,-111.111111111111,4,2,0,75,0,0
104268,-100,4,2,0,65,0,0
106737,-100,4,2,0,5,0,0
106828,-100,4,2,0,65,0,0
106920,-100,4,2,0,5,0,0
107011,-100,4,2,0,65,0,0
110121,-111.111111111111,4,2,0,55,0,0
130609,-133.333333333333,4,2,0,30,0,0
132072,-133.333333333333,4,2,0,30,0,0
133536,-125,4,2,0,30,0,0
134999,-111.111111111111,4,2,0,50,0,0
135548,-111.111111111111,4,2,0,50,0,0
136463,-100,4,2,0,80,0,0
139389,-100,4,2,0,80,0,0
139938,-100,4,2,0,80,0,0
142316,-100,4,2,0,80,0,0
145243,-100,4,2,0,80,0,0
146707,-100,4,2,0,80,0,0
147255,-111.111111111111,4,2,0,55,0,0
149268,-111.111111111111,4,2,0,60,0,0
149633,-100,4,2,0,80,0,0
155120,-100,4,2,0,80,0,0
155486,-100,4,2,0,80,0,0
158413,-100,4,2,0,80,0,0
161340,-100,4,2,0,80,0,0
163810,-100,4,2,0,5,0,0
163902,-100,4,2,0,80,0,0
163993,-100,4,2,0,5,0,0
164085,-100,4,2,0,80,0,0
167194,-100,4,2,0,70,0,0
170120,-100,4,2,0,80,0,0
175974,-100,4,2,0,20,0,0

[Colours]
Combo1 : 233,188,139
Combo2 : 245,228,203

[HitObjects]
504,188,13536,6,0,P|462:153|408:150,1,110,4|8,1:0|0:0,0:0:0:0:
371,183,14085,1,2,0:0:0:0:
309,260,14450,1,0,1:0:0:0:
309,260,14633,2,0,L|321:321,1,55,8|0,0:0|0:0,0:0:0:0:
286,350,14999,2,0,L|158:334,1,110,2|10,1:2|0:0,0:0:0:0:
93,282,15731,2,0,L|82:228,1,55,2|2,0:0|1:2,0:0:0:0:
50,190,16097,2,0,P|56:161|60:136,1,55,8|2,0:0|0:0,0:0:0:0:
43,89,16463,6,0,P|88:81|151:60,1,110,6|8,1:2|0:0,0:0:0:0:
181,23,17011,1,0,0:0:0:0:
263,86,17377,1,2,1:2:0:0:
263,86,17560,2,0,L|251:147,1,55,8|0,0:0|0:0,0:0:0:0:
286,176,17926,2,0,P|337:158|391:147,1,110,2|10,1:2|0:0,0:0:0:0:
473,204,18658,2,0,L|464:268,1,55,2|2,0:0|1:2,0:0:0:0:
488,313,19024,1,8,1:2:0:0:
488,313,19207,1,8,0:0:0:0:
488,313,19389,6,0,P|442:355|394:356,1,110,4|8,1:2|0:0,0:0:0:0:
353,381,19938,2,0,P|297:369|244:362,1,110,2|2,0:0|1:2,0:0:0:0:
212,324,20487,1,8,0:0:0:0:
271,245,20853,2,0,B|277:233|277:233|254:120,1,110,2|8,1:2|0:0,0:0:0:0:
187,67,21585,2,0,P|156:61|111:44,1,55,2|0,0:0|1:0,0:0:0:0:
97,87,21950,2,0,P|66:93|21:110,1,55,10|2,0:0|0:0,0:0:0:0:
19,143,22316,6,0,L|38:257,1,110,4|8,1:2|0:0,0:0:0:0:
16,296,22865,2,0,P|74:311|115:345,1,110,2|2,0:0|1:2,0:0:0:0:
144,379,23414,1,8,0:0:0:0:
229,328,23780,2,0,L|340:312,1,110,2|8,1:2|0:0,0:0:0:0:
426,268,24511,2,0,P|439:225|433:198,1,55,2|0,0:0|1:0,0:0:0:0:
466,174,24877,2,0,P|435:141|408:132,1,55,14|2,0:0|1:2,0:0:0:0:
388,113,25243,6,0,L|270:132,1,98.9999969787599,4|10,1:0|0:0,0:0:0:0:
250,107,25792,2,0,P|188:117|144:153,1,98.9999969787599,2|2,0:0|1:2,0:0:0:0:
117,153,26341,1,8,0:0:0:0:
35,116,26707,2,0,P|22:71|48:11,1,98.9999969787599,2|10,1:2|0:0,0:0:0:0:
76,0,27255,1,2,0:0:0:0:
157,47,27621,1,2,1:2:0:0:
157,47,27804,2,0,P|184:54|225:59,1,49.4999984893799,8|10,0:0|0:0,0:0:0:0:
248,44,28170,6,0,B|267:46|284:34|284:34|336:73|324:140,2,148.49999546814,2|2|2,1:2|0:0|0:0,0:0:0:0:
205,57,29450,1,8,0:0:0:0:
205,57,29633,2,0,P|155:71|88:77,1,98.9999969787599,2|8,1:2|0:0,0:0:0:0:
56,149,30365,1,8,0:0:0:0:
81,234,30731,1,12,0:0:0:0:
43,314,31097,1,4,1:2:0:0:
118,370,31463,5,10,0:0:0:0:
118,370,31646,2,0,P|167:354|221:354,1,98.9999969787599,2|2,0:0|1:2,0:0:0:0:
252,375,32194,1,10,0:0:0:0:
314,310,32560,2,0,L|323:251,1,49.4999984893799,2|2,1:2|0:0,0:0:0:0:
302,226,32926,1,8,0:0:0:0:
302,226,33109,1,2,0:0:0:0:
383,189,33475,2,0,P|411:192|440:211,1,49.4999984893799,2|10,1:2|0:0,0:0:0:0:
471,182,33841,1,8,0:0:0:0:
471,182,34024,6,0,P|483:129|471:70,1,98.9999969787599,2|10,1:2|0:0,0:0:0:0:
437,65,34572,2,0,P|399:81|331:80,1,98.9999969787599,2|8,0:0|0:2,0:0:0:0:
307,54,35121,1,2,0:0:0:0:
234,3,35487,6,0,P|221:55|233:114,1,98.9999969787599,2|10,1:2|0:0,0:0:0:0:
192,180,36219,1,2,1:2:0:0:
242,253,36585,2,0,L|230:318,1,49.4999984893799,2|8,1:2|0:0,0:0:0:0:
199,330,36950,6,0,B|116:316|116:316|77:333|80:366,1,148.49999546814,2|0,1:2|1:0,0:0:0:0:
94,384,37682,1,8,0:0:0:0:
104,206,38414,2,0,P|80:131|13:117,1,148.49999546814,2|2,1:2|1:2,0:0:0:0:
0,99,39146,6,0,L|107:83,1,98.9999969787599,10|10,0:0|0:0,0:0:0:0:
144,102,39694,1,8,0:0:0:0:
144,102,39877,1,2,1:2:0:0:
230,78,40243,1,2,0:0:0:0:
301,132,40609,2,0,L|288:203,1,49.4999984893799,10|0,0:0|1:0,0:0:0:0:
280,224,40975,1,2,0:0:0:0:
346,283,41341,2,0,P|409:256|453:263,1,98.9999969787599,2|2,1:2|1:2,0:0:0:0:
502,197,42072,2,0,P|500:136|471:91,1,98.9999969787599,10|10,0:0|0:0,0:0:0:0:
456,74,42621,1,8,0:0:0:0:
456,74,42804,6,0,B|419:65|419:65|353:99|369:172,1,148.49999546814,2|2,1:2|1:2,0:0:0:0:
383,195,43536,1,8,0:0:0:0:
323,261,43902,2,0,P|289:267|260:286,1,49.4999984893799,2|0,0:0|0:0,0:0:0:0:
245,306,44268,6,0,P|185:281|138:290,1,98.9999969787599,2|0,1:2|1:0,0:0:0:0:
78,235,44999,1,10,0:0:0:0:
110,152,45365,1,10,0:0:0:0:
83,66,45731,6,0,L|197:81,1,98.9999969787599,2|2,1:2|0:0,0:0:0:0:
255,128,46463,1,10,0:0:0:0:
210,205,46828,2,0,B|196:235|196:235|217:298,2,98.9999969787599,2|2|2,0:0|1:2|0:2,0:0:0:0:
249,124,47926,1,10,0:0:0:0:
334,149,48292,2,0,L|389:143,1,49.4999984893799,10|2,0:0|0:0,0:0:0:0:
426,130,48658,1,14,0:0:0:0:
426,130,50853,6,0,P|433:72|445:25,1,98.9999969787599,4|6,0:0|1:2,0:0:0:0:
349,0,51585,6,0,P|284:17|263:64,1,110,4|10,1:0|0:0,0:0:0:0:
234,90,52133,2,0,B|263:125|263:125|242:195,1,110,2|0,1:2|1:0,0:0:0:0:
232,235,52682,1,10,0:0:0:0:
152,294,53048,2,0,L|91:281,1,55,2|2,1:2|0:0,0:0:0:0:
63,254,53414,1,10,0:0:0:0:
63,254,53597,1,2,1:2:0:0:
2,183,53963,1,2,1:2:0:0:
2,183,54146,2,0,L|13:123,1,55,10|10,0:0|0:0,0:0:0:0:
9,79,54511,6,0,P|62:75|119:48,1,110,2|10,1:2|0:0,0:0:0:0:
150,19,55060,2,0,L|261:39,1,110,2|2,1:2|1:2,0:0:0:0:
293,73,55609,2,0,P|305:103|305:134,1,55,10|2,0:0|1:2,0:0:0:0:
277,166,55975,1,2,1:2:0:0:
230,253,56341,1,8,0:0:0:0:
293,328,56707,2,0,L|361:338,1,55,8|8,0:3|0:3,0:0:0:0:
394,320,57072,1,12,0:0:0:0:
469,256,57438,6,0,P|471:194|448:141,1,110,2|2,1:2|0:0,0:0:0:0:
413,121,57987,1,2,1:2:0:0:
330,65,58353,2,0,L|339:8,2,55,2|2|2,1:2|0:0|1:2,0:0:0:0:
290,95,58902,2,0,P|234:115|161:101,1,110,2|0,1:2|1:0,0:0:0:0:
142,83,59450,2,0,L|67:93,1,55,2|8,1:2|0:0,0:0:0:0:
25,167,59999,1,10,0:0:0:0:
60,260,60365,6,0,P|52:313|40:377,1,110,2|8,1:2|0:0,0:0:0:0:
139,384,61097,2,0,P|149:329|157:275,1,110,2|8,0:0|0:0,0:0:0:0:
136,183,61828,1,0,1:2:0:0:
136,183,62011,2,0,L|200:170,1,55,10|2,0:0|1:2,0:0:0:0:
284,204,62560,2,0,P|311:210|338:220,1,55,14|0,0:0|1:0,0:0:0:0:
384,204,62926,1,14,0:0:0:0:
468,152,63292,6,0,P|478:123|485:93,1,55,2|2,1:2|1:2,0:0:0:0:
462,53,63658,1,10,0:0:0:0:
462,53,63841,2,0,L|346:70,1,110,2|2,1:2|1:2,0:0:0:0:
262,42,64572,1,2,1:2:0:0:
262,42,64755,2,0,B|238:78|238:78|273:149,1,110,2|10,1:2|0:0,0:0:0:0:
302,172,65304,1,2,1:2:0:0:
233,243,65670,1,2,1:2:0:0:
233,243,65853,2,0,L|219:308,1,55,10|10,0:0|0:0,0:0:0:0:
185,331,66219,6,0,P|125:339|64:370,1,110,2|10,1:2|0:0,0:0:0:0:
32,346,66768,2,0,B|20:328|4:317|4:317|34:228,2,110,2|2|0,1:2|1:2|1:0,0:0:0:0:
80,359,67682,1,2,1:2:0:0:
140,280,68048,1,8,0:0:0:0:
101,188,68414,2,0,L|79:130,1,55,8|0,0:0|1:0,0:0:0:0:
60,91,68780,1,4,1:2:0:0:
126,17,69146,6,0,P|180:29|238:40,1,110,2|2,1:2|0:0,0:0:0:0:
277,16,69695,1,2,1:2:0:0:
324,103,70061,2,0,L|381:94,2,55,2|2|2,1:2|0:0|1:2,0:0:0:0:
291,140,70610,2,0,P|278:199|298:262,1,110,2|2,1:2|1:2,0:0:0:0:
323,281,71158,2,0,L|398:291,1,55,2|8,1:2|0:0,0:0:0:0:
469,249,71707,1,10,0:0:0:0:
510,159,72072,6,0,P|502:106|490:42,1,110,2|8,1:2|0:0,0:0:0:0:
406,0,72804,2,0,P|398:53|386:117,1,110,2|8,0:0|0:0,0:0:0:0:
309,169,73535,1,2,1:2:0:0:
216,134,73901,1,2,1:2:0:0:
140,198,74267,2,0,P|105:203|75:211,1,55,14|0,0:0|1:0,0:0:0:0:
49,241,74633,1,12,0:0:0:0:
114,315,74999,5,4,1:0:0:0:
256,192,75182,12,0,77926,1:0:0:0:
114,315,98414,6,0,P|118:337|123:371,1,49.4999984893799,6|2,1:2|0:0,0:0:0:0:
340,141,99877,5,14,0:0:0:0:
340,141,100060,2,0,P|331:92|324:43,2,98.9999969787599,2|2|2,0:1|0:1|0:1,0:0:0:0:
273,200,101158,5,10,1:2:0:0:
273,200,101341,2,0,L|165:185,1,98.9999969787599,6|10,1:2|0:2,0:0:0:0:
97,142,102072,1,8,0:0:0:0:
36,207,102438,2,0,P|40:232|44:268,1,49.4999984893799,8|8,0:0|0:0,0:0:0:0:
28,299,102804,1,8,0:0:0:0:
108,337,103170,1,8,0:0:0:0:
173,277,103536,1,8,0:0:0:0:
257,305,103902,2,0,L|312:294,1,49.4999984893799,8|8,0:0|0:0,0:0:0:0:
347,267,104268,6,0,L|467:292,1,110,4|10,1:2|0:0,0:0:0:0:
497,265,104816,2,0,P|504:220|481:154,1,110,2|2,0:0|1:2,0:0:0:0:
442,133,105365,1,8,0:0:0:0:
360,76,105731,2,0,L|289:89,1,55,2|2,1:2|0:0,0:0:0:0:
268,118,106097,1,10,0:0:0:0:
268,118,106280,1,2,0:0:0:0:
204,193,106646,2,0,P|212:219|221:265,1,55,2|10,1:2|0:2,0:0:0:0:
200,294,107011,1,2,0:0:0:0:
200,294,107194,6,0,L|72:279,1,110,2|10,1:2|0:0,0:0:0:0:
52,249,107743,2,0,P|32:176|7:134,1,110,2|2,0:0|1:2,0:0:0:0:
0,99,108292,1,8,0:0:0:0:
70,28,108658,1,10,0:0:0:0:
153,81,109024,1,10,0:2:0:0:
154,179,109389,1,10,0:0:0:0:
240,227,109755,1,4,0:3:0:0:
316,181,110121,6,0,B|359:184|384:164|384:164|386:244|420:294,1,197.99999395752,2|8,1:2|0:0,0:0:0:0:
266,384,111585,2,0,P|197:332|127:345,1,148.49999546814,2|2,1:2|1:2,0:0:0:0:
109,372,112316,1,10,0:0:0:0:
36,319,112682,2,0,L|46:256,1,49.4999984893799,10|0,0:0|1:0,0:0:0:0:
67,232,113048,5,2,1:2:0:0:
122,162,113414,2,0,P|117:137|110:113,2,49.4999984893799,2|2|10,0:0|1:2|0:0,0:0:0:0:
203,199,114146,1,2,0:0:0:0:
278,246,114512,2,0,P|282:270|289:294,2,49.4999984893799,2|10|2,1:2|0:0|1:2,0:0:0:0:
345,187,115243,1,10,0:0:0:0:
417,135,115609,2,0,P|423:111|428:86,1,49.4999984893799,10|8,0:0|0:0,0:0:0:0:
405,48,115975,6,0,B|359:26|359:26|301:118,1,148.49999546814,2|2,1:2|1:2,0:0:0:0:
266,127,116707,1,8,0:0:0:0:
197,70,117072,2,0,L|137:61,1,49.4999984893799,2|0,0:0|0:0,0:0:0:0:
104,51,117438,6,0,L|127:156,1,98.9999969787599,2|0,1:2|1:0,0:0:0:0:
102,234,118170,1,10,0:0:0:0:
165,296,118536,2,0,L|156:361,1,49.4999984893799,10|8,0:0|0:0,0:0:0:0:
188,377,118902,6,0,L|247:363,1,49.4999984893799,2|0,1:2|1:0,0:0:0:0:
270,336,119268,2,0,P|294:343|318:347,1,49.4999984893799,2|2,0:0|1:2,0:0:0:0:
360,333,119633,1,10,0:0:0:0:
429,277,119999,2,0,L|420:226,1,49.4999984893799,2|2,0:0|1:2,0:0:0:0:
450,195,120365,2,0,P|474:202|498:206,2,49.4999984893799,2|2|2,1:2|0:0|0:2,0:0:0:0:
377,142,121097,2,0,L|327:153,1,49.4999984893799,10|0,0:0|1:0,0:0:0:0:
293,124,121463,2,0,L|302:73,1,49.4999984893799,10|2,0:0|0:0,0:0:0:0:
332,43,121828,1,14,0:0:0:0:
487,246,130609,6,0,P|361:265|227:291,1,247.500009441376,0|0,1:0|0:0,0:0:0:0:
186,347,132072,2,0,P|187:279|34:203,1,247.500009441376,0|0,1:0|0:0,0:0:0:0:
0,124,133536,6,0,B|21:38|21:38|-14:8,2,132,0|0|0,1:0|0:0|0:0,0:0:0:0:
46,198,134999,2,0,P|121:187|204:174,1,148.49999546814,2|2,1:2|0:2,0:0:0:0:
273,225,135914,1,8,0:0:0:0:
273,225,136097,2,0,P|300:219|329:215,1,49.4999984893799,8|8,0:0|0:0,0:0:0:0:
367,234,136463,6,0,P|409:295|402:337,1,110,4|8,1:0|0:0,0:0:0:0:
371,363,137011,2,0,P|312:354|240:348,1,110,2|0,1:2|1:0,0:0:0:0:
221,377,137560,1,10,0:0:0:0:
221,377,137743,1,2,1:2:0:0:
140,318,138109,2,0,L|129:253,1,55,2|8,1:2|0:0,0:0:0:0:
65,189,138658,2,0,P|33:185|5:179,2,55,2|2|8,1:2|1:2|0:0,0:0:0:0:
111,167,139207,1,10,0:0:0:0:
111,167,139389,5,6,1:2:0:0:
183,99,139755,2,0,P|179:69|174:45,1,55,10|2,0:0|1:2,0:0:0:0:
265,0,140304,1,2,1:2:0:0:
265,0,140487,1,10,0:2:0:0:
362,14,140853,2,0,P|366:44|371:68,1,55,2|0,1:2|1:0,0:0:0:0:
406,102,141219,2,0,L|396:166,1,55,10|0,0:0|1:0,0:0:0:0:
429,201,141585,1,10,0:0:0:0:
429,201,141768,2,0,L|485:193,2,55,8|8|8,0:3|0:3|0:0,0:0:0:0:
392,234,142316,6,0,P|345:244|310:296,1,110,4|8,1:0|0:0,0:0:0:0:
273,325,142865,2,0,L|156:310,1,110,2|2,1:2|1:2,0:0:0:0:
119,334,143414,1,8,0:0:0:0:
45,267,143780,2,0,P|30:200|8:152,1,110,2|8,1:2|0:0,0:0:0:0:
51,125,144328,2,0,L|56:63,2,55,2|2|2,1:0|0:1|1:0,0:0:0:0:
94,148,144877,2,0,P|139:140|159:138,1,55,8|8,0:0|0:0,0:0:0:0:
190,112,145243,6,0,P|169:61|158:7,2,110,4|8|2,1:0|0:0|0:1,0:0:0:0:
273,166,146341,2,0,B|337:173,1,55,10|2,0:0|1:0,0:0:0:0:
369,198,146707,2,0,P|384:255|347:312,1,110,12|2,0:0|1:2,0:0:0:0:
323,329,147255,1,12,0:0:0:0:
323,329,148902,6,0,P|265:336|218:348,1,98.9999969787599,4|6,0:0|1:2,0:0:0:0:
143,290,149633,6,0,B|118:249|118:249|145:184,1,110,4|8,1:0|0:0,0:0:0:0:
172,152,150182,2,0,L|147:33,1,110,2|2,1:2|1:2,0:0:0:0:
113,10,150731,1,10,0:0:0:0:
30,64,151097,2,0,P|-4:116|14:170,1,110,2|10,1:2|0:0,0:0:0:0:
52,173,151645,1,2,1:2:0:0:
118,253,152011,1,2,1:2:0:0:
118,253,152194,2,0,P|147:258|178:266,1,55,10|10,0:0|0:0,0:0:0:0:
207,298,152559,6,0,L|326:285,1,110,2|10,1:2|0:0,0:0:0:0:
345,245,153108,2,0,L|456:265,1,110,2|2,1:2|1:2,0:0:0:0:
499,245,153657,2,0,P|507:210|516:181,1,55,10|2,0:0|1:2,0:0:0:0:
506,142,154023,1,2,1:2:0:0:
440,67,154389,1,8,0:0:0:0:
345,95,154755,2,0,P|336:129|327:158,1,55,8|8,0:3|0:3,0:0:0:0:
294,181,155121,1,12,0:0:0:0:
255,272,155486,6,0,P|197:241|139:254,1,110,2|2,1:2|0:0,0:0:0:0:
117,279,156035,1,2,1:2:0:0:
54,202,156401,2,0,L|0:193,2,55,2|2|2,1:2|0:0|0:0,0:0:0:0:
100,183,156950,2,0,P|120:127|106:54,1,110,2|0,1:2|1:0,0:0:0:0:
154,46,157499,1,2,1:2:0:0:
154,46,157682,1,8,0:0:0:0:
234,102,158047,1,10,0:0:0:0:
321,55,158413,6,0,P|375:65|429:73,1,110,2|8,1:2|0:0,0:0:0:0:
458,168,159146,2,0,P|403:157|349:149,1,110,2|8,0:0|0:0,0:0:0:0:
271,209,159876,1,0,1:2:0:0:
271,209,160060,2,0,L|285:283,1,55,10|2,0:0|1:2,0:0:0:0:
220,341,160608,2,0,P|193:347|166:357,1,55,14|0,0:0|1:0,0:0:0:0:
121,339,160974,1,14,0:0:0:0:
63,259,161340,6,0,P|73:230|80:200,1,55,2|2,1:2|1:2,0:0:0:0:
54,169,161707,1,10,0:0:0:0:
54,169,161890,2,0,B|30:133|30:133|65:62,1,110,2|2,1:2|1:2,0:0:0:0:
141,16,162620,1,2,1:2:0:0:
141,16,162804,2,0,P|188:27|255:33,1,110,2|10,1:2|0:0,0:0:0:0:
289,61,163352,1,2,1:2:0:0:
361,136,163718,1,2,1:2:0:0:
361,136,163901,2,0,L|347:201,1,55,10|10,0:2|0:0,0:0:0:0:
313,224,164267,6,0,P|253:232|192:263,1,110,2|10,1:2|0:0,0:0:0:0:
161,233,164816,2,0,B|149:215|133:204|133:204|163:115,2,110,2|2|2,1:2|1:2|1:2,0:0:0:0:
208,252,165730,1,2,1:2:0:0:
268,330,166096,1,8,0:0:0:0:
356,285,166462,2,0,L|415:294,1,55,8|4,0:3|0:3,0:0:0:0:
452,317,166828,1,12,0:2:0:0:
511,237,167194,6,0,P|499:183|488:125,1,110,2|2,1:2|0:0,0:0:0:0:
458,89,167743,1,2,1:2:0:0:
365,53,168109,2,0,L|374:-4,2,55,2|2|2,1:2|0:0|1:2,0:0:0:0:
324,81,168658,2,0,P|265:94|202:74,1,110,2|2,1:2|1:2,0:0:0:0:
174,58,169206,2,0,L|119:65,1,55,2|8,1:2|0:0,0:0:0:0:
47,133,169755,1,10,0:0:0:0:
113,205,170120,6,0,P|105:258|93:322,1,110,2|8,1:2|0:0,0:0:0:0:
192,331,170853,2,0,P|202:276|210:222,1,110,2|8,0:0|0:0,0:0:0:0:
297,174,171585,1,2,1:2:0:0:
297,174,171768,2,0,L|355:184,1,55,8|2,0:0|1:2,0:0:0:0:
442,148,172316,1,12,0:0:0:0:
403,57,172681,1,12,0:0:0:0:
488,6,173047,5,4,1:0:0:0:
256,192,173230,12,0,175974,1:0:0:0:
