osu file format v14

[General]
AudioFilename: audio.mp3
AudioLeadIn: 0
PreviewTime: 1737
Countdown: 0
SampleSet: Soft
StackLeniency: 0.7
Mode: 0
LetterboxInBreaks: 0
WidescreenStoryboard: 0

[Editor]
DistanceSpacing: 1.2
BeatDivisor: 4
GridSize: 32
TimelineZoom: 1.6

[Metadata]
Title:Nine Point Eight
TitleUnicode:Nine Point Eight
Artist:Mili
ArtistUnicode:Mili
Creator:NeKroMan4ik
Version:Insane
Source:DEEMO
Tags:9.8 english rock fa featured artist video game momocashew cassie wei projectmili yamato kasai hamo project mag mell
BeatmapID:3949136
BeatmapSetID:1914266

[Difficulty]
HPDrainRate:5
CircleSize:4
OverallDifficulty:8
ApproachRate:8.8
SliderMultiplier:1.6
SliderTickRate:1

[Events]
//Background and Video events
0,0,"103486538_p0.jpg",0,0
//Break Periods
2,78126,96321
2,124755,129980
//Storyboard Layer 0 (Background)
//Storyboard Layer 1 (Fail)
//Storyboard Layer 2 (Pass)
//Storyboard Layer 3 (Foreground)
//Storyboard Layer 4 (Overlay)
//Storyboard Sound Samples

[TimingPoints]
1829,365.853658536585,4,2,0,70,1,0
16463,-90.9090909090909,4,2,0,70,0,0
16828,-100,4,2,0,70,0,0
17926,-90.9090909090909,4,2,0,70,0,0
18292,-100,4,2,0,70,0,0
18749,-100,4,2,0,5,0,0
18841,-100,4,2,0,70,0,0
25243,-117.647058823529,4,2,0,60,0,0
27804,-100,4,2,0,60,0,0
28170,-117.647058823529,4,2,0,60,0,0
36950,-133.333333333333,4,2,0,50,0,0
50121,-250,4,2,0,60,0,0
51585,-76.9230769230769,4,2,0,75,0,0
52133,-95.2380952380952,4,2,0,75,0,0
57072,-90.9090909090909,4,2,0,75,0,0
57438,-111.111111111111,4,2,0,65,0,0
60365,-100,4,2,0,70,0,0
63292,-95.2380952380952,4,2,0,75,0,0
69146,-111.111111111111,4,2,0,65,0,0
72072,-100,4,2,0,70,0,0
77926,-100,4,2,0,20,0,0
98414,-100,4,2,0,75,0,0
99511,-166.666666666667,4,2,0,75,0,0
99877,-100,4,2,0,75,0,0
101341,-117.647058823529,4,2,0,75,0,0
104268,-100,4,2,0,65,0,0
106646,-100,4,2,0,65,0,0
106737,-100,4,2,0,5,0,0
106828,-100,4,2,0,65,0,0
106920,-100,4,2,0,5,0,0
107011,-100,4,2,0,65,0,0
110121,-133.333333333333,4,2,0,55,0,0
130609,-399.999999999997,4,2,0,30,0,0
132072,-285.714285714284,4,2,0,30,0,0
133536,-222.222222222221,4,2,0,30,0,0
134999,-142.857142857143,4,2,0,50,0,0
135548,-111.111111111111,4,2,0,50,0,0
136463,-95.2380952380952,4,2,0,80,0,0
139389,-86.9565217391304,4,2,0,80,0,0
139938,-95.2380952380952,4,2,0,80,0,0
142316,-105.263157894737,4,2,0,80,0,0
145243,-95.2380952380954,4,2,0,80,0,0
146707,-80,4,2,0,80,0,0
147255,-333.333333333333,4,2,0,55,0,0
149268,-200,4,2,0,60,0,0
149633,-95.2380952380952,4,2,0,80,0,0
155120,-90.9090909090909,4,2,0,80,0,0
155486,-111.111111111111,4,2,0,80,0,0
158413,-100,4,2,0,80,0,0
161340,-95.2380952380952,4,2,0,80,0,0
163719,-181.818181818181,4,2,0,80,0,0
163810,-181.818181818181,4,2,0,5,0,0
163902,-181.818181818181,4,2,0,80,0,0
163993,-181.818181818181,4,2,0,5,0,0
164085,-181.818181818181,4,2,0,80,0,0
164268,-95.2380952380952,4,2,0,80,0,0
167194,-111.111111111111,4,2,0,70,0,0
170120,-100,4,2,0,80,0,0
175974,-100,4,2,0,20,0,0

[Colours]
Combo1 : 233,188,139
Combo2 : 245,228,203

[HitObjects]
297,276,13536,6,0,B|248:286|208:301|208:301|171:274|195:229,1,160,4|8,1:0|0:0,0:0:0:0:
244,155,14085,1,2,0:0:0:0:
313,196,14268,5,2,0:0:0:0:
138,101,14450,1,0,1:0:0:0:
77,150,14633,2,0,P|29:160|-16:176,1,80,8|0,0:0|0:0,0:0:0:0:
216,19,14999,6,0,P|254:31|293:38,1,80,2|0,1:2|0:0,0:0:0:0:
512,185,15365,2,0,P|473:172|419:161,1,80,10|0,0:0|0:0,0:0:0:0:
364,104,15731,5,2,0:0:0:0:
509,69,15914,1,2,1:2:0:0:
440,23,16097,5,8,0:0:0:0:
500,259,16280,1,2,0:0:0:0:
436,324,16463,6,0,B|357:335|381:299|268:313,1,132.00000402832,6|0,1:2|0:0,0:0:0:0:
229,287,16828,2,0,B|216:316|216:316|231:374,1,80,8|0,0:0|0:0,0:0:0:0:
328,199,17194,5,2,0:0:0:0:
323,179,17377,1,2,1:2:0:0:
248,124,17560,5,8,0:0:0:0:
410,223,17743,1,0,0:0:0:0:
243,131,17926,6,0,P|175:141|101:165,1,132.00000402832,2|0,1:2|0:0,0:0:0:0:
0,62,18292,6,0,P|40:62|88:95,1,80,10|0,0:0|0:0,0:0:0:0:
43,322,18658,2,0,P|33:297|35:273,1,40,2|0,0:0|0:0,0:0:0:0:
170,274,18841,5,2,1:2:0:0:
322,315,19024,1,8,1:2:0:0:
476,356,19207,1,8,0:0:0:0:
229,349,19389,5,4,1:2:0:0:
327,322,19572,1,0,1:0:0:0:
428,295,19755,2,0,L|511:315,1,80,8|2,0:0|0:0,0:0:0:0:
282,170,20121,1,0,0:0:0:0:
371,142,20304,5,2,1:2:0:0:
252,250,20487,2,0,L|169:270,1,80,8|2,0:0|0:0,0:0:0:0:
432,68,20853,6,0,P|486:84|510:158,1,120,2|0,1:2|0:0,0:0:0:0:
458,189,21219,2,0,L|376:163,1,80,8|0,0:0|0:0,0:0:0:0:
176,43,21585,5,2,0:0:0:0:
106,70,21768,1,0,1:0:0:0:
37,33,21950,5,10,0:0:0:0:
236,98,22133,1,2,0:0:0:0:
101,215,22316,6,0,B|108:196|108:196|43:220|43:220|74:295,1,160,4|8,1:2|0:0,0:0:0:0:
150,327,22865,5,2,0:0:0:0:
12,244,23048,1,0,0:0:0:0:
127,186,23231,5,2,1:2:0:0:
0,384,23414,2,0,L|103:366,1,80,8|0,0:0|0:0,0:0:0:0:
427,181,23780,6,0,L|324:163,1,80,2|0,1:2|0:0,0:0:0:0:
240,118,24146,2,0,L|261:251,1,120,8|0,0:0|0:0,0:0:0:0:
325,299,24511,5,2,0:0:0:0:
145,183,24694,1,0,1:0:0:0:
372,65,24877,1,14,0:0:0:0:
258,236,25060,1,2,1:2:0:0:
122,28,25243,6,0,B|80:12|80:12|28:41|44:113,1,136.000002593994,4|10,1:0|0:0,0:0:0:0:
2,226,25792,2,0,P|49:185|136:196,1,136.000002593994,2|2,0:0|1:2,0:0:0:0:
184,253,26341,1,8,0:0:0:0:
339,164,26524,5,2,0:0:0:0:
339,164,26615,1,0,1:0:0:0:
339,164,26707,1,2,1:2:0:0:
260,141,26889,1,2,0:0:0:0:
359,269,27072,1,10,0:0:0:0:
442,170,27255,6,0,P|429:98|416:20,1,136.000002593994,2|2,0:0|1:2,0:0:0:0:
498,0,27804,6,0,P|509:22|499:59,1,40,8|0,0:0|0:0,0:0:0:0:
352,132,27987,1,10,0:0:0:0:
512,262,28170,6,0,P|471:259|409:332,1,136.000002593994,2|10,1:2|0:0,0:0:0:0:
278,384,28719,2,0,P|237:387|175:314,2,136.000002593994,2|0|8,0:0|1:0|0:0,0:0:0:0:
312,213,29633,6,0,P|300:145|289:88,1,102.000001945496,2|0,1:2|0:0,0:0:0:0:
313,93,29999,2,0,L|388:107,1,68.0000012969971,8|2,0:0|0:0,0:0:0:0:
155,4,30365,1,8,0:0:0:0:
92,46,30548,1,2,1:2:0:0:
20,14,30731,5,12,0:0:0:0:
129,180,30914,1,0,1:0:0:0:
75,239,31097,6,0,P|29:254|-3:323,1,102.000001945496,4|0,1:2|0:0,0:0:0:0:
7,308,31463,2,0,P|24:355|31:382,1,68.0000012969971,10|2,0:0|0:0,0:0:0:0:
181,291,31828,1,0,0:0:0:0:
101,260,32011,1,2,1:2:0:0:
215,382,32194,2,0,P|262:365|289:358,1,68.0000012969971,10|0,0:0|0:0,0:0:0:0:
422,228,32560,5,2,1:2:0:0:
437,237,32743,1,2,0:0:0:0:
512,192,32926,5,8,0:0:0:0:
343,265,33109,1,2,0:0:0:0:
511,366,33292,1,0,0:0:0:0:
454,278,33475,5,2,1:2:0:0:
427,193,33658,1,10,0:0:0:0:
501,32,33841,5,8,0:0:0:0:
440,89,34024,2,0,B|373:107|373:107|299:89,1,136.000002593994,2|10,1:2|0:0,0:0:0:0:
168,44,34572,2,0,B|101:26|101:26|27:44,1,136.000002593994,2|8,0:0|0:2,0:0:0:0:
114,188,35121,2,0,L|99:114,1,68.0000012969971,2|8,0:0|0:0,0:0:0:0:
55,326,35487,6,0,P|28:286|49:247,1,68.0000012969971,2|0,1:2|0:0,0:0:0:0:
256,187,35853,2,0,P|234:230|190:231,1,68.0000012969971,10|0,0:0|0:0,0:0:0:0:
116,167,36219,5,2,1:2:0:0:
294,347,36402,1,8,0:0:0:0:
298,353,36493,1,8,0:0:0:0:
303,360,36585,1,2,1:2:0:0:
349,379,36676,1,8,0:0:0:0:
384,351,36768,1,8,0:0:0:0:
381,300,36859,1,8,0:0:0:0:
371,293,36950,6,0,P|435:303|489:324,1,120.000004577637,2|0,1:2|0:0,0:0:0:0:
490,225,37499,1,0,1:0:0:0:
423,261,37682,1,8,0:0:0:0:
493,218,37865,2,0,L|479:145,1,60.0000022888184,0|0,1:0|0:0,0:0:0:0:
236,180,38414,6,0,L|263:37,1,120.000004577637,2|0,1:2|1:0,0:0:0:0:
207,0,38963,1,2,1:2:0:0:
284,139,39146,6,0,L|357:153,1,60.0000022888184,10|0,0:0|1:0,0:0:0:0:
166,96,39511,2,0,L|107:107,1,60.0000022888184,10|8,0:0|0:0,0:0:0:0:
35,369,39877,5,2,1:2:0:0:
0,299,40060,1,0,1:0:0:0:
51,240,40243,1,2,0:0:0:0:
128,248,40426,1,2,1:2:0:0:
160,322,40609,6,0,L|148:389,1,60.0000022888184,10|0,0:0|1:0,0:0:0:0:
271,225,40975,2,0,L|335:201,1,60.0000022888184,2|0,0:0|1:0,0:0:0:0:
488,376,41341,5,2,1:2:0:0:
426,331,41524,1,10,0:0:0:0:
349,367,41707,5,2,1:2:0:0:
512,273,41889,1,0,1:0:0:0:
468,147,42072,2,0,P|459:175|455:204,1,60.0000022888184,10|0,0:0|1:0,0:0:0:0:
329,384,42438,2,0,P|337:355|341:326,1,60.0000022888184,10|8,0:0|0:0,0:0:0:0:
229,252,42804,6,0,P|156:273|147:319,1,120.000004577637,2|0,1:2|0:0,0:0:0:0:
245,243,43353,5,2,1:2:0:0:
133,330,43536,2,0,P|60:309|51:263,1,120.000004577637,8|2,0:0|0:0,0:0:0:0:
115,21,44268,5,2,1:2:0:0:
172,68,44450,1,8,0:0:0:0:
130,136,44633,1,0,1:0:0:0:
311,303,44999,6,0,P|319:269|332:234,1,60.0000022888184,10|0,0:0|1:0,0:0:0:0:
266,182,45365,2,0,L|208:193,1,60.0000022888184,10|8,0:0|0:0,0:0:0:0:
428,301,45731,5,2,1:2:0:0:
465,290,45914,1,0,1:0:0:0:
438,263,46097,1,2,0:0:0:0:
472,369,46280,5,2,1:2:0:0:
404,174,46463,1,10,0:0:0:0:
512,218,46646,1,0,1:0:0:0:
300,322,46828,5,2,0:0:0:0:
288,316,47011,1,2,0:2:0:0:
212,384,47194,5,2,1:2:0:0:
336,234,47377,1,2,0:0:0:0:
226,175,47560,2,0,L|241:248,1,60.0000022888184,2|0,0:2|1:0,0:0:0:0:
303,91,47926,5,10,0:0:0:0:
422,124,48109,1,0,1:0:0:0:
116,242,48292,5,10,0:0:0:0:
44,203,48475,2,0,L|1:212,1,30.0000011444092,2|8,0:0|0:0,0:0:0:0:
154,35,48658,5,14,0:0:0:0:
154,35,50121,6,0,L|139:108,1,64,2|2,0:3|0:3,0:0:0:0:
472,332,50853,5,4,0:0:0:0:
377,168,51036,1,8,0:3:0:0:
353,189,51127,1,8,0:3:0:0:
354,221,51219,2,0,L|405:227,1,48,6|0,1:2|0:0,0:0:0:0:
492,228,51585,6,0,B|405:239|405:239|371:309|283:291,1,207.999990478516,4|10,1:0|0:0,0:0:0:0:
34,121,52133,2,0,B|97:134|97:134|111:149|111:149|193:167,1,167.999994873047,2|0,1:2|1:0,0:0:0:0:
132,282,52682,2,0,L|151:364,1,83.9999974365235,10|0,0:0|1:0,0:0:0:0:
140,375,52957,1,8,0:0:0:0:
133,384,53048,5,2,1:2:0:0:
42,288,53231,1,2,0:0:0:0:
266,176,53414,1,10,0:0:0:0:
222,241,53597,2,0,L|245:88,1,125.999996154785,2|0,1:2|0:0,0:0:0:0:
234,103,53963,5,2,1:2:0:0:
75,1,54146,1,10,0:0:0:0:
0,43,54328,1,10,0:0:0:0:
120,91,54511,6,0,B|143:101|143:101|285:73,1,167.999994873047,2|10,1:2|0:0,0:0:0:0:
512,255,55060,2,0,B|488:263|488:263|448:243|378:241,1,125.999996154785,2|0,1:2|0:0,0:0:0:0:
376,251,55426,5,2,1:2:0:0:
512,117,55609,1,10,0:0:0:0:
342,0,55792,1,2,1:2:0:0:
402,147,55975,6,0,L|416:57,1,83.9999974365235,2|0,1:2|0:0,0:0:0:0:
252,230,56341,2,0,L|160:255,1,83.9999974365235,8|2,0:0|1:2,0:0:0:0:
374,370,56707,1,8,0:3:0:0:
396,341,56798,1,8,0:3:0:0:
380,309,56889,5,8,0:3:0:0:
187,155,57072,2,0,B|118:141|128:109|36:102,1,132.00000402832,12|0,0:0|0:0,0:0:0:0:
18,176,57438,5,2,1:2:0:0:
71,0,57621,1,2,1:2:0:0:
0,38,57804,1,2,0:0:0:0:
104,85,57987,2,0,L|178:73,1,71.9999978027344,2|8,1:2|0:0,0:0:0:0:
322,185,58353,5,2,1:2:0:0:
388,138,58536,1,2,0:0:0:0:
458,176,58719,1,2,1:2:0:0:
472,253,58902,5,2,1:2:0:0:
373,121,59085,1,8,0:0:0:0:
494,88,59268,1,0,1:0:0:0:
361,231,59450,2,0,L|289:242,1,71.9999978027344,2|8,1:2|0:0,0:0:0:0:
109,157,59816,5,0,1:0:0:0:
173,318,59999,1,10,0:0:0:0:
183,335,60091,1,8,0:0:0:0:
182,356,60182,1,8,0:0:0:0:
175,373,60274,1,8,0:0:0:0:
162,384,60365,6,0,B|162:372|153:368|153:368|182:225,1,160,2|8,1:2|0:0,0:0:0:0:
314,125,60914,1,0,1:0:0:0:
208,0,61097,2,0,L|225:80,1,80,2|0,0:0|1:0,0:0:0:0:
149,137,61463,2,0,L|64:119,1,80,8|0,0:0|1:0,0:0:0:0:
289,258,61828,5,0,1:2:0:0:
362,224,62011,1,10,0:0:0:0:
450,254,62194,5,2,1:2:0:0:
271,157,62377,1,0,1:0:0:0:
473,95,62560,5,14,0:0:0:0:
264,258,62743,1,0,1:0:0:0:
420,341,62926,2,0,P|478:356|543:393,1,120,14|0,0:0|0:0,0:0:0:0:
512,327,63292,5,2,1:2:0:0:
300,384,63475,1,2,1:2:0:0:
377,186,63658,1,10,0:0:0:0:
297,226,63841,2,0,L|192:206,1,83.9999974365235,2|0,1:2|0:0,0:0:0:0:
87,139,64207,2,0,P|41:151|-13:160,1,83.9999974365235,2|8,1:2|0:0,0:0:0:0:
274,84,64572,5,2,1:2:0:0:
328,18,64755,2,0,P|369:10|409:0,1,83.9999974365235,2|0,1:2|0:0,0:0:0:0:
274,84,65121,1,10,0:0:0:0:
101,24,65304,2,0,P|60:16|20:6,1,83.9999974365235,2|0,1:2|0:0,0:0:0:0:
9,9,65578,1,0,0:0:0:0:
2,15,65670,5,2,1:2:0:0:
126,219,65853,1,10,0:0:0:0:
10,135,66036,1,10,0:0:0:0:
12,374,66219,6,0,P|63:331|175:340,1,167.999994873047,2|10,1:2|0:0,0:0:0:0:
462,178,66768,2,0,B|364:194|387:216|283:237,2,167.999994873047,2|2|0,1:2|1:2|1:0,0:0:0:0:
326,26,67682,5,2,1:2:0:0:
321,42,67865,1,0,0:0:0:0:
272,133,68048,5,8,0:0:0:0:
437,67,68231,1,2,1:2:0:0:
261,144,68414,5,8,0:0:0:0:
68,56,68597,1,0,1:0:0:0:
62,62,68688,1,8,0:0:0:0:
57,67,68780,6,0,L|-1:53,1,41.9999987182618,4|0,1:2|0:0,0:0:0:0:
141,12,68963,1,8,1:2:0:0:
87,194,69146,5,2,1:2:0:0:
55,276,69328,1,2,1:2:0:0:
89,184,69511,1,2,0:0:0:0:
11,366,69694,6,0,L|94:353,1,71.9999978027344,2|8,1:2|0:0,0:0:0:0:
165,368,70060,1,2,1:2:0:0:
309,317,70243,1,2,0:0:0:0:
371,373,70426,1,2,1:2:0:0:
178,248,70609,5,2,1:2:0:0:
158,260,70792,1,10,0:0:0:0:
286,177,70975,5,2,1:2:0:0:
328,109,71158,2,0,P|319:62|315:25,1,71.9999978027344,2|8,1:2|0:0,0:0:0:0:
401,89,71524,5,0,1:0:0:0:
134,22,71707,1,10,0:0:0:0:
103,40,71798,1,8,0:0:0:0:
69,51,71889,1,8,0:0:0:0:
33,53,71981,1,8,0:0:0:0:
3,72,72072,6,0,P|51:77|162:115,1,160,2|8,1:2|0:0,0:0:0:0:
232,67,72621,1,0,1:0:0:0:
123,268,72804,5,2,0:0:0:0:
111,273,72987,1,0,1:0:0:0:
28,227,73170,5,8,0:0:0:0:
16,222,73353,1,0,1:0:0:0:
157,183,73536,5,2,1:2:0:0:
25,384,73719,5,10,0:0:0:0:
250,284,73902,1,2,1:2:0:0:
316,359,74085,1,0,1:0:0:0:
79,250,74268,5,14,0:0:0:0:
141,53,74450,1,0,1:0:0:0:
74,0,74633,5,12,0:0:0:0:
418,120,74999,5,4,1:0:0:0:
256,192,75091,12,0,77926,1:0:0:0:
256,192,96950,12,0,98231,0:0:0:0:
308,166,98414,6,0,P|346:175|386:182,1,80,6|2,1:2|0:0,0:0:0:0:
84,319,99511,6,0,P|31:334|11:348,1,71.9999978027344,2|0,0:0|0:0,0:0:0:0:
7,360,99877,5,14,0:0:0:0:
172,255,100060,2,0,B|197:149|197:149|173:139|154:105,2,160,2|2|2,0:1|0:1|0:1,0:0:0:0:
428,369,100975,5,10,0:0:0:0:
377,301,101158,1,10,1:2:0:0:
295,384,101341,6,0,P|291:342|280:319,1,68.0000012969971,6|0,1:2|0:0,0:0:0:0:
409,146,101707,2,0,P|413:188|424:211,1,68.0000012969971,10|8,0:2|0:1,0:0:0:0:
431,218,101981,1,8,0:1:0:0:
434,227,102072,2,0,L|500:243,1,68.0000012969971,8|8,0:0|0:1,0:0:0:0:
506,250,102347,1,8,0:1:0:0:
512,257,102438,1,8,0:0:0:0:
342,78,102621,5,8,0:0:0:0:
377,301,102804,1,8,0:0:0:0:
339,68,102987,1,0,1:0:0:0:
489,151,103170,5,8,0:0:0:0:
344,218,103353,1,0,1:0:0:0:
98,89,103536,5,8,0:0:0:0:
237,133,103719,1,0,1:0:0:0:
57,332,103902,5,8,0:0:0:0:
47,308,103993,1,8,0:0:0:0:
48,283,104085,1,8,0:0:0:0:
60,261,104176,1,8,0:0:0:0:
80,246,104268,6,0,B|99:265|99:265|146:266|201:294,1,120,4|0,1:2|0:0,0:0:0:0:
196,298,104633,1,10,0:0:0:0:
338,384,104816,2,0,B|343:374|356:363|356:363|329:231,1,160,2|2,0:0|1:2,0:0:0:0:
393,166,105365,2,0,L|481:181,1,80,8|0,0:0|0:0,0:0:0:0:
267,0,105731,5,2,1:2:0:0:
138,67,105914,1,2,0:0:0:0:
239,154,106097,1,10,0:0:0:0:
243,150,106280,2,0,L|220:53,1,80,2|0,0:0|0:2,0:0:0:0:
9,216,106646,6,0,L|-5:275,1,40,2|0,1:2|0:0,0:0:0:0:
113,297,106828,2,0,L|99:356,1,40,10|0,0:2|0:0,0:0:0:0:
26,378,107011,5,2,0:0:0:0:
237,316,107194,2,0,P|300:327|361:356,1,120,2|0,1:2|0:0,0:0:0:0:
359,351,107560,1,10,0:0:0:0:
512,158,107743,2,0,P|469:168|425:175,1,80,2|0,0:0|0:0,0:0:0:0:
373,250,108109,1,2,1:2:0:0:
468,373,108292,2,0,P|480:330|496:289,1,80,8|0,0:0|0:0,0:0:0:0:
314,89,108658,6,0,P|325:60|333:31,2,53.3333333333333,10|8|8,0:0|0:0|0:0,0:0:0:0:
243,137,109024,5,10,0:2:0:0:
211,162,109146,6,0,P|180:166|151:174,1,53.3333333333333,8|8,0:0|0:0,0:0:0:0:
0,64,109389,6,0,P|42:76|100:81,1,80,10|4,0:0|0:3,0:0:0:0:
94,65,109664,1,4,0:3:0:0:
84,52,109755,1,4,0:3:0:0:
231,275,109938,1,4,0:3:0:0:
221,262,110030,1,4,0:3:0:0:
231,248,110121,6,0,P|295:258|349:279,1,120.000004577637,2|0,1:2|0:0,0:0:0:0:
501,225,110670,1,0,1:0:0:0:
438,267,110853,1,8,0:0:0:0:
486,381,111036,2,0,L|505:307,1,60.0000022888184,0|0,1:0|0:0,0:0:0:0:
359,8,111585,6,0,B|329:30|329:30|351:115,1,120.000004577637,2|0,1:2|1:0,0:0:0:0:
349,110,112133,1,2,1:2:0:0:
418,176,112316,6,0,P|452:181|490:195,1,60.0000022888184,10|0,0:0|1:0,0:0:0:0:
247,95,112682,2,0,L|183:104,1,60.0000022888184,10|0,0:0|1:0,0:0:0:0:
16,215,113048,6,0,P|61:222|103:242,1,90.0000034332277,2|0,1:2|0:0,0:0:0:0:
111,236,113414,1,2,0:0:0:0:
18,306,113597,1,2,1:2:0:0:
167,325,113780,6,0,L|155:392,1,60.0000022888184,10|0,0:0|1:0,0:0:0:0:
351,287,114146,2,0,L|340:227,1,60.0000022888184,2|0,0:0|1:0,0:0:0:0:
413,360,114511,5,2,1:2:0:0:
264,280,114694,1,10,0:0:0:0:
424,185,114877,5,2,1:2:0:0:
473,245,115060,1,0,1:0:0:0:
417,178,115243,2,0,L|427:118,1,60.0000022888184,10|0,0:0|1:0,0:0:0:0:
215,107,115609,2,0,L|205:47,1,60.0000022888184,10|8,0:0|0:0,0:0:0:0:
333,0,115975,6,0,B|339:13|349:22|349:22|320:118,1,120.000004577637,2|0,1:2|0:0,0:0:0:0:
322,110,116524,5,2,1:2:0:0:
164,201,116707,2,0,B|101:185|124:164|47:147,1,120.000004577637,8|2,0:0|0:0,0:0:0:0:
375,297,117438,5,2,1:2:0:0:
447,320,117621,1,8,0:0:0:0:
365,311,117804,1,0,1:0:0:0:
131,369,118170,6,0,L|47:382,1,60.0000022888184,10|0,0:0|1:0,0:0:0:0:
225,260,118536,2,0,L|278:326,1,60.0000022888184,10|8,0:0|0:0,0:0:0:0:
65,153,118902,5,2,1:2:0:0:
102,183,119085,1,0,1:0:0:0:
60,204,119268,1,2,0:0:0:0:
124,81,119450,5,2,1:2:0:0:
65,297,119633,1,10,0:0:0:0:
191,248,119816,1,0,1:0:0:0:
5,77,119999,5,2,0:0:0:0:
3,68,120182,1,2,1:2:0:0:
189,0,120365,5,2,1:2:0:0:
292,152,120548,1,2,0:0:0:0:
195,163,120731,2,0,L|210:90,1,60.0000022888184,2|0,0:2|1:0,0:0:0:0:
111,117,121097,5,10,0:0:0:0:
201,325,121280,1,0,1:0:0:0:
133,384,121463,5,10,0:0:0:0:
263,259,121646,2,0,L|253:217,1,30.0000011444092,2|8,0:0|0:0,0:0:0:0:
24,182,121828,5,14,0:0:0:0:
459,79,130609,6,0,L|455:102,7,20,0|0|0|0|0|0|0|0,1:0|0:0|0:0|0:0|0:0|0:0|0:0|0:0,0:0:0:0:
383,153,131981,5,0,0:0:0:0:
383,153,132072,2,0,L|350:145,7,27.9999991455078,0|0|0|0|0|0|0|0,1:0|0:0|0:0|0:0|0:0|0:0|0:0|0:0,0:0:0:0:
477,247,133536,6,0,L|516:255,7,35.9999989013672,0|0|0|0|0|0|0|0,1:0|0:0|0:0|0:0|0:0|0:0|0:0|0:0,0:0:0:0:
326,331,134999,6,0,P|315:360|312:402,1,55.9999982910157,2|0,1:2|0:0,0:0:0:0:
398,293,135365,1,2,0:0:0:0:
249,200,135548,2,0,P|238:171|235:119,1,71.9999978027344,2|0,0:2|1:0,0:0:0:0:
105,373,135914,5,8,0:0:0:0:
60,371,136005,1,8,0:0:0:0:
22,345,136097,1,8,0:0:0:0:
6,303,136188,1,8,0:0:0:0:
20,259,136280,1,8,0:0:0:0:
49,258,136371,1,8,0:0:0:0:
65,275,136463,6,0,L|239:307,1,167.999994873047,4|8,1:0|0:0,0:0:0:0:
501,116,137011,2,0,L|327:148,1,167.999994873047,2|0,1:2|1:0,0:0:0:0:
387,322,137560,5,10,0:0:0:0:
477,295,137743,1,2,1:2:0:0:
273,219,137926,5,0,1:3:0:0:
452,373,138109,5,2,1:2:0:0:
411,238,138292,2,0,B|429:196|429:196|421:144,1,83.9999974365235,8|0,0:0|1:0,0:0:0:0:
117,276,138658,5,2,1:2:0:0:
195,97,138841,2,0,B|177:55|177:55|185:3,1,83.9999974365235,2|8,1:2|0:0,0:0:0:0:
271,0,139207,5,10,0:0:0:0:
3,131,139389,2,0,P|67:140|146:188,1,138.000002632141,6|0,1:2|0:0,0:0:0:0:
138,185,139755,1,10,0:0:0:0:
5,359,139938,2,0,P|11:312|32:263,1,83.9999974365235,2|0,1:2|0:0,0:0:0:0:
185,334,140304,5,2,1:2:0:0:
223,110,140487,2,0,P|229:157|250:206,1,83.9999974365235,10|0,0:2|1:0,0:0:0:0:
451,329,140853,5,2,1:2:0:0:
401,273,141036,1,0,1:0:0:0:
330,303,141219,1,10,0:0:0:0:
380,360,141402,1,0,1:0:0:0:
512,268,141585,5,10,0:0:0:0:
339,127,141768,1,8,0:3:0:0:
190,316,141950,1,8,0:3:0:0:
278,378,142133,1,8,0:0:0:0:
154,232,142316,6,0,L|12:258,1,113.999996955872,4|0,1:0|0:0,0:0:0:0:
35,234,142682,102,0,P|12:226|-32:204,1,37.9999989852906,8|0,0:0|0:0,0:0:0:0:
104,31,142865,2,0,B|111:54|111:54|112:67,1,37.9999989852906,2|0,1:2|0:0,0:0:0:0:
217,166,143048,1,0,0:0:0:0:
217,166,143139,1,0,0:0:0:0:
217,166,143231,2,0,P|196:158|175:150,1,37.9999989852906,2|0,1:2|0:0,0:0:0:0:
268,48,143414,5,8,0:0:0:0:
319,39,143505,1,2,0:1:0:0:
367,61,143597,1,2,1:0:0:0:
393,107,143688,1,2,0:1:0:0:
434,130,143780,2,0,P|455:122|487:108,2,50.6666653137207,2|2|2,1:2|0:1|0:1,0:0:0:0:
373,195,144146,6,0,L|278:172,1,75.9999979705811,8|2,0:0|1:0,0:0:0:0:
501,384,144511,1,2,0:1:0:0:
421,340,144694,2,0,L|326:363,1,75.9999979705811,2|8,1:0|0:0,0:0:0:0:
76,254,145060,1,8,0:0:0:0:
154,222,145243,6,0,B|173:307|173:307|147:388,2,167.999994873047,4|8|2,1:0|0:0|0:1,0:0:0:0:
47,50,146158,1,2,1:2:0:0:
125,59,146341,1,10,0:0:0:0:
173,0,146524,1,2,1:0:0:0:
0,176,146707,6,0,B|19:183|19:183|55:179|105:141,1,100,12|0,0:0|0:0,0:0:0:0:
91,151,147072,1,2,1:2:0:0:
368,375,147255,6,0,B|274:357|317:323|215:308,1,167.999994873047,12|0,0:0|0:0,0:0:0:0:
485,186,148902,5,4,0:0:0:0:
368,1,149085,1,8,0:3:0:0:
344,22,149176,1,8,0:3:0:0:
345,54,149268,2,0,L|412:64,1,60,6|0,1:2|0:0,0:0:0:0:
503,98,149633,6,0,P|418:101|357:171,1,167.999994873047,4|8,1:0|0:0,0:0:0:0:
46,221,150182,2,0,P|131:224|192:294,1,167.999994873047,2|2,1:2|1:2,0:0:0:0:
314,384,150731,2,0,L|333:302,1,83.9999974365235,10|0,0:0|1:0,0:0:0:0:
326,291,151005,1,8,0:0:0:0:
318,280,151097,5,2,1:2:0:0:
278,197,151280,1,2,0:0:0:0:
491,279,151463,1,10,0:0:0:0:
419,40,151646,2,0,L|445:179,1,125.999996154785,2|0,1:2|0:0,0:0:0:0:
381,232,152011,5,2,1:2:0:0:
309,9,152194,1,10,0:0:0:0:
512,72,152377,5,10,0:0:0:0:
331,144,152560,2,0,P|235:123|209:60,1,167.999994873047,2|10,1:2|0:0,0:0:0:0:
7,318,153109,2,0,P|58:294|143:285,1,125.999996154785,2|0,1:2|0:0,0:0:0:0:
142,273,153475,5,2,1:2:0:0:
0,144,153658,1,10,0:0:0:0:
180,37,153841,1,2,1:2:0:0:
112,170,154024,6,0,L|98:80,1,83.9999974365235,2|0,1:2|0:0,0:0:0:0:
284,248,154390,2,0,L|376:273,1,83.9999974365235,8|2,0:0|1:2,0:0:0:0:
505,191,154755,5,8,0:3:0:0:
467,184,154847,1,8,0:3:0:0:
435,204,154938,1,8,0:3:0:0:
201,302,155121,2,0,B|129:315|146:342|50:355,1,132.00000402832,12|0,0:0|0:0,0:0:0:0:
62,339,155487,5,2,1:2:0:0:
161,359,155670,1,2,1:2:0:0:
260,379,155853,1,2,0:0:0:0:
270,375,156036,2,0,P|307:367|341:364,1,71.9999978027344,2|8,1:2|0:0,0:0:0:0:
448,212,156402,5,2,1:2:0:0:
438,247,156585,1,2,0:0:0:0:
474,237,156768,1,2,0:0:0:0:
512,146,156950,5,2,1:2:0:0:
351,235,157133,1,8,0:0:0:0:
489,336,157316,5,0,1:0:0:0:
405,125,157499,2,0,P|410:85|421:29,1,71.9999978027344,2|8,1:2|0:0,0:0:0:0:
246,156,157865,5,0,1:0:0:0:
169,102,158048,1,10,0:0:0:0:
125,109,158139,1,8,0:0:0:0:
82,117,158230,1,8,0:0:0:0:
39,125,158322,1,8,0:0:0:0:
39,125,158414,6,0,L|205:149,1,160,2|8,1:2|0:0,0:0:0:0:
77,325,158963,1,0,1:0:0:0:
197,384,159146,2,0,B|211:342|211:342|202:303,1,80,2|0,0:0|1:0,0:0:0:0:
78,237,159511,2,0,L|-7:255,1,80,8|0,0:0|1:0,0:0:0:0:
250,329,159877,5,0,1:2:0:0:
370,367,160060,1,10,0:0:0:0:
495,180,160243,5,2,1:2:0:0:
335,230,160426,1,0,1:0:0:0:
470,305,160609,5,14,0:0:0:0:
354,76,160792,1,0,1:0:0:0:
412,23,160975,6,0,B|431:49|431:49|476:41|520:79,1,120,14|0,0:0|0:0,0:0:0:0:
486,97,161341,5,2,1:2:0:0:
299,181,161524,1,2,1:2:0:0:
188,121,161707,1,10,0:0:0:0:
264,0,161889,2,0,B|273:41|273:41|266:87,1,83.9999974365235,2|0,1:2|0:0,0:0:0:0:
43,225,162255,2,0,B|33:183|33:183|40:137,1,83.9999974365235,2|8,1:2|0:0,0:0:0:0:
243,263,162621,5,2,1:2:0:0:
258,276,162713,1,0,1:0:0:0:
254,291,162804,2,0,P|213:299|173:309,1,83.9999974365235,2|0,1:2|0:0,0:0:0:0:
372,165,163170,1,10,0:0:0:0:
431,238,163353,2,0,P|418:277|407:318,1,83.9999974365235,2|0,1:2|0:0,0:0:0:0:
262,154,163719,6,0,P|259:168|254:184,1,22.0000006713867,2|0,1:2|0:0,0:0:0:0:
293,63,163902,2,0,P|290:73|287:84,1,22.0000006713867,10|0,0:2|0:0,0:0:0:0:
239,0,164085,5,10,0:0:0:0:
372,165,164268,2,0,P|456:152|540:142,1,167.999994873047,2|10,1:2|0:0,0:0:0:0:
173,90,164816,2,0,P|124:99|75:107,1,83.9999974365235,2|0,1:2|0:0,0:0:0:0:
138,290,165182,2,0,P|146:245|158:207,1,83.9999974365235,2|8,1:2|0:0,0:0:0:0:
25,343,165548,1,2,1:2:0:0:
309,293,165731,5,2,1:2:0:0:
322,300,165914,1,0,0:0:0:0:
417,264,166097,5,8,0:0:0:0:
217,335,166280,1,2,1:2:0:0:
416,384,166463,5,8,0:3:0:0:
443,384,166554,1,8,0:3:0:0:
464,370,166646,1,4,0:3:0:0:
342,101,166828,2,0,P|318:147|332:196,1,83.9999974365235,12|0,0:2|0:2,0:2:0:0:
512,289,167194,5,2,1:2:0:0:
457,237,167377,1,2,1:2:0:0:
384,257,167560,1,2,0:0:0:0:
277,356,167743,6,0,L|205:344,1,71.9999978027344,2|8,1:2|0:0,0:0:0:0:
123,362,168109,1,2,1:2:0:0:
15,302,168292,1,2,0:0:0:0:
1,311,168475,1,2,1:2:0:0:
100,209,168658,5,2,1:2:0:0:
76,113,168841,1,10,0:0:0:0:
240,258,169024,5,2,1:2:0:0:
304,206,169207,2,0,L|375:217,1,71.9999978027344,2|8,1:2|0:0,0:0:0:0:
277,120,169572,5,0,1:0:0:0:
484,28,169755,1,10,0:0:0:0:
450,40,169847,1,8,0:0:0:0:
415,34,169938,1,8,0:0:0:0:
380,45,170030,1,8,0:0:0:0:
362,71,170121,6,0,L|188:84,1,160,2|8,1:2|0:0,0:0:0:0:
121,47,170670,1,0,1:0:0:0:
61,245,170853,101,2,0:0:0:0:
69,249,171036,1,0,1:0:0:0:
137,283,171219,101,8,0:0:0:0:
145,279,171402,1,0,1:0:0:0:
166,192,171585,5,2,1:2:0:0:
69,142,171768,1,8,0:0:0:0:
0,303,171951,1,2,1:2:0:0:
163,370,172133,1,0,1:0:0:0:
290,259,172316,5,12,0:0:0:0:
205,50,172499,1,0,1:0:0:0:
266,0,172682,5,12,0:0:0:0:
228,308,173048,5,4,1:0:0:0:
256,192,173139,12,0,175975,1:0:0:0:
