osu file format v14

[General]
AudioFilename: audio.mp3
AudioLeadIn: 0
PreviewTime: 1737
Countdown: 0
SampleSet: Soft
StackLeniency: 0.7
Mode: 0
LetterboxInBreaks: 0
WidescreenStoryboard: 1

[Editor]
DistanceSpacing: 1.2
BeatDivisor: 4
GridSize: 32
TimelineZoom: 1.6

[Metadata]
Title:Nine Point Eight
TitleUnicode:Nine Point Eight
Artist:Mili
ArtistUnicode:Mili
Creator:NeKroMan4ik
Version:Hard
Source:DEEMO
Tags:9.8 english rock fa featured artist video game momocashew cassie wei projectmili yamato kasai hamo project mag mell
BeatmapID:3976305
BeatmapSetID:1914266

[Difficulty]
HPDrainRate:4
CircleSize:4
OverallDifficulty:6
ApproachRate:8
SliderMultiplier:1.5
SliderTickRate:1

[Events]
//Background and Video events
0,0,"103486538_p0.jpg",0,0
//Break Periods
2,78126,96200
2,124755,129859
//Storyboard Layer 0 (Background)
//Storyboard Layer 1 (Fail)
//Storyboard Layer 2 (Pass)
//Storyboard Layer 3 (Foreground)
//Storyboard Layer 4 (Overlay)
//Storyboard Sound Samples

[TimingPoints]
1829,365.853658536585,4,2,0,70,1,0
18749,-100,4,2,0,5,0,0
18841,-100,4,2,0,70,0,0
25243,-111.111111111111,4,2,0,60,0,0
27804,-111.111111111111,4,2,0,60,0,0
28170,-111.111111111111,4,2,0,60,0,0
36950,-125,4,2,0,50,0,0
50121,-125,4,2,0,60,0,0
50853,-111.111111111111,4,2,0,60,0,0
51585,-95.2380952380952,4,2,0,75,0,0
57438,-111.111111111111,4,2,0,65,0,0
60365,-100,4,2,0,70,0,0
63292,-95.2380952380952,4,2,0,75,0,0
69146,-111.111111111111,4,2,0,65,0,0
72072,-95.2380952380952,4,2,0,70,0,0
77926,-100,4,2,0,20,0,0
98414,-100,4,2,0,75,0,0
99511,-111.111111111111,4,2,0,75,0,0
99877,-111.111111111111,4,2,0,75,0,0
104268,-100,4,2,0,65,0,0
106737,-100,4,2,0,5,0,0
106828,-100,4,2,0,65,0,0
106920,-100,4,2,0,5,0,0
107011,-100,4,2,0,65,0,0
110121,-125,4,2,0,55,0,0
130609,-399.999999999997,4,2,0,30,0,0
132072,-285.714285714284,4,2,0,30,0,0
133536,-222.222222222221,4,2,0,30,0,0
134999,-125,4,2,0,50,0,0
135548,-111.111111111111,4,2,0,50,0,0
136463,-95.2380952380952,4,2,0,80,0,0
142316,-100,4,2,0,80,0,0
147255,-333.333333333333,4,2,0,55,0,0
148902,-111.111111111111,4,2,0,55,0,0
149268,-111.111111111111,4,2,0,60,0,0
149633,-95.2380952380952,4,2,0,80,0,0
155486,-111.111111111111,4,2,0,80,0,0
158413,-100,4,2,0,80,0,0
161340,-95.2380952380952,4,2,0,80,0,0
163810,-95.2380952380952,4,2,0,5,0,0
163902,-95.2380952380952,4,2,0,80,0,0
163993,-95.2380952380952,4,2,0,5,0,0
164085,-95.2380952380952,4,2,0,80,0,0
167194,-111.111111111111,4,2,0,70,0,0
170120,-95.2380952380952,4,2,0,80,0,0
175974,-100,4,2,0,20,0,0

[Colours]
Combo1 : 233,188,139
Combo2 : 245,228,203

[HitObjects]
357,77,13536,6,0,P|311:144|223:124,1,150,4|8,1:0|0:0,0:0:0:0:
153,74,14085,2,0,P|192:60|234:44,1,75,2|2,0:0|0:0,0:0:0:0:
115,155,14450,1,0,1:0:0:0:
44,98,14633,2,0,P|52:57|59:13,1,75,8|0,0:0|0:0,0:0:0:0:
115,155,14999,6,0,P|130:223|142:307,1,150,2|10,1:2|0:0,0:0:0:0:
142,303,15731,1,2,0:0:0:0:
227,274,15914,1,2,1:2:0:0:
315,293,16097,1,8,0:0:0:0:
367,366,16280,1,2,0:0:0:0:
458,308,16463,6,0,L|429:183,1,112.5,6|0,1:2|0:0,0:0:0:0:
438,187,16828,2,0,L|533:202,1,75,8|0,0:0|0:0,0:0:0:0:
484,112,17194,1,2,0:0:0:0:
447,29,17377,1,2,1:2:0:0:
367,71,17560,2,0,L|272:86,1,75,8|0,0:0|0:0,0:0:0:0:
186,45,17926,6,0,P|123:68|115:130,1,112.5,2|0,1:2|0:0,0:0:0:0:
101,121,18292,2,0,P|115:168|151:184,1,75,10|0,0:0|0:0,0:0:0:0:
202,248,18658,1,2,0:0:0:0:
202,248,18841,5,2,1:2:0:0:
192,337,19024,1,8,1:2:0:0:
268,384,19207,1,8,0:0:0:0:
360,338,19389,6,0,P|398:345|443:365,1,75,4|0,1:2|1:0,0:0:0:0:
512,234,19755,2,0,P|476:246|429:254,1,75,8|2,0:0|0:0,0:0:0:0:
307,234,20121,1,0,0:0:0:0:
307,234,20304,1,2,1:2:0:0:
375,170,20487,2,0,L|356:81,1,75,8|2,0:0|0:0,0:0:0:0:
430,0,20853,6,0,P|500:12|506:92,1,150,2|8,1:2|0:0,0:0:0:0:
360,97,21585,1,2,0:0:0:0:
274,70,21768,1,0,1:0:0:0:
208,130,21950,1,10,0:0:0:0:
121,103,22133,1,2,0:0:0:0:
6,167,22316,6,0,B|31:173|31:173|73:220|56:274,1,112.5,4|0,1:2|0:0,0:0:0:0:
64,267,22682,2,0,P|29:314|4:323,1,75,8|2,0:0|0:0,0:0:0:0:
83,384,23048,1,0,0:0:0:0:
150,324,23231,1,2,1:2:0:0:
235,352,23414,2,0,P|275:359|316:369,1,75,8|0,0:0|0:0,0:0:0:0:
377,250,23780,6,0,P|400:313|462:321,1,112.5,2|0,1:2|0:0,0:0:0:0:
453,335,24146,2,0,P|500:321|516:285,1,75,8|0,0:0|0:0,0:0:0:0:
482,216,24511,5,2,0:0:0:0:
482,216,24694,1,0,1:0:0:0:
443,134,24877,1,14,0:0:0:0:
486,55,25060,1,2,1:2:0:0:
363,20,25243,6,0,B|287:29|299:-2|216:13,1,134.999995880127,4|10,1:0|0:0,0:0:0:0:
175,100,25792,2,0,P|129:58|41:70,1,134.999995880127,2|2,0:0|1:2,0:0:0:0:
0,115,26341,1,8,0:0:0:0:
56,187,26524,1,2,0:0:0:0:
56,187,26615,1,0,1:0:0:0:
56,187,26707,6,0,L|38:268,1,67.4999979400635,2|2,1:2|0:0,0:0:0:0:
99,346,27072,1,10,0:0:0:0:
155,288,27255,2,0,P|225:302|258:362,1,134.999995880127,2|2,0:0|1:2,0:0:0:0:
332,384,27804,1,8,0:0:0:0:
383,321,27987,1,10,0:0:0:0:
347,235,28170,6,0,P|330:152|317:96,1,134.999995880127,2|10,1:2|0:0,0:0:0:0:
378,47,28719,2,0,B|465:64|449:90|524:97,2,134.999995880127,2|0|8,0:0|1:0|0:0,0:0:0:0:
250,0,29633,2,0,P|201:46|122:41,1,134.999995880127,2|8,1:2|0:0,0:0:0:0:
48,204,30365,5,8,0:0:0:0:
127,187,30548,1,2,1:2:0:0:
186,242,30731,1,12,0:0:0:0:
186,251,30914,1,0,1:0:0:0:
131,322,31097,6,0,B|64:335|64:335|62:339|62:339|-25:356,1,134.999995880127,4|10,1:2|0:0,0:0:0:0:
77,376,31646,2,0,L|152:386,1,67.4999979400635,2|0,0:0|0:0,0:0:0:0:
229,331,32011,1,2,1:2:0:0:
298,289,32194,2,0,P|324:310|339:361,1,67.4999979400635,10|0,0:0|0:0,0:0:0:0:
221,243,32560,6,0,P|227:207|235:174,1,67.4999979400635,2|2,1:2|0:0,0:0:0:0:
115,188,32926,1,8,0:0:0:0:
115,188,33109,2,0,L|85:32,1,134.999995880127,2|2,0:0|1:2,0:0:0:0:
149,0,33658,1,10,0:0:0:0:
219,40,33841,1,8,0:0:0:0:
300,107,34024,6,0,L|453:90,1,134.999995880127,2|10,1:2|0:0,0:0:0:0:
467,18,34572,2,0,P|401:13|350:73,1,134.999995880127,2|8,0:0|0:2,0:0:0:0:
298,117,35121,2,0,P|314:156|323:193,1,67.4999979400635,2|8,0:0|0:0,0:0:0:0:
403,244,35487,6,0,P|449:234|477:232,1,67.4999979400635,2|0,1:2|0:0,0:0:0:0:
353,327,35853,2,0,P|307:317|279:315,1,67.4999979400635,10|0,0:0|0:0,0:0:0:0:
199,252,36219,5,2,1:2:0:0:
149,316,36402,1,8,0:0:0:0:
149,316,36493,1,8,0:0:0:0:
149,316,36585,2,0,L|159:361,3,33.7499989700318,2|8|8|8,1:2|0:0|0:0|0:0,0:0:0:0:
132,381,36950,6,0,P|69:378|36:326,1,120,2|0,1:2|0:0,0:0:0:0:
24,248,37499,1,0,1:0:0:0:
24,248,37682,2,0,L|93:259,2,60,8|0|0,0:0|1:0|0:0,0:0:0:0:
176,60,38414,6,0,P|198:142|282:156,1,180,2|2,1:2|1:2,0:0:0:0:
347,104,39146,2,0,L|421:118,1,60,10|0,0:0|1:0,0:0:0:0:
512,21,39511,2,0,P|483:28|453:32,1,60,10|8,0:0|0:0,0:0:0:0:
503,125,39877,6,0,P|491:152|473:216,1,90,2|0,1:2|0:0,0:0:0:0:
469,224,40243,2,0,L|484:291,1,60,2|2,0:0|1:2,0:0:0:0:
378,375,40609,2,0,L|389:314,1,60,10|0,0:0|1:0,0:0:0:0:
324,260,40975,2,0,P|291:268|252:275,1,60,2|0,0:0|1:0,0:0:0:0:
181,335,41341,5,2,1:2:0:0:
111,287,41524,1,10,0:0:0:0:
111,287,41707,2,0,L|96:218,1,60,2|0,1:2|1:0,0:0:0:0:
159,166,42072,2,0,P|188:171|221:179,1,60,10|0,0:0|1:0,0:0:0:0:
62,111,42438,2,0,P|33:106|0:98,1,60,10|8,0:0|0:0,0:0:0:0:
119,34,42804,6,0,P|180:26|243:16,1,120,2|0,1:2|0:0,0:0:0:0:
237,16,43353,1,2,1:2:0:0:
298,72,43536,1,8,0:0:0:0:
190,261,43902,2,0,P|177:235|177:202,1,60,2|0,0:0|0:0,0:0:0:0:
244,154,44268,6,0,P|276:164|313:171,2,60,2|8|0,1:2|0:0|1:0,0:0:0:0:
90,316,44999,2,0,P|124:324|160:338,1,60,10|0,0:0|1:0,0:0:0:0:
214,383,45365,2,0,L|274:373,1,60,10|8,0:0|0:0,0:0:0:0:
368,307,45731,6,0,L|444:324,1,60,2|0,1:2|1:0,0:0:0:0:
495,270,46097,1,2,0:0:0:0:
495,270,46280,1,2,1:2:0:0:
438,208,46463,2,0,L|424:126,1,60,10|0,0:0|1:0,0:0:0:0:
347,64,46828,5,2,0:0:0:0:
347,64,47011,1,2,0:2:0:0:
418,19,47194,2,0,P|447:26|495:35,1,60,2|2,1:2|0:0,0:0:0:0:
512,125,47560,2,0,P|483:118|435:109,1,60,2|0,0:2|1:0,0:0:0:0:
354,174,47926,6,0,P|325:181|277:190,1,60,10|0,0:0|1:0,0:0:0:0:
260,280,48292,2,0,P|289:273|337:264,1,60,10|2,0:0|0:0,0:0:0:0:
318,267,48566,1,8,0:0:0:0:
318,267,48658,1,14,0:0:0:0:
326,275,50853,5,4,0:0:0:0:
282,206,51036,2,0,L|290:161,2,33.7499989700318,8|8|6,0:3|0:3|1:2,0:0:0:0:
0,51,51585,6,0,P|58:50|151:-6,1,157.499995193482,4|10,1:0|0:0,0:0:0:0:
93,83,52133,2,0,P|78:122|83:173,1,78.7499975967408,2|0,1:2|0:0,0:0:0:0:
143,228,52499,2,0,P|184:234|226:245,1,78.7499975967408,0|10,1:0|0:0,0:0:0:0:
381,193,52865,5,0,1:0:0:0:
381,193,52957,1,8,0:0:0:0:
381,193,53048,1,2,1:2:0:0:
419,106,53231,1,2,0:0:0:0:
329,74,53414,1,10,0:0:0:0:
293,161,53597,2,0,L|316:322,1,157.499995193482,2|2,1:2|1:2,0:0:0:0:
426,384,54146,1,10,0:0:0:0:
495,320,54328,1,10,0:0:0:0:
471,208,54511,6,0,B|462:193|446:185|446:185|484:43,1,157.499995193482,2|10,1:2|0:0,0:0:0:0:
409,0,55060,2,0,P|346:25|355:91,1,118.124996395111,2|0,1:2|0:0,0:0:0:0:
350,85,55426,1,2,1:2:0:0:
265,126,55609,1,10,0:0:0:0:
184,75,55792,1,2,1:2:0:0:
99,140,55975,6,0,B|61:153|61:153|4:152,1,78.7499975967408,2|0,1:2|0:0,0:0:0:0:
189,211,56341,2,0,B|184:248|184:248|199:301,1,78.7499975967408,8|2,0:0|1:2,0:0:0:0:
125,365,56707,2,0,L|57:375,2,39.3749987983704,8|8|8,0:3|0:3|0:3,0:0:0:0:
212,299,57072,2,0,B|271:314|257:334|326:350,1,118.124996395111,12|0,0:0|0:0,0:0:0:0:
357,338,57438,6,0,P|390:348|426:363,2,67.4999979400635,2|2|2,1:2|1:2|0:0,0:0:0:0:
432,261,57987,2,0,P|465:253|504:248,1,67.4999979400635,2|8,1:2|0:0,0:0:0:0:
394,177,58353,5,2,1:2:0:0:
394,177,58536,1,2,0:0:0:0:
445,110,58719,1,2,1:2:0:0:
445,110,58902,1,2,1:2:0:0:
392,48,59085,2,0,L|309:63,1,67.4999979400635,8|0,0:0|1:0,0:0:0:0:
257,109,59450,1,2,1:2:0:0:
187,66,59633,2,0,L|200:-22,1,67.4999979400635,8|0,0:0|1:0,0:0:0:0:
84,47,59999,1,10,0:0:0:0:
84,47,60091,1,8,0:0:0:0:
84,47,60182,1,8,0:0:0:0:
84,47,60274,1,8,0:0:0:0:
84,47,60365,6,0,P|41:72|35:173,1,150,2|8,1:2|0:0,0:0:0:0:
135,222,60914,1,0,1:0:0:0:
75,358,61097,2,0,P|63:315|77:284,1,75,2|0,0:0|1:0,0:0:0:0:
135,222,61463,2,0,L|214:238,1,75,8|0,0:0|1:0,0:0:0:0:
315,339,61828,5,0,1:2:0:0:
393,302,62011,1,10,0:0:0:0:
306,328,62194,2,0,L|403:353,1,75,2|0,1:2|1:0,0:0:0:0:
508,282,62560,5,14,0:0:0:0:
483,195,62743,1,0,1:0:0:0:
456,108,62926,2,0,L|484:-1,1,112.5,14|0,0:0|0:0,0:0:0:0:
463,0,63292,5,2,1:2:0:0:
384,52,63475,1,2,1:2:0:0:
301,5,63658,1,10,0:0:0:0:
231,68,63841,2,0,L|214:159,1,78.7499975967408,2|0,1:2|0:0,0:0:0:0:
278,217,64207,2,0,P|316:210|361:206,1,78.7499975967408,2|8,1:2|0:0,0:0:0:0:
216,145,64573,5,2,1:2:0:0:
127,102,64755,2,0,P|88:108|44:113,1,78.7499975967408,2|0,1:2|0:0,0:0:0:0:
93,201,65121,1,10,0:0:0:0:
0,220,65304,2,0,P|6:258|11:303,1,78.7499975967408,2|0,1:2|0:0,0:0:0:0:
104,365,65670,1,2,1:2:0:0:
183,313,65853,1,10,0:0:0:0:
272,342,66036,1,10,0:0:0:0:
364,294,66219,6,0,B|456:316|405:328|518:356,1,157.499995193482,2|10,1:2|0:0,0:0:0:0:
455,274,66768,2,0,B|434:165|434:165|475:118,2,157.499995193482,2|2|0,1:2|1:2|1:0,0:0:0:0:
390,343,67682,5,2,1:2:0:0:
390,343,67865,1,0,0:0:0:0:
308,294,68048,2,0,P|269:286|231:275,1,78.7499975967408,8|2,0:0|1:2,0:0:0:0:
172,350,68414,2,0,P|133:342|95:331,1,78.7499975967408,8|0,0:0|1:0,0:0:0:0:
59,308,68688,1,8,0:0:0:0:
59,308,68780,2,0,P|48:265|29:216,1,78.7499975967408,4|8,1:2|1:2,0:0:0:0:
35,112,69146,6,0,P|2:129|-7:175,2,67.4999979400635,2|2|2,1:2|1:2|0:0,0:0:0:0:
113,151,69694,2,0,L|187:141,1,67.4999979400635,2|8,1:2|0:0,0:0:0:0:
269,89,70060,5,2,1:2:0:0:
269,89,70243,1,2,0:0:0:0:
347,137,70426,1,2,1:2:0:0:
412,78,70609,2,0,L|397:-5,1,67.4999979400635,2|10,1:2|0:0,0:0:0:0:
347,137,70975,1,2,1:2:0:0:
414,192,71158,2,0,L|487:206,1,67.4999979400635,2|8,1:2|0:0,0:0:0:0:
430,277,71524,1,0,1:0:0:0:
489,366,71706,1,10,0:0:0:0:
489,366,71798,1,8,0:0:0:0:
489,366,71889,1,8,0:0:0:0:
489,366,71981,1,8,0:0:0:0:
489,366,72072,6,0,L|332:383,1,157.499995193482,2|8,1:2|0:0,0:0:0:0:
248,337,72621,1,0,1:0:0:0:
291,253,72804,2,0,B|311:231|311:231|281:95,1,157.499995193482,2|8,0:0|0:0,0:0:0:0:
212,43,73353,1,0,1:0:0:0:
145,110,73536,5,2,1:2:0:0:
56,76,73719,2,0,L|37:-4,2,78.7499975967408,10|2|0,0:0|1:2|1:0,0:0:0:0:
146,196,74268,2,0,L|161:118,1,78.7499975967408,14|0,0:0|1:0,0:0:0:0:
51,227,74633,5,12,0:0:0:0:
201,341,74999,1,4,1:0:0:0:
256,192,75091,12,0,77926,1:0:0:0:
256,192,96950,12,0,98048,0:0:0:0:
169,34,98414,6,0,P|131:43|91:50,1,75,6|2,1:2|0:0,0:0:0:0:
377,103,99511,6,0,P|430:118|449:131,1,67.4999979400635,2|0,0:0|0:0,0:0:0:0:
429,205,99877,1,14,0:0:0:0:
373,274,100060,2,0,P|427:248|504:247,2,134.999995880127,2|2|2,0:1|0:1|0:1,0:0:0:0:
278,324,100975,5,10,0:0:0:0:
213,274,101158,1,10,1:2:0:0:
255,204,101341,2,0,P|250:162|239:133,1,67.4999979400635,6|0,1:2|0:0,0:0:0:0:
158,55,101707,2,0,P|153:97|142:126,1,67.4999979400635,10|8,0:2|0:1,0:0:0:0:
136,129,101981,1,8,0:1:0:0:
129,137,102072,2,0,L|50:149,1,67.4999979400635,8|8,0:0|0:1,0:0:0:0:
55,154,102347,1,8,0:1:0:0:
48,162,102438,1,8,0:0:0:0:
102,250,102621,5,8,0:0:0:0:
41,313,102804,2,0,P|33:344|25:391,1,67.4999979400635,8|0,0:0|1:0,0:0:0:0:
142,328,103170,2,0,P|158:355|185:394,1,67.4999979400635,8|0,0:0|1:0,0:0:0:0:
224,267,103536,2,0,P|254:274|301:282,1,67.4999979400635,8|0,0:0|1:0,0:0:0:0:
385,233,103902,2,0,P|401:228|417:222,3,33.7499989700318,8|8|8|8,0:0|0:0|0:0|0:0,0:0:0:0:
445,187,104268,6,0,P|449:132|401:39,1,150,4|10,1:2|0:0,0:0:0:0:
333,1,104816,2,0,B|321:14|314:25|314:25|249:14|193:44,1,150,2|2,0:0|1:2,0:0:0:0:
107,38,105365,2,0,P|81:94|81:128,1,75,8|0,0:0|0:0,0:0:0:0:
23,177,105731,5,2,1:2:0:0:
23,177,105914,1,2,0:0:0:0:
68,254,106097,1,10,0:0:0:0:
155,231,106280,2,0,P|191:238|223:258,1,75,2|0,0:0|0:2,0:0:0:0:
301,338,106646,1,2,1:2:0:0:
374,286,106828,1,10,0:2:0:0:
455,323,107011,1,2,0:0:0:0:
501,242,107194,6,0,B|511:227|511:227|509:143|444:101,1,150,2|10,1:2|0:0,0:0:0:0:
384,58,107743,2,0,P|343:69|297:75,1,75,2|0,0:0|0:0,0:0:0:0:
238,127,108109,1,2,1:2:0:0:
300,192,108292,2,0,P|311:233|317:279,1,75,8|0,0:0|0:0,0:0:0:0:
249,326,108658,6,0,P|244:350|241:375,2,50,10|8|8,0:0|0:0|0:0,0:0:0:0:
197,293,109024,2,0,P|161:306|125:315,2,50,10|8|8,0:2|0:0|0:0,0:0:0:0:
188,233,109389,6,0,P|137:212|93:221,1,75,10|4,0:0|0:3,0:0:0:0:
79,234,109664,1,4,0:3:0:0:
79,234,109755,1,4,0:3:0:0:
26,173,109938,1,4,0:3:0:0:
26,173,110030,1,4,0:3:0:0:
26,173,110121,6,0,P|7:108|43:54,1,120,2|0,1:2|0:0,0:0:0:0:
93,6,110670,1,0,1:0:0:0:
93,6,110853,2,0,L|162:17,2,60,8|0|0,0:0|1:0|0:0,0:0:0:0:
254,115,111585,6,0,B|275:233|275:233|239:231|208:261,1,180,2|2,1:2|1:2,0:0:0:0:
165,316,112317,2,0,L|97:306,1,60,10|0,0:0|1:0,0:0:0:0:
233,381,112682,2,0,L|301:371,1,60,10|0,0:0|1:0,0:0:0:0:
352,312,113048,6,0,P|380:316|415:327,1,60,2|0,1:2|0:0,0:0:0:0:
481,278,113414,1,2,0:0:0:0:
481,278,113597,1,2,1:2:0:0:
438,205,113780,2,0,P|442:177|453:142,1,60,10|0,0:0|1:0,0:0:0:0:
455,62,114146,2,0,P|484:55|512:44,1,60,2|0,0:0|1:0,0:0:0:0:
367,103,114512,5,2,1:2:0:0:
367,103,114695,1,10,0:0:0:0:
301,50,114877,2,0,P|271:43|243:32,1,60,2|0,1:2|1:0,0:0:0:0:
174,80,115243,2,0,L|186:142,1,60,10|0,0:0|1:0,0:0:0:0:
123,196,115609,2,0,P|95:184|65:178,1,60,10|8,0:0|0:0,0:0:0:0:
159,284,115975,6,0,P|207:269|284:272,1,120,2|0,1:2|0:0,0:0:0:0:
276,270,116524,1,2,1:2:0:0:
315,344,116707,1,8,0:0:0:0:
433,225,117073,2,0,P|432:195|419:168,1,60,2|0,0:0|0:0,0:0:0:0:
356,112,117439,6,0,L|284:122,2,60,2|8|0,1:2|0:0|1:0,0:0:0:0:
209,29,118170,2,0,P|175:21|139:7,1,60,10|0,0:0|1:0,0:0:0:0:
100,80,118536,2,0,P|66:88|30:102,1,60,10|8,0:0|0:0,0:0:0:0:
0,169,118902,6,0,L|18:230,1,60,2|0,1:2|1:0,0:0:0:0:
83,286,119268,1,2,0:0:0:0:
83,286,119451,1,2,1:2:0:0:
153,241,119633,2,0,L|214:259,1,60,10|0,0:0|1:0,0:0:0:0:
270,324,119999,1,2,0:0:0:0:
270,324,120182,1,2,1:2:0:0:
345,255,120365,6,0,L|360:187,1,60,2|2,1:2|0:0,0:0:0:0:
425,145,120731,2,0,P|454:152|502:161,1,60,2|0,0:2|1:0,0:0:0:0:
387,14,121097,2,0,L|372:82,1,60,10|0,0:0|1:0,0:0:0:0:
307,124,121463,2,0,P|278:117|230:108,1,60,10|2,0:0|0:0,0:0:0:0:
218,132,121737,1,8,0:0:0:0:
218,132,121829,1,14,0:0:0:0:
101,52,130609,6,0,L|103:33,7,18.75,0|0|0|0|0|0|0|0,1:0|0:0|0:0|0:0|0:0|0:0|0:0|0:0,0:0:0:0:
31,111,132072,6,0,L|2:123,7,26.2499991989136,0|0|0|0|0|0|0|0,1:0|0:0|0:0|0:0|0:0|0:0|0:0|0:0,0:0:0:0:
119,142,133536,6,0,L|141:175,7,33.7499989700318,0|0|0|0|0|0|0|0,1:0|0:0|0:0|0:0|0:0|0:0|0:0|0:0,0:0:0:0:
211,214,134999,6,0,P|250:202|285:199,1,60,2|0,1:2|0:0,0:0:0:0:
342,155,135365,1,2,0:0:0:0:
342,155,135548,2,0,P|381:167|416:170,1,67.4999979400635,2|0,0:2|1:0,0:0:0:0:
487,115,135914,1,8,0:0:0:0:
487,115,136005,1,8,0:0:0:0:
487,115,136097,2,0,L|476:68,3,33.7499989700318,8|8|8|8,0:0|0:0|0:0|0:0,0:0:0:0:
496,37,136463,6,0,P|410:30|331:-4,1,157.499995193482,4|8,1:0|0:0,0:0:0:0:
249,0,137011,2,0,P|200:67|224:146,1,157.499995193482,2|0,1:2|1:0,0:0:0:0:
282,202,137560,5,10,0:0:0:0:
361,252,137743,2,0,P|401:242|458:242,1,78.7499975967408,2|0,1:2|1:3,0:0:0:0:
282,202,138109,1,2,1:2:0:0:
263,294,138292,2,0,P|291:323|320:373,1,78.7499975967408,8|0,0:0|1:0,0:0:0:0:
282,202,138658,1,2,1:2:0:0:
193,236,138841,2,0,P|181:275|153:325,1,78.7499975967408,2|8,1:2|0:0,0:0:0:0:
25,379,139207,5,10,0:0:0:0:
60,292,139389,2,0,L|26:114,1,157.499995193482,6|10,1:2|0:0,0:0:0:0:
93,66,139938,2,0,P|130:76|170:80,1,78.7499975967408,2|0,1:2|0:0,0:0:0:0:
262,57,140304,1,2,1:2:0:0:
318,132,140487,2,0,P|355:142|395:146,1,78.7499975967408,10|0,0:2|1:0,0:0:0:0:
502,12,140853,6,0,P|474:39|451:71,1,78.7499975967408,2|0,1:2|1:0,0:0:0:0:
512,233,141219,2,0,P|502:195|485:159,1,78.7499975967408,10|0,0:0|1:0,0:0:0:0:
395,146,141585,1,10,0:0:0:0:
333,217,141768,1,8,0:3:0:0:
328,310,141950,1,8,0:3:0:0:
240,346,142133,1,8,0:0:0:0:
151,274,142316,6,0,L|181:121,1,150,4|8,1:0|0:0,0:0:0:0:
110,60,142865,1,2,1:2:0:0:
110,60,142957,1,0,0:0:0:0:
110,60,143048,2,0,L|96:13,3,37.5,0|0|2|0,1:0|0:0|1:2|0:0,0:0:0:0:
59,1,143414,2,0,L|12:15,3,37.5,8|2|2|2,0:0|0:1|1:0|0:1,0:0:0:0:
0,52,143780,5,2,1:2:0:0:
0,52,143963,1,2,1:0:0:0:
0,52,144146,2,0,L|20:134,1,75,8|2,0:0|1:0,0:0:0:0:
87,181,144511,1,2,0:1:0:0:
158,236,144694,2,0,L|178:154,1,75,2|8,1:0|0:0,0:0:0:0:
245,107,145059,1,8,0:0:0:0:
337,166,145243,6,0,B|405:155|386:129|494:126,2,150,4|8|2,1:0|0:0|0:1,0:0:0:0:
337,166,146158,1,2,1:2:0:0:
271,227,146341,2,0,L|291:309,1,75,10|2,0:0|1:0,0:0:0:0:
370,365,146707,2,0,P|416:356|385:279,1,150,12|2,0:0|1:2,0:0:0:0:
288,299,147255,6,0,P|217:332|131:328,1,157.499995193482,12|0,0:0|0:0,0:0:0:0:
37,206,148902,5,4,0:0:0:0:
85,140,149085,2,0,L|74:91,2,33.7499989700318,8|8|6,0:3|0:3|1:2,0:0:0:0:
331,141,149633,6,0,P|339:85|274:-1,1,157.499995193482,4|8,1:0|0:0,0:0:0:0:
192,21,150181,2,0,P|177:60|182:111,1,78.7499975967408,2|0,1:2|0:0,0:0:0:0:
164,190,150547,2,0,P|205:196|247:207,1,78.7499975967408,2|10,1:2|0:0,0:0:0:0:
396,264,150913,5,0,1:0:0:0:
396,264,151005,1,8,0:0:0:0:
396,264,151096,1,2,1:2:0:0:
434,351,151279,1,2,0:0:0:0:
344,383,151462,1,10,0:0:0:0:
308,296,151645,2,0,L|331:135,1,157.499995193482,2|2,1:2|1:2,0:0:0:0:
406,83,152194,1,10,0:0:0:0:
478,142,152376,1,10,0:0:0:0:
474,236,152559,6,0,P|486:316|418:363,1,157.499995193482,2|10,1:2|0:0,0:0:0:0:
350,299,153109,2,0,P|317:319|224:334,1,118.124996395111,2|0,1:2|0:0,0:0:0:0:
198,358,153474,1,2,1:2:0:0:
113,317,153657,1,10,0:0:0:0:
32,368,153840,1,2,1:2:0:0:
0,271,154024,6,0,B|13:233|13:233|12:176,1,78.7499975967408,2|0,1:2|0:0,0:0:0:0:
63,114,154389,2,0,B|101:101|101:101|158:102,1,78.7499975967408,8|2,0:0|1:2,0:0:0:0:
202,173,154755,2,0,L|192:233,2,39.3749987983704,8|8|8,0:3|0:3|0:3,0:0:0:0:
259,99,155120,2,0,B|318:84|304:64|373:48,1,118.124996395111,12|0,0:0|0:0,0:0:0:0:
376,41,155486,6,0,P|409:31|445:16,2,67.4999979400635,2|2|2,1:2|1:2|0:0,0:0:0:0:
446,123,156035,2,0,P|479:131|518:136,1,67.4999979400635,2|8,1:2|0:0,0:0:0:0:
394,207,156401,5,2,1:2:0:0:
394,207,156584,1,2,0:0:0:0:
445,274,156767,1,2,0:0:0:0:
445,274,156950,1,2,1:2:0:0:
392,336,157133,2,0,L|309:321,1,67.4999979400635,8|0,0:0|1:0,0:0:0:0:
257,275,157498,1,2,1:2:0:0:
187,318,157681,2,0,L|200:406,1,67.4999979400635,8|0,0:0|1:0,0:0:0:0:
84,337,158047,1,10,0:0:0:0:
84,337,158139,1,8,0:0:0:0:
84,337,158230,1,8,0:0:0:0:
84,337,158322,1,8,0:0:0:0:
84,337,158413,6,0,P|41:312|35:211,1,150,2|8,1:2|0:0,0:0:0:0:
98,160,158962,1,0,1:0:0:0:
172,210,159146,2,0,P|208:199|244:192,1,75,2|0,0:0|1:0,0:0:0:0:
379,133,159511,2,0,P|342:122|306:115,1,75,8|0,0:0|1:0,0:0:0:0:
224,34,159876,5,0,1:2:0:0:
146,71,160059,1,10,0:0:0:0:
233,45,160242,2,0,L|136:20,1,75,2|0,1:2|1:0,0:0:0:0:
37,97,160608,5,14,0:0:0:0:
62,184,160791,1,0,1:0:0:0:
95,267,160974,2,0,L|210:294,1,112.5,14|0,0:0|0:0,0:0:0:0:
247,271,161340,5,2,1:2:0:0:
337,243,161523,1,2,1:2:0:0:
405,308,161706,1,10,0:0:0:0:
479,249,161889,2,0,L|499:159,1,78.7499975967408,2|0,1:2|0:0,0:0:0:0:
426,107,162255,2,0,P|384:116|340:121,1,78.7499975967408,2|8,1:2|0:0,0:0:0:0:
271,175,162621,5,2,1:2:0:0:
176,179,162804,2,0,P|134:170|90:165,1,78.7499975967408,2|0,1:2|0:0,0:0:0:0:
108,259,163169,1,10,0:0:0:0:
15,237,163353,2,0,P|24:279|29:323,1,78.7499975967408,2|0,1:2|0:0,0:0:0:0:
99,376,163718,1,2,1:2:0:0:
184,335,163901,1,10,0:2:0:0:
274,363,164084,1,10,0:0:0:0:
352,296,164268,6,0,B|331:187|331:187|372:140,1,157.499995193482,2|10,1:2|0:0,0:0:0:0:
427,83,164816,2,0,B|456:73|456:73|514:100|508:180,2,157.499995193482,2|2|2,1:2|1:2|1:2,0:0:0:0:
341,55,165730,5,2,1:2:0:0:
341,55,165913,1,0,0:0:0:0:
270,118,166096,2,0,P|232:107|194:99,1,78.7499975967408,8|2,0:0|1:2,0:0:0:0:
108,55,166463,2,0,P|74:74|41:96,1,78.7499975967408,8|4,0:3|0:3,0:0:0:0:
17,187,166828,2,0,P|28:225|36:263,1,78.7499975967408,12|0,0:2|0:2,0:2:0:0:
124,318,167194,6,0,L|111:389,2,67.4999979400635,2|2|2,1:2|1:2|0:0,0:0:0:0:
184,264,167742,2,0,L|257:255,1,67.4999979400635,2|8,1:2|0:0,0:0:0:0:
320,306,168108,5,2,1:2:0:0:
320,306,168291,1,2,0:0:0:0:
398,258,168474,1,2,1:2:0:0:
463,317,168657,2,0,L|448:400,1,67.4999979400635,2|10,1:2|0:0,0:0:0:0:
398,258,169023,1,2,1:2:0:0:
338,203,169206,2,0,L|322:129,1,67.4999979400635,2|8,1:2|0:0,0:0:0:0:
259,87,169572,1,0,1:0:0:0:
163,38,169754,1,10,0:0:0:0:
163,38,169846,1,8,0:0:0:0:
163,38,169937,1,8,0:0:0:0:
163,38,170029,1,8,0:0:0:0:
163,38,170120,6,0,P|87:79|75:170,1,157.499995193482,2|8,1:2|0:0,0:0:0:0:
20,225,170669,1,0,1:0:0:0:
81,297,170853,2,0,P|136:276|246:282,1,157.499995193482,2|8,0:0|0:0,0:0:0:0:
301,344,171401,1,0,1:0:0:0:
381,293,171585,6,0,P|439:308|470:319,1,78.7499975967408,2|8,1:2|0:0,0:0:0:0:
417,198,171950,2,0,P|469:168|498:153,1,78.7499975967408,2|0,1:2|1:0,0:0:0:0:
375,105,172316,2,0,P|390:47|401:16,1,78.7499975967408,12|0,0:0|1:0,0:0:0:0:
279,68,172682,5,12,0:0:0:0:
417,198,173047,1,4,1:0:0:0:
256,192,173139,12,0,175974,1:0:0:0:
