osu file format v14

[General]
AudioFilename: Deemo - Nine Point Eight.mp3
AudioLeadIn: 533
PreviewTime: 50495
Countdown: 0
SampleSet: Soft
StackLeniency: 0.7
Mode: 0
LetterboxInBreaks: 0
WidescreenStoryboard: 0

[Editor]
DistanceSpacing: 1.1
BeatDivisor: 2
GridSize: 4
TimelineZoom: 0.7999998

[Metadata]
Title:Nine Point Eight
TitleUnicode:Nine Point Eight
Artist:Mili
ArtistUnicode:Mili
Creator:JeZag
Version:Normal
Source:Deemo
Tags:vocal piano 9.8 projectmili mag mell Rayark games collection collection_1 selection cytus hamoloid HanzeR Okoratu
BeatmapID:361651
BeatmapSetID:131147

[Difficulty]
HPDrainRate:3
CircleSize:3
OverallDifficulty:4
ApproachRate:5
SliderMultiplier:1
SliderTickRate:1

[Events]
//Background and Video events
0,0,"BG1.jpg",0,0
//Break Periods
2,76301,85145
2,100813,108559
//Storyboard Layer 0 (Background)
//Storyboard Layer 1 (Fail)
//Storyboard Layer 2 (Pass)
//Storyboard Layer 3 (Foreground)
//Storyboard Sound Samples

[TimingPoints]
1467,365.853658536585,4,2,2,25,1,0
13174,-100,4,2,1,40,0,0
36588,-100,4,2,1,35,0,0
49759,-100,4,2,1,55,0,0
50491,-100,4,2,1,45,0,0
51223,-100,4,2,1,50,0,1
57076,-100,4,2,1,50,0,0
62930,-100,4,2,1,50,0,1
68784,-100,4,2,1,50,0,0
71710,-100,4,2,1,50,0,1
74637,-100,4,2,2,25,0,0
74729,-100,4,2,2,15,0,0
86345,-100,4,2,2,25,0,0
87808,-100,4,2,2,26,0,0
89271,-100,4,2,2,27,0,0
90735,-100,4,2,2,28,0,0
92198,-133.333333333333,4,2,2,29,0,0
93662,-133.333333333333,4,2,2,30,0,0
94759,-100,4,2,2,30,0,0
95125,-100,4,2,2,33,0,0
96588,-100,4,2,2,35,0,0
97503,-100,4,2,2,43,0,0
98052,-100,4,2,1,40,0,0
98143,-100,4,2,0,15,0,0
109759,-100,4,2,1,60,0,0
110491,-100,4,2,1,40,0,0
111223,-100,4,2,1,50,0,1
117076,-100,4,2,1,50,0,0
122930,-100,4,2,1,50,0,1
128784,-100,4,2,1,50,0,0
131710,-100,4,2,1,50,0,1
134637,-100,4,2,1,50,0,0
134820,-100,4,2,2,15,0,0

[Colours]
Combo1 : 218,159,37
Combo2 : 255,128,192
Combo3 : 172,89,255
Combo4 : 244,62,89

[HitObjects]
330,236,1467,6,0,B|353:264|417:290|417:290|426:361,2,150,8|2|2,2:0|2:0|0:0,0:0:0:0:
232,188,2930,2,0,B|172:183|118:209|118:209|103:238,2,150,8|2|2,2:0|2:0|0:0,0:0:0:0:
318,118,4393,6,0,B|364:103|364:103|433:19,2,150,8|2|2,2:0|2:0|0:0,0:0:0:0:
205,115,5857,2,0,B|241:208|241:208|298:226,2,150,8|2|2,2:0|2:0|0:0,0:0:0:0:
138,29,7320,38,0,P|99:91|108:164,2,150,8|2|2,2:0|0:0|0:0,0:0:0:0:
230,89,8784,2,0,B|292:128|292:128|378:113,2,150,8|2|2,2:0|2:0|0:0,0:0:0:0:
219,198,10247,6,0,B|209:252|175:303|175:303|111:316,2,150,8|2|2,2:0|2:0|0:0,0:0:0:0:
309,135,11710,2,0,P|387:114|465:158,1,150,8|2,2:0|2:0,0:0:0:0:
310,287,13174,38,0,P|254:310|199:301,2,100,4|8|0,0:0|0:0|0:0,0:0:0:0:
398,220,14271,2,0,P|453:205|508:218,2,100,8|2|8,0:0|0:0|0:0,0:0:0:0:
293,189,15369,2,0,P|253:149|237:101,1,100,2|2,0:0|0:0,0:0:0:0:
296,16,16102,6,0,B|348:4|401:41,2,100,4|8|0,0:0|0:0|0:0,0:0:0:0:
189,45,17199,2,0,B|136:68|121:128,2,100,8|2|8,0:0|0:0|0:0,0:0:0:0:
272,118,18296,2,0,B|304:158|368:150,1,100,8|4,3:0|3:0,0:0:0:0:
440,72,19027,38,0,B|408:32|344:40,1,100,4|8,0:0|0:0,0:0:0:0:
272,118,19759,1,0,0:0:0:0:
372,156,20126,2,0,P|405:191|418:249,1,100,8|0,0:0|0:0,0:0:0:0:
308,248,20857,1,8,0:0:0:0:
369,339,21223,2,0,B|415:362|470:338,1,100,2|2,0:0|0:0,0:0:0:0:
419,240,21955,6,0,B|401:187|425:135,1,100,4|8,0:0|0:0,0:0:0:0:
476,46,22687,1,0,0:0:0:0:
366,47,23053,2,0,B|300:51|256:27,1,100,8|0,0:0|0:0,0:0:0:0:
163,67,23784,1,8,2:2:0:0:
148,176,24150,2,0,B|151:235|185:268,1,100,2|4,0:0|0:0,0:0:0:0:
273,330,24882,37,8,0:0:0:0:
376,294,25247,2,0,L|335:245,1,50,10|2,0:0|0:0,0:0:0:0:
288,161,25796,2,0,P|368:168|423:155,1,100,2|2,0:0|0:0,0:0:0:0:
439,147,26345,1,8,0:0:0:0:
480,45,26711,2,0,P|454:37|414:46,1,50,2|8,0:0|0:0,0:0:0:0:
332,86,27260,2,0,P|307:81|285:70,1,50,2|2,0:0|0:0,0:0:0:0:
184,26,27808,5,2,0:0:0:0:
211,132,28174,2,0,P|215:163|210:190,1,50,8|2,0:0|0:0,0:0:0:0:
298,251,28723,2,0,P|338:248|360:238,2,50,8|2|10,0:0|2:2|0:0,0:0:0:0:
244,265,29271,2,0,B|175:282|175:282|152:311,1,100,2|8,0:0|0:0,0:0:0:0:
246,369,30003,2,0,B|315:352|315:352|338:323,1,100,2|2,0:0|0:0,0:0:0:0:
359,222,30735,37,4,0:0:0:0:
344,112,31101,1,8,0:0:0:0:
296,140,31284,2,0,B|253:167|253:167|246:237,1,100,2|2,0:0|0:0,0:0:0:0:
243,271,31833,1,8,0:0:0:0:
347,305,32198,1,2,0:0:0:0:
433,236,32564,1,8,0:0:0:0:
458,187,32747,2,0,P|455:140|404:87,1,100,2|2,0:0|0:0,0:0:0:0:
373,76,33296,1,2,0:0:0:0:
342,181,33662,6,0,B|297:238|235:250,1,100,2|8,0:0|0:0,0:0:0:0:
211,258,34210,2,0,B|201:323|201:323|226:374,2,100,2|2|8,0:0|0:0|0:0,0:0:0:0:
221,203,35125,2,0,P|194:138|139:109,1,100,2|8,0:0|0:0,0:0:0:0:
68,159,35857,2,0,P|50:113|53:64,1,100,2|2,0:0|0:0,0:0:0:0:
159,97,36588,38,0,P|177:168|87:269,1,200,2|8,0:0|0:0,0:0:0:0:
68,159,37687,1,2,0:0:0:0:
159,97,38052,2,0,P|246:114|270:126,1,100,2|0,0:0|0:0,0:0:0:0:
270,228,38784,1,8,0:0:0:0:
378,249,39150,1,2,0:0:0:0:
431,153,39516,5,4,0:0:0:0:
356,73,39881,2,0,L|385:25,2,50,8|2|8,0:0|0:0|0:0,0:0:0:0:
256,119,40613,1,4,0:0:0:0:
246,228,40979,2,0,L|217:276,2,50,8|2|8,0:0|0:0|0:0,0:0:0:0:
346,182,41711,2,0,P|392:206|428:259,1,100,2|2,0:0|0:0,0:0:0:0:
322,291,42443,38,0,B|277:293|227:319|227:319|167:288|142:233,1,200,2|8,0:0|0:0,0:0:0:0:
69,181,43540,1,2,0:0:0:0:
174,144,43906,2,0,P|223:164|252:204,1,100,2|0,0:0|0:0,0:0:0:0:
152,253,44637,1,2,0:0:0:0:
69,181,45003,1,8,0:0:0:0:
99,75,45370,6,0,P|135:51|191:47,1,100,2|2,0:0|0:0,0:0:0:0:
265,128,46101,1,8,0:0:0:0:
168,180,46466,2,0,P|148:221|152:280,1,100,2|2,0:0|0:0,0:0:0:0:
256,244,47199,1,8,0:0:0:0:
344,180,47564,2,0,P|363:221|360:280,1,100,2|2,0:0|0:0,0:0:0:0:
276,344,48296,1,8,0:0:0:0:
91,48,49759,21,0,0:0:0:0:
102,157,50126,1,0,0:0:0:0:
189,90,50492,1,4,0:0:0:0:
201,198,50857,1,8,0:0:0:0:
290,134,51223,38,0,P|334:138|399:170,1,100,4|8,0:0|0:0,0:0:0:0:
434,183,51772,2,0,P|437:117|452:82,2,100,2|2|8,0:0|0:0|0:0,0:0:0:0:
452,235,52687,5,2,0:0:0:0:
357,290,53052,2,0,L|306:317,1,50,8|2,0:0|0:0,0:0:0:0:
212,267,53601,2,0,L|263:240,1,50,2|8,0:0|0:0,0:0:0:0:
238,352,54149,38,0,P|177:348|142:320,1,100,6|8,0:0|0:0,0:0:0:0:
122,276,54698,2,0,B|100:233|100:233|52:211,1,100,2|2,0:0|0:0,0:0:0:0:
6,181,55247,1,8,0:0:0:0:
114,153,55614,6,0,B|175:180|175:180|230:174|248:114,1,150,2|2,0:0|0:0,0:0:0:0:
274,91,56345,2,0,P|325:64|367:64,1,100,8|2,0:0|0:0,0:0:0:0:
348,172,57077,38,0,P|309:231|271:257,1,100,8|0,0:0|0:0,0:0:0:0:
234,267,57626,1,10,0:0:0:0:
171,176,57991,2,0,L|109:152,1,50,2|2,0:0|0:0,0:0:0:0:
18,187,58540,6,0,P|42:230|82:258,1,100,8|0,0:0|0:0,0:0:0:0:
136,273,59089,1,8,0:0:0:0:
231,326,59454,2,0,L|307:332,1,50,2|2,0:0|0:0,0:0:0:0:
365,258,60004,38,0,P|389:218|404:163,1,100,8|2,0:0|0:0,0:0:0:0:
504,124,60735,2,0,P|477:88|413:44,1,100,8|2,0:0|0:0,0:0:0:0:
324,62,61466,6,0,P|280:94|228:114,1,100,8|2,0:0|0:0,0:0:0:0:
140,162,62199,2,0,L|74:159,2,50,8|10|2,0:0|0:0|0:0,0:0:0:0:
232,222,62930,38,0,P|280:262|319:271,1,100,4|8,0:0|0:0,0:0:0:0:
372,274,63479,2,0,B|406:227|406:227|456:215,2,100,2|2|2,0:0|0:0|0:0,0:0:0:0:
344,322,64394,6,0,P|288:359|248:364,1,100,2|8,0:0|0:0,0:0:0:0:
201,357,64943,1,2,0:0:0:0:
94,330,65308,2,0,L|43:362,2,50,2|8|2,0:0|0:0|0:0,0:0:0:0:
142,302,65857,37,6,0:0:0:0:
234,242,66223,2,0,L|217:194,1,50,8|2,0:0|0:0,0:0:0:0:
218,84,66771,2,0,L|170:68,2,50,2|8|2,0:0|0:0|0:0,0:0:0:0:
270,100,67320,6,0,B|297:179|297:179|369:197,1,150,2|2,0:0|0:0,0:0:0:0:
416,205,68053,1,8,0:0:0:0:
503,138,68418,1,2,0:0:0:0:
420,65,68784,38,0,B|369:135|420:212,1,150,2|8,0:0|0:0,0:0:0:0:
496,280,69698,2,0,L|443:315,1,50,2|8,0:0|0:0,0:0:0:0:
347,334,70247,6,0,B|303:363|303:363|248:327|178:342,1,150,2|2,0:0|0:0,0:0:0:0:
156,344,70979,1,8,0:0:0:0:
103,248,71345,2,0,L|79:162,1,50,8|2,0:0|0:0,0:0:0:0:
78,145,71711,38,0,P|84:91|114:48,1,100,2|8,0:0|0:0,0:0:0:0:
219,39,72442,2,0,P|211:89|185:130,1,100,2|8,0:0|0:0,0:0:0:0:
172,239,73174,6,0,P|208:276|263:289,1,100,2|8,0:0|0:0,0:0:0:0:
354,243,73906,2,0,L|406:254,2,50,12|8|2,0:0|0:0|2:0,0:0:0:0:
256,192,74637,1,4,1:0:0:0:
256,192,74820,12,2,76101,0:0:0:0:
104,280,86345,6,0,P|176:300|252:276,1,150,4|2,2:0|2:0,0:0:0:0:
268,171,87259,2,0,P|253:134|240:111,1,50,2|0,2:0|2:0,0:0:0:0:
152,69,87808,2,0,P|137:125|182:215,1,150,8|2,2:0|2:0,0:0:0:0:
234,297,88723,2,0,L|198:332,2,50,0|2|2,2:0|2:0|2:0,0:0:0:0:
273,259,89271,5,8,2:0:0:0:
382,241,89637,2,0,L|373:169,1,50,0|2,0:0|0:0,0:0:0:0:
278,141,90186,2,0,L|313:105,1,50,2|2,0:0|0:0,0:0:0:0:
386,25,90735,2,0,P|418:78|419:123,1,100,8|0,2:0|0:0,0:0:0:0:
401,166,91284,2,0,P|352:205|308:212,1,100,2|2,0:0|0:0,0:0:0:0:
263,199,91832,1,2,0:0:0:0:
296,115,92198,38,0,P|355:190|278:291,1,225.000008583069,4|2,0:0|2:0,0:0:0:0:
243,303,93479,1,2,2:0:0:0:
190,301,93662,2,0,P|120:268|88:155,1,187.500007152558,8|0,0:0|0:0,0:0:0:0:
101,115,94759,2,0,P|126:71|151:57,1,50,2|2,0:0|0:0,0:0:0:0:
172,43,95125,5,10,2:0:0:0:
248,123,95491,2,0,L|315:132,1,50,2|2,0:0|2:0,0:0:0:0:
339,233,96040,2,0,L|270:223,1,50,2|0,2:0|2:0,0:0:0:0:
373,157,96588,2,0,P|412:193|414:259,1,100,4|0,2:0|0:0,0:0:0:0:
417,291,97137,1,4,0:0:0:0:
312,327,97503,2,0,P|278:310|255:282,1,50,2|2,0:0|0:0,0:0:0:0:
256,192,98052,1,4,0:0:0:0:
256,192,98235,12,2,100613,2:0:0:0:
256,166,109759,21,0,0:0:0:0:
309,261,110125,1,0,0:0:0:0:
198,260,110491,2,0,P|177:280|141:305,2,50,4|2|8,0:0|0:0|0:0,0:0:0:0:
256,166,111223,38,0,B|258:102|311:70,1,100,4|8,0:0|0:0,0:0:0:0:
349,58,111771,1,2,0:0:0:0:
448,104,112137,2,0,L|490:77,2,50,2|8|0,0:0|0:0|0:0,0:0:0:0:
401,133,112686,5,2,0:0:0:0:
440,236,113052,2,0,L|386:270,1,50,8|2,0:0|0:0,0:0:0:0:
326,347,113601,2,0,L|375:383,2,50,2|8|2,0:0|0:0|0:0,0:0:0:0:
277,321,114149,38,0,P|218:313|172:280,1,100,6|8,0:0|0:0,0:0:0:0:
148,250,114698,1,2,0:0:0:0:
152,140,115064,2,0,P|128:123|92:107,2,50,2|8|2,0:0|0:0|0:0,0:0:0:0:
198,169,115613,6,0,P|279:181|364:157,1,150,2|2,0:0|0:0,0:0:0:0:
394,142,116345,1,8,0:0:0:0:
432,40,116710,1,2,0:0:0:0:
322,50,117076,38,0,B|298:45|270:54|270:54|257:75|257:100,1,100,4|8,0:0|0:0,0:0:0:0:
260,154,117625,1,2,0:0:0:0:
369,166,117991,2,0,P|395:154|432:150,2,50,2|8|2,0:0|0:0|0:0,0:0:0:0:
330,205,118540,6,0,B|291:241|291:241|244:238,1,100,2|8,2:0|0:0,0:0:0:0:
189,237,119088,1,2,0:0:0:0:
139,138,119454,2,0,P|125:119|105:104,1,50,2|2,0:0|0:0,0:0:0:0:
48,198,120004,38,0,B|60:243|60:243|105:290,1,100,2|8,0:0|0:0,0:0:0:0:
182,350,120735,2,0,P|182:300|199:252,1,100,2|8,0:0|0:0,0:0:0:0:
263,164,121466,6,0,B|261:112|261:112|217:54,1,100,2|8,0:0|0:0,0:0:0:0:
129,32,122198,2,0,P|105:20|81:19,2,50,12|2|2,0:0|0:0|0:0,0:0:0:0:
79,131,122930,38,0,P|111:170|158:183,1,100,4|8,0:0|0:0,0:0:0:0:
213,173,123479,1,2,0:0:0:0:
317,139,123845,2,0,B|301:253,1,100,2|2,0:0|0:0,0:0:0:0:
292,292,124394,6,0,B|228:300,2,50,2|0|8,0:0|0:0|0:0,0:0:0:0:
346,286,124942,1,2,0:0:0:0:
421,205,125308,2,0,L|483:198,2,50,2|8|2,0:0|0:0|0:0,0:0:0:0:
365,207,125857,38,0,B|337:151|289:135,1,100,4|8,0:0|0:0,0:0:0:0:
241,146,126406,1,2,0:0:0:0:
188,162,126588,2,0,L|114:183,2,50,2|2|8,0:0|0:0|0:0,0:0:0:0:
296,137,127320,6,0,B|336:121|336:121|382:159|409:230,1,150,2|2,0:0|0:0,0:0:0:0:
420,256,128052,1,8,0:0:0:0:
323,308,128418,2,0,P|290:313|261:309,1,50,2|2,0:0|0:0,0:0:0:0:
221,292,128784,38,0,B|183:257|183:257|170:181,1,100,6|8,0:0|0:0,0:0:0:0:
166,154,129332,1,2,0:0:0:0:
196,48,129698,2,0,P|175:23|150:5,2,50,2|8|2,0:0|0:0|0:0,0:0:0:0:
233,89,130247,6,0,P|284:128|344:154,1,100,2|8,0:0|0:0,0:0:0:0:
368,161,130796,1,2,0:0:0:0:
478,163,131162,2,0,P|498:201|512:212,2,50,2|8|2,0:0|0:0|0:0,0:0:0:0:
468,108,131710,38,0,P|454:62|416:23,1,100,4|8,2:0|0:0,0:0:0:0:
308,34,132442,2,0,P|321:79|359:118,1,100,2|8,2:0|0:0,0:0:0:0:
420,208,133174,6,0,B|405:243|405:243|324:272,1,100,2|4,0:0|3:0,0:0:0:0:
243,302,133906,2,0,L|206:348,2,50,8|2|4,3:0|0:0|3:0,0:0:0:0:
256,192,134638,1,4,1:0:0:0:
256,192,134820,12,2,137564,0:0:0:0:
