osu file format v14

[General]
AudioFilename: Nine Point Eight.mp3
AudioLeadIn: 600
PreviewTime: 51223
Countdown: 0
SampleSet: None
StackLeniency: 0.7
Mode: 0
LetterboxInBreaks: 0
WidescreenStoryboard: 0

[Editor]
DistanceSpacing: 1.4
BeatDivisor: 4
GridSize: 4
TimelineZoom: 1.8

[Metadata]
Title:Nine Point Eight
TitleUnicode:Nine Point Eight
Artist:Mili
ArtistUnicode:Mili
Creator:Inversal
Version:Normal
Source:Deemo
Tags:9.8 BoatKrab Shockolatte -_Frontier_- Paloch VeGa Mag Mell Rayark games
BeatmapID:959996
BeatmapSetID:310702

[Difficulty]
HPDrainRate:2
CircleSize:2
OverallDifficulty:2
ApproachRate:3
SliderMultiplier:0.8
SliderTickRate:1

[Events]
//Background and Video events
0,0,"9.8.jpg",0,0
//Break Periods
2,48495,49783
2,74837,84905
2,101179,109783
//Storyboard Layer 0 (Background)
//Storyboard Layer 1 (Fail)
//Storyboard Layer 2 (Pass)
//Storyboard Layer 3 (Foreground)
//Storyboard Sound Samples

[TimingPoints]
1467,365.853658536585,4,2,1,40,1,0
13173,-100,4,3,1,70,0,0
37320,-100,4,3,1,55,0,0
51223,-100,4,3,1,60,0,1
57076,-100,4,3,1,50,0,0
62930,-100,4,3,1,60,0,1
74637,-100,4,3,1,70,0,0
86162,-100,4,2,1,80,0,0
86527,-100,4,2,1,60,0,0
92198,-100,4,3,1,65,0,0
96771,-100,4,3,1,70,0,0
97412,-100,4,3,1,80,0,0
98052,-100,4,3,1,85,0,0
111223,-100,4,3,1,60,0,1
117076,-100,4,3,1,60,0,0
122930,-100,4,3,1,60,0,1
134637,-133.333333333333,4,2,1,40,0,0

[Colours]
Combo1 : 128,0,255
Combo2 : 255,128,255
Combo3 : 255,128,64
Combo4 : 255,0,0

[HitObjects]
300,212,1467,6,0,P|380:224|444:172,1,160,2|0,0:0|0:0,0:0:0:0:
216,160,2930,2,0,P|136:148|72:200,1,160,2|0,0:0|2:0,2:0:0:0:
300,220,4393,6,0,B|320:112|320:112|280:72,1,160,2|0,0:0|0:0,0:0:0:0:
92,192,5857,2,0,B|72:300|72:300|112:340,1,160,2|0,0:0|0:0,0:0:0:0:
284,200,7320,6,0,P|359:170|388:94,1,160,2|0,0:0|0:0,0:0:0:0:
176,176,8783,2,0,P|101:207|71:283,1,160,2|0,0:0|2:0,2:0:0:0:
296,284,10247,6,0,B|380:296|380:296|440:240,1,160,2|0,0:0|0:0,0:0:0:0:
260,108,11710,2,0,L|92:88,1,160,2|0,0:0|0:0,0:0:0:0:
216,292,13174,5,4,0:0:0:0:
324,264,13540,2,0,P|404:252|460:192,1,160,8|8,0:0|0:0,0:0:0:0:
504,96,14637,1,4,0:0:0:0:
396,72,15003,2,0,P|316:84|260:144,1,160,8|8,0:0|0:0,0:0:0:0:
268,252,16101,5,4,2:0:0:0:
180,324,16466,2,0,L|16:360,1,160,8|8,0:0|0:0,0:0:0:0:
64,252,17564,1,4,0:0:0:0:
104,148,17930,2,0,L|260:116,1,160,8|8,0:0|0:0,0:0:0:0:
372,136,19027,5,4,2:0:0:0:
448,52,19393,2,0,P|486:121|467:198,1,160,8|8,0:0|0:0,0:0:0:0:
396,284,20491,1,4,0:0:0:0:
300,344,20857,2,0,L|136:364,1,160,8|8,0:0|0:0,0:0:0:0:
36,320,21954,5,4,2:0:0:0:
124,248,22320,2,0,B|96:212|58:207|58:207|80:112,1,160,8|8,0:0|0:0,0:0:0:0:
160,56,23418,1,4,0:0:0:0:
216,152,23784,2,0,P|284:192|372:172,1,160,8|8,0:0|0:0,0:0:0:0:
304,80,24881,6,0,P|232:40|188:48,2,120,4|2|8,2:0|2:0|0:0,0:0:0:0:
216,152,26345,2,0,P|148:144|108:108,2,120,4|2|8,0:0|2:0|0:0,0:0:0:0:
288,240,27808,6,0,L|420:252,2,120,4|2|8,0:0|2:0|0:0,0:0:0:0:
184,284,29271,2,0,P|168:196|200:128,1,160
296,84,30369,1,8,0:0:0:0:
408,96,30735,6,0,P|372:168|300:196,1,160,4|0,0:0|2:0,0:0:0:0:
192,212,31832,1,8,0:0:0:0:
120,124,32198,2,0,P|84:169|81:238,2,120,0|2|8,0:0|2:0|0:0,0:0:0:0:
232,104,33662,6,0,P|284:144|304:204,2,120,0|2|8,0:0|2:0|0:0,0:0:0:0:
192,208,35125,2,0,P|240:284|308:304,1,160,0|2,0:0|2:0,0:0:0:0:
412,268,36223,1,8,0:0:0:0:
412,156,36588,6,0,P|368:88|292:72,1,160,0|8,0:0|0:0,0:0:0:0:
72,60,38052,2,0,P|116:128|192:144,1,160,0|8,2:0|0:0,0:0:0:0:
292,188,39149,1,8,0:0:0:0:
392,240,39515,6,0,P|467:258|509:324,1,160,0|8,0:0|0:0,0:0:0:0:
400,352,40613,2,0,B|224:336,1,160
136,296,41710,2,0,P|120:256|124:212,1,80,8|0,0:0|0:0,0:0:0:0:
44,136,42442,6,0,P|112:108|200:140,1,160,0|8,0:0|0:0,0:0:0:0:
276,208,43540,1,0,0:0:0:0:
360,136,43906,2,0,P|434:111|507:139,1,160,0|8,0:0|0:0,0:0:0:0:
432,220,45003,1,8,0:0:0:0:
400,328,45369,6,0,P|440:332|488:320,2,80,4|0|8,0:0|0:0|0:0,0:0:0:0:
324,248,46466,2,0,P|300:280|286:328,2,80,4|0|8,0:0|0:0|0:0,0:0:0:0:
432,224,47564,2,0,P|415:187|381:151,2,80,4|0|4,0:0|0:0|2:0,0:0:0:0:
40,144,51223,5,4,0:0:0:0:
40,256,51588,2,0,P|100:304|184:292,1,160,8|8,0:0|0:0,0:0:0:0:
256,216,52686,1,4,0:0:0:0:
333,295,53052,2,8,P|410:304|472:256,1,160
380,192,54149,5,4,0:0:0:0:
288,132,54515,2,8,P|349:84|427:92,1,160
380,192,55613,1,0,0:0:0:0:
284,248,55979,2,0,L|192:232,1,80,8|0,0:0|0:0,0:0:0:0:
112,172,56710,1,4,2:0:0:0:
12,224,57076,6,0,P|36:296|108:332,1,160,4|8,0:0|0:0,0:0:0:0:
332,332,58540,2,0,P|402:297|427:224,1,160,4|8,0:0|0:0,0:0:0:0:
357,135,59637,1,8,0:0:0:0:
275,57,60003,6,0,L|116:77,1,160,4|8,0:0|0:0,0:0:0:0:
68,296,61466,2,0,B|229:271,1,160,4|8,0:0|0:0,0:0:0:0:
338,292,62564,1,8,0:0:0:0:
444,326,62930,6,0,P|499:264|498:210,2,120,4|8|8,0:0|0:0|0:0,0:0:0:0:
338,292,64393,2,0,L|213:315,2,120,4|8|8,0:0|0:0|0:0,0:0:0:0:
268,204,65857,6,0,L|149:184,2,120,4|8|0,0:0|0:0|0:0,0:0:0:0:
352,132,67320,2,0,L|372:40,1,80,0|8,0:0|0:0,0:0:0:0:
468,112,68052,2,0,L|476:204,1,80,0|8,0:0|0:0,0:0:0:0:
434,295,68784,6,0,P|369:340|290:336,1,160,0|8,0:0|0:0,0:0:0:0:
132,177,70247,2,0,P|197:132|276:136,1,160,4|8,0:0|0:0,0:0:0:0:
484,220,71710,6,0,L|464:308,1,80,0|8,0:0|0:0,0:0:0:0:
376,232,72442,2,0,B|400:136|400:136|460:104,2,160,0|8|4,0:0|0:0|2:0,0:0:0:0:
308,320,74271,1,4,2:0:0:0:
200,344,74637,5,0,0:0:0:0:
34,141,86345,6,0,P|93:85|170:82,1,160,2|0,0:0|0:0,0:0:0:0:
360,196,87808,2,0,P|301:252|224:255,1,160,2|0,0:0|0:0,0:0:0:0:
376,88,89271,6,0,P|440:116|468:164,2,120,2|0|2,0:0|0:0|0:0,0:0:0:0:
364,200,90735,2,0,P|371:269|344:317,2,120,2|0|2,0:0|0:0|0:0,0:0:0:0:
260,244,92198,6,0,P|176:252|112:212,1,160,8|0,0:0|0:0,0:0:0:0:
308,100,93662,2,0,P|392:92|456:132,1,160,8|0,0:0|0:0,0:0:0:0:
284,276,95125,6,0,L|108:312,1,160,8|0,0:0|0:0,0:0:0:0:
164,88,96588,2,0,L|324:56,1,160,8|0,0:0|0:0,0:0:0:0:
428,96,97686,1,8,0:0:0:0:
492,188,98052,5,4,2:0:0:0:
256,192,98235,12,0,100979,0:0:0:0:
40,240,111223,5,4,0:0:0:0:
40,128,111588,2,0,P|100:80|184:92,1,160,8|8,0:0|0:0,0:0:0:0:
256,168,112686,1,4,0:0:0:0:
333,89,113052,2,8,P|410:80|472:128,1,160
380,192,114149,5,4,0:0:0:0:
288,252,114515,2,8,P|349:300|427:292,1,160
380,192,115613,1,0,0:0:0:0:
280,144,115979,2,0,L|188:160,1,80,8|0,0:0|0:0,0:0:0:0:
104,216,116710,1,4,2:0:0:0:
20,292,117076,6,0,P|84:332|172:308,1,160,0|8,0:0|0:0,0:0:0:0:
388,328,118540,2,0,P|392:244|356:180,1,160,4|8,0:0|0:0,0:0:0:0:
264,112,119637,1,8,0:0:0:0:
168,172,120003,6,0,P|130:241|135:320,1,160,4|8,0:0|0:0,0:0:0:0:
324,196,121466,2,0,P|312:108|268:52,1,160,4|8,0:0|0:0,0:0:0:0:
176,112,122564,1,8,0:0:0:0:
84,176,122930,6,0,L|68:308,2,120,4|8|8,0:0|0:0|0:0,0:0:0:0:
192,148,124393,2,0,P|160:92|104:64,2,120,0|8|8,0:0|0:0|0:0,0:0:0:0:
268,232,125857,6,0,P|300:288|356:316,2,120,0|8|8,0:0|0:0|0:0,0:0:0:0:
332,140,127320,2,0,P|376:124|424:120,1,80,0|8,0:0|0:0,0:0:0:0:
496,192,128052,2,0,P|473:252|457:270,1,80,0|4,0:0|2:0,0:0:0:0:
392,352,128784,6,0,B|349:322|343:273|343:273|273:290,1,160,4|8,0:0|0:0,0:0:0:0:
84,180,130247,2,0,B|128:216|128:260|128:260|196:240,1,160,4|8,0:0|0:0,0:0:0:0:
292,196,131345,1,8,0:0:0:0:
396,156,131710,6,0,L|504:188,1,80,4|8,0:0|0:0,0:0:0:0:
480,68,132442,2,0,B|396:44,1,80,0|8,0:0|0:0,0:0:0:0:
300,88,133174,2,0,L|212:64,1,80,0|8,0:0|0:0,0:0:0:0:
112,80,133906,1,4,2:0:0:0:
68,180,134271,1,4,2:0:0:0:
152,248,134637,6,0,P|208:248|136:312,1,240.000009155274,0|8,0:0|0:0,0:0:0:0:
352,44,137564,2,0,P|464:76|392:156,1,240.000009155274,2|2,0:0|0:0,0:0:0:0:
256,116,139759,5,2,0:0:0:0:
92,152,140491,2,0,P|56:55|160:43,1,240.000009155274,2|2,0:0|0:0,0:0:0:0:
464,212,143418,6,0,P|380:292|244:276,1,240.000009155274,2|2,0:0|0:0,0:0:0:0:
116,204,145613,1,2,2:0:0:0:
