osu file format v14

[General]
AudioFilename: Nine Point Eight.mp3
AudioLeadIn: 600
PreviewTime: 51223
Countdown: 0
SampleSet: None
StackLeniency: 0.3
Mode: 0
LetterboxInBreaks: 0
WidescreenStoryboard: 0

[Editor]
Bookmarks: 24881,36588,86345
DistanceSpacing: 1.4
BeatDivisor: 4
GridSize: 4
TimelineZoom: 2.599999

[Metadata]
Title:Nine Point Eight
TitleUnicode:Nine Point Eight
Artist:Mili
ArtistUnicode:Mili
Creator:Inversal
Version:Hard
Source:Deemo
Tags:9.8 BoatKrab Shockolatte -_Frontier_- Paloch VeGa Mag Mell Rayark games
BeatmapID:813986
BeatmapSetID:310702

[Difficulty]
HPDrainRate:5
CircleSize:4
OverallDifficulty:5
ApproachRate:7.5
SliderMultiplier:1.4
SliderTickRate:1

[Events]
//Background and Video events
0,0,"9.8.jpg",0,0
//Break Periods
2,74837,85520
//Storyboard Layer 0 (Background)
//Storyboard Layer 1 (Fail)
//Storyboard Layer 2 (Pass)
//Storyboard Layer 3 (Foreground)
//Storyboard Sound Samples

[TimingPoints]
1467,365.853658536585,4,2,0,40,1,0
1467,-133.333333333333,4,2,0,40,0,0
13173,-100,4,3,1,50,0,0
18662,-100,4,3,0,50,0,0
19027,-100,4,3,1,50,0,0
51223,-100,4,3,1,60,0,1
57076,-100,4,3,1,50,0,0
60003,-100,4,3,1,50,0,0
62930,-100,4,3,1,60,0,1
74454,-100,4,3,1,60,0,1
74637,-100,4,3,1,50,0,0
86345,-133.333333333333,4,2,1,50,0,0
92198,-100,4,3,1,60,0,0
95125,-100,4,3,1,60,0,0
96588,-133.333333333333,4,3,1,70,0,0
97137,-100,4,3,1,75,0,0
97503,-100,4,3,1,80,0,0
98052,-86.9565217391304,4,3,1,85,0,1
108845,-86.9565217391304,4,3,1,85,0,0
109759,-100,4,3,1,40,0,0
110125,-100,4,3,1,50,0,0
111223,-100,4,3,1,60,0,1
117076,-100,4,3,1,60,0,0
122930,-100,4,3,1,60,0,1
131710,-100,4,3,1,60,0,1
134637,-200,4,3,1,50,0,0
135552,-200,4,2,1,40,0,0

[Colours]
Combo1 : 128,0,255
Combo2 : 255,128,255
Combo3 : 255,128,64
Combo4 : 255,0,0

[HitObjects]
116,268,1467,6,0,L|52:284,2,52.5000020027161,2|0|0,0:0|0:0|0:0,0:0:0:0:
192,252,2015,2,0,P|248:252|288:296,1,105.000004005432,2|0,0:0|0:0,0:0:0:0:
348,328,2564,2,0,L|412:320,1,52.5000020027161,2|0,0:0|0:0,0:0:0:0:
452,264,2930,6,0,L|516:256,2,52.5000020027161,0|0|2,0:0|0:0|0:0,0:0:0:0:
376,240,3479,2,0,P|356:184|376:140,1,105.000004005432
420,84,4027,1,2,0:0:0:0:
360,32,4210,1,2,0:0:0:0:
312,92,4393,6,0,L|248:96,1,52.5000020027161
188,128,4759,1,2,0:0:0:0:
124,84,4942,2,0,P|72:96|40:136,1,105.000004005432
24,212,5491,2,0,L|36:268,1,52.5000020027161,2|0,0:0|0:0,0:0:0:0:
64,336,5857,6,0,P|32:344|0:332,2,52.5000020027161,0|0|2,0:0|0:0|0:0,0:0:0:0:
120,280,6406,2,0,L|240:288,1,105.000004005432
292,328,6954,2,0,P|324:328|356:316,1,52.5000020027161
420,312,7320,6,0,L|440:192,1,105.000004005432,2|0,0:0|0:0,0:0:0:0:
472,136,7869,2,0,P|416:128|372:160,1,105.000004005432,2|0,0:0|0:0,0:0:0:0:
304,188,8418,2,0,L|252:184,1,52.5000020027161,2|0,0:0|0:0,0:0:0:0:
180,216,8784,6,0,L|116:212,2,52.5000020027161,0|0|2,0:0|0:0|0:0,0:0:0:0:
244,260,9332,2,0,L|368:272,1,105.000004005432
412,316,9881,1,2,0:0:0:0:
480,276,10064,1,2,0:0:0:0:
440,208,10247,6,0,P|432:160|440:136,1,52.5000020027161
480,92,10613,1,2,0:0:0:0:
404,68,10796,2,0,L|276:76,1,105.000004005432
236,124,11345,1,2,0:0:0:0:
160,100,11527,1,0,0:0:0:0:
96,144,11710,6,0,P|64:144|24:132,2,52.5000020027161,0|0|2,0:0|0:0|0:0,0:0:0:0:
160,100,12259,1,0,0:0:0:0:
96,144,13174,6,0,B|148:136|148:136|192:148|192:148|240:140,1,140,4|8,0:0|0:0,0:0:0:0:
316,152,13723,1,0,0:0:0:0:
396,120,13906,2,0,P|427:102|462:99,1,70
358,204,14271,2,0,P|326:176|314:132,1,70,8|0,0:0|0:0,0:0:0:0:
444,192,14637,6,0,P|444:228|428:260,1,70,4|0,0:0|0:0,0:0:0:0:
356,304,15003,1,8,0:0:0:0:
272,296,15186,1,0,0:0:0:0:
188,300,15369,2,0,P|155:313|131:338,1,70
272,296,15735,2,0,P|296:264|300:220,1,70,8|0,0:0|0:0,0:0:0:0:
228,104,16101,6,0,P|198:165|218:231,1,140,4|8,2:0|0:0,0:0:0:0:
272,296,16649,1,0,0:0:0:0:
352,328,16832,2,0,L|444:312,1,70
484,260,17198,2,0,P|504:296|500:340,2,70,8|0|4,0:0|0:0|0:0,0:0:0:0:
404,228,17747,5,0,0:0:0:0:
404,228,17930,2,0,P|384:192|384:160,1,70,8|0,0:0|0:0,0:0:0:0:
448,108,18296,2,0,P|468:144|468:176,1,70
404,228,18662,1,8,3:0:0:0:
328,192,18845,1,8,0:0:0:0:
176,224,19027,6,0,P|152:288|184:352,1,140,4|0,2:0|0:0,0:0:0:0:
244,284,19576,1,0,0:0:0:0:
260,200,19759,2,0,L|276:124,1,70
408,144,20125,2,0,P|383:167|349:175,1,70,8|0,0:0|0:0,0:0:0:0:
448,68,20491,6,0,P|480:96|492:132,1,70,4|0,0:0|0:0,0:0:0:0:
476,204,20857,1,8,0:0:0:0:
416,264,21040,1,0,0:0:0:0:
340,296,21223,2,0,L|256:304,1,70
188,284,21588,2,0,L|118:278,1,70,8|0,0:0|0:0,0:0:0:0:
252,224,21954,6,0,P|260:156|212:100,1,140,4|8,2:0|0:0,0:0:0:0:
136,68,22503,1,0,0:0:0:0:
136,68,22686,2,0,P|156:40|188:24,1,70
268,44,23052,1,8,0:0:0:0:
352,28,23235,1,0,0:0:0:0:
424,68,23418,6,0,L|436:148,1,70,4|0,0:0|0:0,0:0:0:0:
364,184,23784,2,0,L|352:108,1,70,8|0,0:0|0:0,0:0:0:0:
448,212,24149,2,0,L|460:292,1,70,0|0,0:0|0:0,0:0:0:0:
388,336,24515,2,0,L|376:260,1,70,8|0,0:0|0:0,0:0:0:0:
364,184,24881,6,0,B|308:200|296:248|296:248|248:256,1,140,4|8,2:0|0:0,0:0:0:0:
184,300,25430,2,0,B|80:316|80:316|116:276,1,140
148,200,25979,1,8,0:0:0:0:
72,160,26162,1,0,0:0:0:0:
72,160,26345,6,0,P|40:152|4:164,2,70,4|0|8,0:0|0:0|0:0,0:0:0:0:
148,200,26893,2,0,P|152:128|104:80,1,140
72,160,27442,1,8,0:0:0:0:
148,200,27625,1,8,0:0:0:0:
220,244,27808,6,0,L|376:256,1,140,4|8,0:0|0:0,0:0:0:0:
404,324,28357,2,0,L|256:336,1,140,0|8,0:0|0:0,0:0:0:0:
184,316,28906,1,0,0:0:0:0:
108,352,29088,1,8,0:0:0:0:
60,284,29271,6,0,L|48:136,1,140,4|8,0:0|0:0,0:0:0:0:
12,68,29820,1,0,0:0:0:0:
84,24,30003,2,0,P|120:24|152:40,1,70,8|0,0:0|0:0,0:0:0:0:
208,100,30369,1,8,0:0:0:0:
288,72,30552,1,0,0:0:0:0:
360,120,30735,6,0,L|336:276,1,140,4|0,0:0|0:0,0:0:0:0:
380,344,31284,2,0,B|324:372|272:328|272:328|236:336,1,140
168,348,31832,2,0,P|132:340|104:316,1,70,8|0,0:0|0:0,0:0:0:0:
60,252,32198,6,0,P|51:218|60:184,1,70,4|0,0:0|0:0,0:0:0:0:
144,188,32564,1,8,0:0:0:0:
116,108,32747,2,0,P|176:72|248:100,1,140
312,208,33296,1,8,0:0:0:0:
388,244,33479,1,8,0:0:0:0:
468,220,33662,6,0,L|496:68,1,140,4|8,0:0|0:0,0:0:0:0:
414,106,34210,2,0,L|388:243,1,140,0|8,0:0|0:0,0:0:0:0:
400,332,34759,1,0,0:0:0:0:
312,248,34942,1,8,0:0:0:0:
272,356,35125,6,0,P|200:372|132:356,2,140,4|0|0,0:0|0:0|0:0,0:0:0:0:
440,204,36223,2,0,L|460:232,3,35
444,184,36588,6,0,P|396:88|304:44,1,210
224,44,37320,1,8,0:0:0:0:
224,44,37686,1,0,0:0:0:0:
224,44,38052,6,0,P|132:90|87:183,1,210,4|0,0:0|0:0,0:0:0:0:
88,268,38784,1,8,0:0:0:0:
88,268,39149,1,8,0:0:0:0:
172,260,39332,1,8,0:0:0:0:
228,324,39515,6,0,P|292:336|368:276,1,140,4|0,0:0|0:0,0:0:0:0:
384,220,40064,1,0,0:0:0:0:
328,156,40247,2,0,P|264:144|188:204,2,140,8|0|0,0:0|0:0|0:0,0:0:0:0:
384,220,41162,5,0,0:0:0:0:
452,168,41345,2,0,P|468:104|424:44,1,140,8|8,0:0|0:0,0:0:0:0:
256,44,42076,1,8,0:0:0:0:
176,76,42259,1,8,0:0:0:0:
100,112,42442,6,0,B|52:212|164:192|100:312,1,210,4|0,0:0|0:0,0:0:0:0:
44,248,43174,2,0,B|128:204|176:280|176:280|236:288,1,210,8|0,0:0|0:0,0:0:0:0:
272,360,43906,6,0,B|324:324|312:264|312:264|348:300|400:304,1,210
472,260,44637,2,0,B|448:228|408:224|408:224|436:144,1,140,8|8,0:0|0:0,0:0:0:0:
472,88,45186,1,8,0:0:0:0:
388,92,45369,5,4,0:0:0:0:
350,16,45552,1,0,0:0:0:0:
267,28,45735,1,0,0:0:0:0:
253,110,45918,1,0,0:0:0:0:
327,150,46101,1,8,0:0:0:0:
253,110,46466,5,4,0:0:0:0:
327,150,46649,1,0,0:0:0:0:
314,230,46832,1,0,0:0:0:0:
231,243,47015,1,0,0:0:0:0:
192,167,47198,1,8,0:0:0:0:
231,243,47564,5,4,0:0:0:0:
192,167,47747,1,0,0:0:0:0:
109,185,47930,1,0,0:0:0:0:
97,270,48113,1,0,0:0:0:0:
175,304,48296,5,4,2:0:0:0:
308,200,48662,2,0,P|352:204|392:196,2,70
228,172,49210,1,0,0:0:0:0:
152,140,49393,2,0,P|184:76|248:56,1,140,0|4,0:0|0:0,0:0:0:0:
412,44,50125,5,4,0:0:0:0:
372,204,50491,5,4,0:0:0:0:
324,272,50674,1,4,0:0:0:0:
324,272,50765,1,4,0:0:0:0:
324,272,50857,2,0,L|244:276,1,70,8|0,0:0|0:0,0:0:0:0:
188,224,51223,6,0,P|128:252|100:320,1,140,4|8,0:0|0:0,0:2:0:0:
256,280,51771,2,0,P|316:252|344:184,1,140,0|0,0:0|0:2,0:2:0:0:
199,130,52320,2,8,P|228:156|268:160,1,70
264,72,52686,6,0,P|232:48|196:40,1,70,4|0,0:0|0:0,0:0:0:0:
128,76,53052,1,8,0:0:0:0:
64,128,53235,2,0,L|80:272,1,140
132,336,53784,1,8,0:0:0:0:
204,292,53966,1,8,0:0:0:0:
284,320,54149,6,0,P|348:336|408:296,1,140,4|8,0:0|0:0,0:0:0:0:
376,128,54698,2,0,P|330:175|334:247,1,140,0|8,0:0|0:0,0:0:0:0:
406,297,55247,1,0,0:0:0:0:
412,212,55430,1,8,0:0:0:0:
284,116,55613,6,0,L|140:96,1,140,4|8,0:0|0:0,0:0:0:0:
65,124,56162,1,0,0:0:0:0:
92,203,56345,1,0,0:0:0:0:
171,179,56527,1,0,0:0:0:0:
145,96,56710,1,4,3:2:0:0:
92,320,57076,6,0,P|124:304|164:300,1,70,4|0,0:0|0:0,0:0:0:0:
236,332,57442,2,0,P|276:328|312:308,1,70
368,260,57808,1,8,0:0:0:0:
317,191,57991,2,0,P|282:249|301:314,1,140,4|0,0:0|0:0,0:0:0:0:
380,344,58540,5,0,0:0:0:0:
448,292,58723,1,8,0:0:0:0:
440,208,58906,2,0,P|436:172|412:128,1,70
384,64,59271,2,0,L|236:72,1,140,8|8,0:0|0:0,0:0:0:0:
180,123,59820,1,8,0:0:0:0:
180,123,59912,1,8,0:0:0:0:
180,123,60003,6,0,P|158:152|151:184,1,70,4|0,0:0|0:0,0:0:0:0:
212,245,60369,2,0,P|234:217|241:184,1,70,8|0,0:0|0:0,0:0:0:0:
180,123,60735,2,0,P|151:101|119:91,1,70
212,245,61101,2,0,P|241:267|276:272,1,70,8|0,0:0|0:0,0:0:0:0:
137,200,61466,6,0,P|115:228|110:263,1,70,4|8,0:0|0:0,0:0:0:0:
240,168,61832,2,0,P|226:134|198:113,1,70,4|4,0:0|0:0,0:0:0:0:
212,268,62198,1,8,0:0:0:0:
348,344,62564,1,8,0:0:0:0:
428,196,62930,6,0,L|448:108,1,70,4|0,0:0|0:0,0:0:0:0:
408,52,63296,1,8,0:0:0:0:
336,100,63479,2,0,P|268:120|208:88,1,140
136,52,64027,1,8,0:0:0:0:
72,104,64210,1,8,0:0:0:0:
20,172,64393,6,0,P|12:208|20:244,1,70,4|0,0:0|0:0,0:0:0:0:
72,304,64759,1,8,0:0:0:0:
132,244,64942,2,0,L|280:220,1,140
352,208,65491,2,0,P|360:172|352:136,1,70,8|0,0:0|0:0,0:0:0:0:
132,244,65857,6,0,L|292:276,1,140,4|8,0:0|0:0,0:0:0:0:
352,208,66406,2,0,L|208:180,1,140
132,204,66954,1,8,0:0:0:0:
112,284,67137,1,0,0:0:0:0:
214,181,67320,6,0,P|168:124|104:120,1,140,4|8,0:0|0:0,0:0:0:0:
132,204,67869,1,0,0:0:0:0:
214,181,68052,1,0,0:0:0:0:
296,204,68235,1,0,0:0:0:0:
296,204,68326,1,0,0:0:0:0:
296,204,68418,2,0,L|368:216,1,70,8|0,0:0|0:0,0:0:0:0:
424,276,68784,6,0,L|352:292,1,70,4|0,0:0|0:0,0:0:0:0:
280,328,69149,1,0,0:0:0:0:
198,342,69332,1,0,0:0:0:0:
116,316,69515,2,0,P|88:296|72:260,1,70,8|0,0:0|0:0,0:0:0:0:
192,172,69881,2,0,P|220:196|232:236,1,70
120,136,70247,6,0,P|140:108|176:92,1,70,4|8,0:0|0:0,0:0:0:0:
285,186,70613,2,0,P|261:214|221:226,1,70
288,96,70979,2,0,P|352:124|376:188,1,140,8|8,0:0|0:0,0:0:0:0:
331,331,71527,1,8,0:0:0:0:
331,331,71619,1,8,0:0:0:0:
331,331,71710,6,0,L|358:242,1,70,4|0,0:0|0:0,0:0:0:0:
466,191,72076,2,0,P|457:224|435:251,1,70,8|0,0:0|0:0,0:0:0:0:
375,186,72442,6,0,P|384:152|406:126,1,70
351,264,72808,2,0,P|315:247|291:215,1,70,8|0,0:0|0:0,0:0:0:0:
248,108,73174,6,0,P|284:125|308:157,1,70,4|8,0:0|0:0,0:0:0:0:
208,276,73540,2,4,P|172:259|148:227,1,70
232,192,73906,2,4,L|364:272,2,140,4|4|0,2:0|2:0|2:0,2:0:0:0:
256,196,86345,6,0,P|308:204|360:172,1,105.000004005432,2|0,0:0|0:0,0:0:0:0:
296,128,86893,2,0,P|244:116|196:144,1,105.000004005432,2|0,0:0|0:0,0:0:0:0:
180,216,87442,2,0,L|192:284,1,52.5000020027161,2|0,0:0|0:0,0:0:0:0:
124,312,87808,6,0,L|104:200,1,105.000004005432
170,164,88357,2,0,L|189:270,1,105.000004005432,2|0,0:0|0:0,0:0:0:0:
260,300,88906,1,2,0:0:0:0:
300,232,89088,1,2,0:0:0:0:
368,272,89271,6,0,P|416:248|440:200,1,105.000004005432
428,124,89820,2,0,P|380:148|356:196,1,105.000004005432,2|0,0:0|0:0,0:0:0:0:
439,204,90369,1,2,0:0:0:0:
428,124,90552,1,2,0:0:0:0:
360,68,90735,6,0,L|252:60,1,105.000004005432
180,84,91284,2,0,P|144:120|144:172,1,105.000004005432,2|0,0:0|0:0,0:0:0:0:
192,232,91832,1,0,0:0:0:0:
376,336,92198,6,0,B|400:304|404:268|404:268|440:264|460:236,1,140,8|0,0:0|0:0,0:0:0:0:
396,180,92747,2,0,B|420:152|456:152|456:152|392:96,1,140
320,132,93296,1,0,0:0:0:0:
236,116,93479,1,0,0:0:0:0:
168,64,93662,6,0,P|108:96|92:168,1,140,8|0,0:0|0:0,0:0:0:0:
136,232,94210,2,0,L|276:260,1,140
336,316,94759,1,0,0:0:0:0:
376,244,94942,1,0,0:0:0:0:
460,240,95125,6,0,B|452:200|428:180|428:180|448:152|444:112,1,140,8|0,0:0|0:0,0:0:0:0:
380,60,95674,2,0,B|356:92|360:124|360:124|292:96,1,140
212,112,96223,1,0,0:0:0:0:
88,312,96588,6,0,L|196:296,1,105.000004005432,8|0,0:0|0:0,0:0:0:0:
132,208,97137,6,0,L|284:184,1,140
356,264,97686,1,8,0:0:0:0:
472,236,97869,1,8,0:0:0:0:
472,236,97960,1,8,0:0:0:0:
472,236,98052,6,0,P|484:156|436:92,1,161.000003070831,4|8,3:2|0:0,0:0:0:0:
344,120,98601,1,0,0:0:0:0:
252,144,98784,2,0,P|212:136|176:112,1,80.5000015354157
108,52,99149,1,8,0:0:0:0:
44,124,99332,2,0,P|28:196|88:264,1,161.000003070831
176,256,99881,6,0,L|264:228,1,80.5000015354157,8|0,0:0|0:0,0:0:0:0:
292,144,100247,2,0,P|324:164|348:200,1,80.5000015354157
404,276,100613,1,8,0:0:0:0:
340,348,100796,1,8,0:0:0:0:
244,332,100979,6,0,B|168:356|168:356|128:364|88:336,1,161.000003070831,4|8,0:0|0:0,0:0:0:0:
40,256,101527,2,0,B|14:218|22:178|22:178|46:102,1,161.000003070831
128,52,102076,2,0,L|224:36,1,80.5000015354157,8|0,0:0|0:0,0:0:0:0:
292,92,102442,6,0,L|380:76,1,80.5000015354157,8|0,0:0|0:0,0:0:0:0:
200,136,102808,2,0,L|120:149,1,80.5000015354157,8|0,0:0|0:0,0:0:0:0:
280,189,103174,2,0,L|359:174,1,80.5000015354157,8|0,0:0|0:0,0:0:0:0:
412,256,103540,1,4,0:0:0:0:
476,184,103723,1,4,0:0:0:0:
428,68,103906,6,0,L|260:52,1,161.000003070831,4|8,2:0|0:0,0:0:0:0:
180,88,104454,1,0,0:0:0:0:
84,72,104637,2,0,P|44:80|4:104,1,80.5000015354157
48,188,105003,2,0,P|88:180|128:156,1,80.5000015354157,8|0,0:0|0:0,0:0:0:0:
180,88,105369,6,0,L|272:96,1,80.5000015354157
348,136,105735,1,8,0:0:0:0:
332,40,105918,1,0,0:0:0:0:
260,94,106101,1,0,0:0:0:0:
272,192,106284,1,0,0:0:0:0:
272,192,106466,2,0,P|284:224|276:272,2,80.5000015354157,8|8|0,0:0|0:0|0:0,0:0:0:0:
184,236,107015,6,0,P|192:320|256:360,1,161.000003070831
364,328,107564,1,0,0:0:0:0:
360,228,107747,1,0,0:0:0:0:
360,228,107838,1,0,0:0:0:0:
360,228,107930,2,0,L|376:136,1,80.5000015354157,8|0,0:0|0:0,0:0:0:0:
444,80,108296,6,0,P|380:28|304:28,1,161.000003070831,8|0,0:0|0:0,0:0:0:0:
184,92,108845,1,12,0:0:0:0:
256,192,109759,5,4,0:0:0:0:
256,192,110125,1,4,0:0:0:0:
256,192,110491,1,4,2:0:0:0:
180,160,110674,1,4,0:0:0:0:
180,160,110765,1,4,0:0:0:0:
180,160,110857,2,0,L|111:173,1,70,8|0,0:0|0:0,0:0:0:0:
244,104,111223,6,0,P|308:120|344:184,1,140,4|8,0:0|0:0,0:0:0:0:
268,280,111771,2,0,P|204:264|168:200,1,140
164,120,112320,2,0,P|129:129|103:152,1,70,8|0,0:0|0:0,0:0:0:0:
60,224,112686,5,0,0:0:0:0:
76,300,112869,1,0,0:0:0:0:
148,344,113052,2,0,L|220:336,1,70,8|0,0:0|0:0,0:0:0:0:
384,328,113601,1,0,0:0:0:0:
448,276,113784,1,8,0:0:0:0:
384,224,113966,1,8,0:0:0:0:
448,180,114149,6,0,P|440:112|380:72,1,140,4|8,0:0|0:0,0:0:0:0:
312,116,114698,2,0,L|168:88,1,140,0|8,0:0|0:0,0:0:0:0:
96,120,115247,1,0,0:0:0:0:
128,200,115430,1,8,0:0:0:0:
208,176,115613,6,0,P|240:222|196:297,1,140,4|8,0:0|0:0,0:0:0:0:
67,343,116162,1,0,0:0:0:0:
67,343,116253,1,0,0:0:0:0:
67,343,116345,2,0,L|143:335,1,70,0|0,0:0|2:3,0:0:0:0:
207,291,116710,1,4,2:0:0:0:
412,208,117076,6,0,P|448:196|488:192,2,70,4|0|0,0:0|0:0|0:0,0:0:0:0:
364,280,117625,1,0,0:0:0:0:
312,348,117808,2,0,P|276:360|244:360,1,70,8|0,0:0|0:0,0:0:0:0:
164,264,118174,2,0,P|200:252|232:252,1,70
116,336,118540,6,0,P|52:312|20:252,1,140,4|0,0:0|0:0,0:0:0:0:
48,172,119088,1,0,0:0:0:0:
84,96,119271,2,8,B|120:80|152:96|152:96|188:112|224:88,1,140
292,144,119820,1,8,0:0:0:0:
292,144,119912,1,8,0:0:0:0:
292,144,120003,6,0,L|360:120,1,70,4|0,0:0|0:0,0:0:0:0:
460,56,120369,2,0,L|446:126,1,70,8|0,0:0|0:0,0:0:0:0:
448,248,120735,2,0,L|393:201,1,70
352,56,121101,6,0,L|406:102,1,70,8|0,0:0|0:0,0:0:0:0:
512,157,121467,2,0,L|444:181,1,70,4|8,0:0|0:0,0:0:0:0:
339,243,121833,2,4,L|352:172,1,70
405,101,122198,1,8,0:0:0:0:
464,320,122564,1,8,0:0:0:0:
252,260,122930,6,0,P|224:244|184:240,1,70,4|0,0:0|0:0,0:0:0:0:
108,272,123296,1,8,0:0:0:0:
36,232,123479,2,0,L|12:84,1,140
80,40,124027,1,8,0:0:0:0:
152,84,124210,1,0,0:0:0:0:
224,40,124393,6,0,P|252:28|292:24,1,70,4|0,0:0|0:0,0:0:0:0:
372,48,124759,1,8,0:0:0:0:
436,104,124942,2,0,L|408:248,1,140
344,336,125491,2,8,L|320:252,1,70
264,208,125857,6,0,P|196:192|140:240,1,140,4|8,0:0|0:0,0:0:0:0:
216,280,126406,2,0,L|172:120,1,140
156,64,126954,1,8,0:0:0:0:
76,36,127137,1,8,0:0:0:0:
178,145,127320,6,0,B|234:129|246:65|246:65|274:81,1,140,4|8,0:0|0:0,0:0:0:0:
344,128,127869,1,0,0:0:0:0:
424,108,128052,2,0,P|452:84|464:52,1,70
344,128,128418,2,0,L|308:264,1,140,4|4,2:0|0:0,0:0:0:0:
264,336,128966,5,0,0:0:0:0:
180,324,129149,2,0,P|148:336|104:340,1,70
56,276,129515,2,0,P|88:264|128:260,1,70,8|0,0:0|0:0,0:0:0:0:
192,208,129881,2,0,P|200:176|204:136,1,70
128,104,130247,6,0,P|120:136|116:172,1,70,4|8,0:0|0:0,0:0:0:0:
276,260,130613,2,0,P|284:228|288:188,1,70
272,80,130979,2,0,P|240:72|200:68,1,70,8|0,0:0|0:0,0:0:0:0:
128,104,131345,1,8,0:0:0:0:
28,192,131527,1,8,0:0:0:0:
28,192,131619,1,8,0:0:0:0:
28,192,131710,6,0,P|32:232|56:268,1,70,4|0,0:0|0:0,0:0:0:0:
187,207,132076,2,0,P|153:199|102:209,1,70,8|0,0:0|0:0,0:0:0:0:
152,288,132442,6,0,P|186:295|221:288,1,70
223,150,132808,2,0,P|198:176|187:210,1,70,8|0,0:0|0:0,0:0:0:0:
315,276,133174,6,0,P|303:241|279:214,1,70,4|8,0:0|0:0,0:0:0:0:
154,149,133540,2,4,P|164:183|188:209,1,70
243,140,133906,5,4,2:0:0:0:
263,124,134271,5,4,2:0:0:0:
283,112,134637,6,0,B|340:64|340:64|368:136|452:128,1,210
424,40,136101,6,0,P|356:128|408:212,1,210
408,304,137564,6,0,B|340:304|312:260|312:260|272:300|220:296,1,210
144,260,139027,5,0,0:0:0:0:
144,260,139210,1,0,0:0:0:0:
52,176,139759,1,0,0:0:0:0:
52,176,139942,1,0,0:0:0:0:
156,104,140491,6,0,B|224:84|272:144|272:144|344:120|344:120|316:192,1,280
304,228,142137,1,0,0:0:0:0:
156,328,143418,6,0,B|208:216|92:164|92:164|112:84,1,280
124,48,145064,1,0,0:0:0:0:
408,180,145613,1,2,0:0:0:0:
