osu file format v14

[General]
AudioFilename: Mili - Mortal With You.mp3
AudioLeadIn: 0
PreviewTime: 39876
Countdown: 0
SampleSet: Soft
StackLeniency: 0.6
Mode: 0
LetterboxInBreaks: 0
WidescreenStoryboard: 0

[Editor]
Bookmarks: 1189,22047,40311,73571,83343,88590
DistanceSpacing: 3.2
BeatDivisor: 4
GridSize: 32
TimelineZoom: 1.8

[Metadata]
Title:Mortal With You (TV Size)
TitleUnicode:Mortal With You (TV Size)
Artist:Mili
ArtistUnicode:Mili
Creator:frozz
Version:X
Source:金装のヴェルメイユ~崖っぷち魔術師は最強の厄災と魔法世界を突き進む~
Tags:vermeil in gold kinsou no vermeil Gakeppuchi Majutsushi wa Saikyou no Yakusai to Mahou Sekai wo Tsukisusumu o cassie wei yamato kasai atsuki yoshida EMO strings satoshi yoneda momocashew projectmili project hamo female vocal anime ending ed japanese folk -keqing kuro fuyusaki riene fnayr
BeatmapID:3696042
BeatmapSetID:1802470

[Difficulty]
HPDrainRate:6
CircleSize:4.2
OverallDifficulty:8
ApproachRate:9
SliderMultiplier:2
SliderTickRate:1

[Events]
//Background and Video events
0,0,"Mili - Mortal With You.jpg",0,0
//Break Periods
//Storyboard Layer 0 (Background)
//Storyboard Layer 1 (Fail)
//Storyboard Layer 2 (Pass)
//Storyboard Layer 3 (Foreground)
//Storyboard Layer 4 (Overlay)
//Storyboard Sound Samples

[TimingPoints]
1189,652.173913043478,4,2,1,50,1,0
1189,-125,4,2,1,50,0,0
3797,-90.9090909090909,4,2,1,50,0,0
5102,-125,4,2,1,50,0,0
14232,-90.9090909090909,4,2,1,50,0,0
15210,-125,4,2,1,50,0,0
20102,638.297872340426,4,2,1,50,1,0
20740,652.173913043478,4,2,1,50,1,0
21066,-166.666666666667,4,2,1,40,0,0
22047,652.173913043478,4,2,1,40,1,0
23025,-250.000000000001,4,2,1,30,0,0
29873,645.161290322581,4,2,1,30,1,0
29873,-250.000000000001,4,2,1,30,0,0
30840,731.70731707317,4,2,1,30,1,0
30840,-226.244343891403,4,2,1,30,0,0
31205,618.556701030928,4,2,1,30,1,0
31848,594.059405940594,4,2,1,30,1,0
31848,-259.067357512953,4,2,1,30,0,0
31996,731.707317073171,4,2,1,30,1,0
32178,566.037735849056,4,2,1,30,1,0
32319,681.818181818181,4,2,1,30,1,0
32489,652.173913043478,4,2,1,40,1,0
32489,-142.857142857143,4,2,1,40,0,0
33141,625,4,2,1,40,1,0
33453,-142.857142857143,4,2,1,40,0,0
33609,759.493670886076,4,2,1,40,1,0
33798,652.173913043478,4,2,1,40,1,0
35103,697.674418604651,4,2,1,40,1,0
35800,612.244897959184,4,2,1,40,1,0
36106,674.157303370787,4,2,1,40,1,0
36780,714.285714285714,4,2,1,40,1,0
36780,-142.857142857143,4,2,1,40,0,0
37137,779.220779220779,4,2,1,40,1,0
37707,652.173913043478,4,2,1,60,1,0
37707,-158.730158730159,4,2,1,60,0,0
39663,645.161290322581,4,2,1,50,1,0
40311,326.086956521739,3,2,1,80,1,0
51397,-166.666666666667,3,2,1,80,0,0
52050,-100,3,2,1,80,0,0
54495,-200,3,2,1,80,0,0
54984,-142.857142857143,3,2,1,80,0,0
55963,-100,3,2,1,80,0,0
75528,-100,3,2,1,40,0,0
77140,337.078651685393,3,2,1,40,1,0
77477,327.868852459016,3,2,1,40,1,0
77804,-500,3,2,1,40,0,0
78132,338.983050847458,3,2,1,40,1,0
78470,320.855614973262,3,2,1,40,1,0
78790,-500,3,2,1,40,0,0
79111,324.324324324324,3,2,1,40,1,0
79435,329.67032967033,3,2,1,40,1,0
79764,-500,3,2,1,40,0,0
80424,320.855614973262,3,2,1,40,1,0
80744,-500,3,2,1,40,0,0
81065,333.333333333333,3,2,1,40,1,0
81398,331.491712707182,3,2,1,40,1,0
81729,300,3,2,1,40,1,0
82029,340.909090909091,3,2,1,40,1,0
82369,346.820809248555,3,2,1,40,1,0
82715,314.13612565445,3,2,1,40,1,0
83031,333.333333333333,3,2,1,40,1,0
83364,326.530612244898,3,2,1,40,1,0
85330,652.173913043478,3,2,1,30,1,0
85330,-500,3,2,1,30,0,0
88590,-500,3,2,1,5,0,0

[Colours]
Combo1 : 255,170,170
Combo2 : 255,210,170
Combo3 : 251,255,170

[HitObjects]
512,138,1189,6,0,P|460:127|388:103,1,120,10|0,2:3|2:0,2:0:0:0:
299,148,1841,2,0,P|288:200|264:272,1,120,8|0,2:3|2:0,2:0:0:0:
362,340,2493,2,0,P|310:351|238:375,1,120,8|0,2:3|2:0,2:0:0:0:
149,330,3145,2,0,P|138:278|114:206,1,120,8|0,2:3|2:0,2:0:0:0:
77,117,3797,6,0,B|138:118|153:52|153:52|142:120|214:160,1,220,10|8,2:3|2:3,2:0:0:0:
506,223,4775,5,2,2:0:0:0:
505,140,5102,2,0,P|420:167|406:201,1,120,10|0,2:3|2:0,2:0:0:0:
432,285,5754,1,10,2:3:0:0:
432,285,6080,1,10,2:3:0:0:
253,197,6406,6,0,B|241:164|220:122|220:122|242:146|274:152,1,120,10|0,2:3|2:0,2:0:0:0:
332,191,7058,2,0,B|247:204|286:244|179:255,1,160,10|8,2:3|2:3,2:0:0:0:
16,78,8362,1,10,2:3:0:0:
95,146,8688,1,2,2:0:0:0:
86,157,9015,1,10,2:3:0:0:
189,42,9341,6,0,P|120:62|89:71,1,80,2|8,2:0|2:3,2:0:0:0:
16,229,9993,2,0,P|54:240|92:251,1,80,2|8,2:0|2:3,2:0:0:0:
229,319,10645,1,2,2:0:0:0:
226,338,10971,1,10,2:3:0:0:
223,358,11297,1,10,2:3:0:0:
426,304,11623,6,0,P|360:280|354:226,1,120,10|0,2:3|2:0,2:0:0:0:
285,178,12275,2,0,P|309:112|363:106,1,120,8|0,2:3|2:0,2:0:0:0:
300,6,12928,2,0,P|230:-6|198:37,1,120,8|0,2:3|2:0,2:0:0:0:
114,44,13580,2,0,P|101:113|145:145,1,120,8|0,2:3|2:0,2:0:0:0:
46,228,14232,6,0,B|93:243|129:317|91:376|-5:355|22:278,1,220,10|8,2:3|2:3,2:0:0:0:
193,231,15210,6,0,P|241:242|287:257,1,80,2|8,2:0|2:3,2:0:0:0:
409,325,15862,1,2,2:0:0:0:
318,332,16188,1,10,2:3:0:0:
501,120,16515,1,2,2:0:0:0:
348,219,16841,1,10,2:3:0:0:
445,246,17167,2,0,P|430:194|423:151,1,80,2|8,2:0|2:3,2:0:0:0:
307,51,17819,6,0,P|299:90|287:128,1,80,2|8,2:0|2:3,2:0:0:0:
399,69,18471,1,2,2:0:0:0:
406,83,18797,1,10,2:3:0:0:
214,9,19123,1,2,2:0:0:0:
65,179,19449,5,10,2:3:0:0:
153,180,19775,2,0,P|137:133|120:95,1,80.2453333333333,2|0,2:0|2:0,2:0:0:0:
103,263,20421,1,2,2:0:0:0:
237,356,20740,1,10,2:3:0:0:
274,288,21066,2,0,P|210:311|147:335,1,120,2|0,2:0|2:0,2:0:0:0:
376,315,23025,6,0,B|436:325|424:358|498:364,1,120,2|0,2:0|2:0,2:0:0:0:
252,339,24655,2,0,P|263:367|268:384,2,39.9999999999998,2|0|0,2:0|2:0|2:0,2:0:0:0:
159,371,25633,2,0,P|123:363|91:316,1,79.9999999999997,2|0,2:0|2:0,2:0:0:0:
155,273,26612,2,0,L|193:296,2,39.9999999999998,2|0|0,2:0|2:0|2:0,2:0:0:0:
0,365,27916,6,0,L|11:399,4,19.9999999999999,2|0|0|0|0,2:0|2:0|2:0|2:0|2:0,2:0:0:0:
117,258,29220,2,0,P|150:271|164:276,1,39.9999999999998,2|0,2:0|2:0,2:0:0:0:
248,315,29873,2,0,P|215:330|197:339,2,39.9999999999998,2|0|0,2:0|2:0|2:0,2:0:0:0:
322,373,30840,2,0,P|338:320|348:284,1,81.4707466666666,2|0,2:0|2:0,2:0:0:0:
428,258,31848,2,0,P|466:270|487:292,1,61.2339533333333,2|0,2:0|2:0,2:0:0:0:
478,298,32489,6,0,P|485:245|507:153,1,139.999995727539,2|0,2:0|2:0,2:0:0:0:
443,109,33297,1,2,2:0:0:0:
443,109,33453,2,0,P|419:121|394:131,1,35,2|0,2:0|2:0,2:0:0:0:
336,111,33798,5,2,2:0:0:0:
241,81,34124,1,2,2:0:0:0:
303,191,34450,1,2,2:0:0:0:
147,269,34776,1,2,2:0:0:0:
353,368,35103,1,2,2:0:0:0:
274,384,35451,5,2,2:0:0:0:
269,372,35800,1,2,2:0:0:0:
272,359,36106,1,2,2:0:0:0:
145,179,36780,2,0,P|203:167|239:156,1,69.9999978637696,2|0,2:0|2:0,2:0:0:0:
76,110,37526,1,2,2:0:0:0:
0,140,37707,6,2,B|-29:214|22:278|66:227|112:314|75:379|75:379|83:326|31:287,1,377.999988464356,2|0,2:0|2:0,2:0:0:0:
36,290,39985,5,2,2:0:0:0:
242,253,40146,1,2,2:0:0:0:
448,216,40311,2,0,P|371:197|235:169,1,200,12|0,1:0|2:0,2:0:0:0:
138,216,40800,1,8,2:0:0:0:
348,108,40963,1,2,2:1:0:0:
189,30,41126,1,2,2:0:0:0:
283,25,41289,6,0,P|268:89|250:185,1,150,2|0,1:2|2:0,2:0:0:0:
304,229,41615,2,0,P|363:211|379:167,1,100,10|0,1:3|2:0,2:0:0:0:
193,119,41941,2,0,P|134:137|118:181,1,100,10|0,1:3|2:0,2:0:0:0:
95,356,42267,6,0,B|86:332|102:307|102:307|194:265|194:265|167:291|157:324,1,200,2|0,1:2|2:0,2:0:0:0:
240,344,42756,1,8,2:0:0:0:
14,305,42919,2,0,P|30:250|42:200,1,100,2|0,2:1|2:0,2:0:0:0:
18,9,43245,6,0,P|33:78|126:70,1,150,2|0,1:2|2:0,2:0:0:0:
176,54,43571,2,0,P|152:19|82:18,1,100,10|0,1:3|2:0,2:0:0:0:
119,190,43897,2,0,P|143:225|213:226,1,100,10|0,1:3|2:0,2:0:0:0:
363,123,44224,6,0,P|293:151|285:229,1,150,2|0,1:2|2:0,2:0:0:0:
285,237,44550,2,0,P|345:232|352:179,1,100,2|8,2:0|2:0,2:0:0:0:
259,113,44876,1,2,2:1:0:0:
512,172,45039,1,2,2:0:0:0:
457,8,45202,6,0,P|442:110|430:190,1,150,2|0,1:2|2:0,2:0:0:0:
447,233,45528,2,0,P|504:202|509:155,1,100,10|0,1:3|2:0,2:0:0:0:
323,51,45854,2,0,P|266:82|261:129,1,100,10|0,1:3|2:0,2:0:0:0:
289,357,46180,6,0,B|267:296|319:256|325:280|371:229|342:173,1,200,2|0,1:2|2:0,2:0:0:0:
148,118,46669,1,8,2:0:0:0:
244,38,46832,2,0,P|185:21|134:7,1,100,2|0,2:1|2:0,2:0:0:0:
36,102,47158,5,2,1:2:0:0:
127,206,47321,1,2,2:0:0:0:
10,281,47484,5,2,1:2:0:0:
141,109,47647,1,10,2:0:0:0:
161,361,47811,5,2,1:0:0:0:
36,199,47974,1,2,2:0:0:0:
259,128,48137,6,0,P|337:102|452:49,1,200,12|0,1:0|2:0,2:0:0:0:
512,106,48626,1,8,2:0:0:0:
321,202,48789,1,2,2:1:0:0:
443,381,48952,2,0,P|455:343|470:308,1,50,0|0,1:2|2:0,2:0:0:0:
494,239,49115,6,0,P|426:257|363:270,1,100,10|0,1:3|2:0,2:0:0:0:
271,384,49441,1,2,2:0:0:0:
245,298,49604,2,0,P|313:316|376:329,1,100,10|2,1:3|2:0,2:0:0:0:
152,371,49930,1,8,1:3:0:0:
238,202,50093,6,0,B|181:223|181:223|171:250|171:250|82:284,1,150,2|0,1:2|2:0,2:0:0:0:
114,271,50419,1,2,1:2:0:0:
26,170,50582,1,8,2:0:0:0:
180,34,50745,2,0,P|161:111|150:150,1,100,2|0,2:1|2:0,2:0:0:0:
313,230,51071,6,0,P|383:201|386:119,1,150,2|0,1:2|2:0,2:0:0:0:
383,134,51397,2,0,P|372:105|365:76,1,59.9999999999999,10|0,1:3|2:0,2:0:0:0:
508,62,51724,2,0,P|479:69|451:80,1,59.9999999999999,10|0,1:3|2:0,2:0:0:0:
238,201,52050,6,0,B|301:189|332:248|307:249|349:303|410:285,1,200,6|0,1:2|2:0,2:0:0:0:
512,229,52539,1,10,2:0:0:0:
290,135,52702,1,2,2:0:0:0:
97,280,52865,1,2,2:0:0:0:
35,210,53028,6,0,B|13:191|-20:142|28:68|103:96|83:160,1,200,2|0,1:2|2:0,2:0:0:0:
194,300,53517,2,0,P|134:285|75:278,1,100,2|0,1:2|2:0,2:0:0:0:
236,222,53843,1,2,1:2:0:0:
0,384,54006,6,0,P|149:345|272:314,1,250,2|0,1:2|2:0,2:0:0:0:
300,274,54495,6,0,P|356:314|353:379,1,125,2|0,2:0|2:0,2:0:0:0:
354,370,54984,6,0,B|324:287|394:233|402:266|464:197|425:121,1,280,2|0,2:0|2:0,2:0:0:0:
425,121,55800,1,2,2:0:0:0:
413,37,55963,6,2,P|273:11|259:328,1,550,2|0,2:0|2:0,2:0:0:0:
307,362,56941,5,2,1:2:0:0:
436,257,57104,1,2,2:0:0:0:
188,140,57267,5,2,1:2:0:0:
338,258,57430,1,10,2:0:0:0:
55,380,57593,5,2,1:0:0:0:
233,238,57756,1,2,2:0:0:0:
30,78,57919,6,0,P|59:169|91:288,1,200,12|0,1:0|2:0,2:0:0:0:
55,380,58408,1,8,2:0:0:0:
256,316,58571,1,2,2:1:0:0:
163,384,58734,1,2,2:0:0:0:
205,248,58897,6,0,P|227:182|264:96,1,150,2|0,1:2|2:0,2:0:0:0:
213,53,59224,2,0,P|148:79|144:135,1,100,10|0,1:3|2:0,2:0:0:0:
327,136,59550,2,0,P|392:110|396:54,1,100,10|0,1:3|2:0,2:0:0:0:
458,274,59876,6,0,P|395:258|293:236,1,150,2|0,1:2|2:0,2:0:0:0:
311,239,60202,1,2,2:0:0:0:
476,103,60365,2,0,P|492:168|508:221,1,100,10|2,2:0|2:1,2:0:0:0:
376,305,60691,1,2,2:0:0:0:
216,210,60854,6,0,P|193:135|170:58,1,150,2|0,1:2|2:0,2:0:0:0:
217,4,61180,2,0,P|264:22|277:93,1,100,10|0,1:3|2:0,2:0:0:0:
106,167,61506,2,0,P|59:149|46:78,1,100,10|0,1:3|2:0,2:0:0:0:
216,210,61832,6,0,P|197:278|184:332,1,100,2|0,1:2|2:0,2:0:0:0:
0,370,62158,2,0,P|54:302|140:296,1,150,2|0,2:0|2:0,2:0:0:0:
112,290,62484,1,2,2:1:0:0:
335,364,62647,1,2,2:0:0:0:
261,328,62810,6,0,P|351:308|430:281,1,150,2|0,1:2|2:0,2:0:0:0:
476,312,63137,2,0,P|445:378|398:381,1,100,10|0,1:3|2:0,2:0:0:0:
299,192,63463,2,0,P|330:126|377:123,1,100,10|0,1:3|2:0,2:0:0:0:
512,35,63789,6,0,P|438:23|350:-6,1,150,2|0,1:2|2:0,2:0:0:0:
348,11,64115,1,2,2:0:0:0:
154,156,64278,1,8,2:0:0:0:
57,98,64441,2,0,P|70:40|75:-4,1,100,2|0,2:1|2:0,2:0:0:0:
84,264,64767,5,2,1:2:0:0:
234,180,64930,1,2,2:0:0:0:
352,384,65093,5,2,1:2:0:0:
181,258,65256,1,10,2:0:0:0:
388,119,65419,5,2,1:0:0:0:
283,306,65582,1,2,2:0:0:0:
512,384,65745,6,0,P|493:298|468:173,1,200,12|0,1:0|2:0,2:0:0:0:
342,9,66234,2,0,P|421:38|496:60,1,150,10|0,2:0|2:0,2:0:0:0:
496,51,66560,1,0,1:2:0:0:
302,97,66724,6,0,P|239:118|187:139,1,100,10|0,1:3|2:0,2:0:0:0:
138,78,67050,1,2,2:0:0:0:
306,196,67213,2,0,P|353:210|402:222,1,100,10|0,1:3|2:0,2:0:0:0:
388,119,67539,1,10,1:3:0:0:
205,229,67702,6,0,B|133:259|133:259|122:294|122:294|35:330,1,200,2|0,1:2|2:0,2:0:0:0:
246,375,68191,2,0,P|260:327|277:280,1,100,10|2,2:0|2:1,2:0:0:0:
127,169,68517,1,2,2:0:0:0:
311,101,68680,6,0,P|244:101|213:11,1,150,2|0,1:2|2:0,2:0:0:0:
140,212,69006,2,0,P|173:153|266:172,1,150,10|0,1:3|2:0,2:0:0:0:
130,8,69332,2,0,P|163:66|101:137,1,150,10|0,1:3|2:0,2:0:0:0:
23,216,69658,6,0,B|86:204|117:263|92:264|134:318|195:300,1,200,6|0,1:2|2:0,2:0:0:0:
348,176,70147,2,0,P|327:114|313:59,1,100,8|2,2:0|2:1,2:0:0:0:
428,226,70474,1,2,2:0:0:0:
288,233,70637,6,0,P|263:301|232:398,1,150,2|0,1:2|2:0,2:0:0:0:
250,384,70963,2,0,P|313:361|370:330,1,100,10|0,1:3|2:0,2:0:0:0:
512,166,71289,2,0,P|449:143|392:112,1,100,10|0,1:3|2:0,2:0:0:0:
130,8,71615,6,0,P|158:99|179:183,1,150,2|0,1:2|2:0,2:0:0:0:
175,167,71941,2,0,P|193:101|213:54,1,100,2|8,2:0|2:0,2:0:0:0:
458,13,72267,1,2,2:1:0:0:
298,149,72430,1,2,2:0:0:0:
472,302,72593,6,0,P|441:233|367:238,1,150,10|0,1:3|2:0,2:0:0:0:
155,308,72919,2,0,P|230:315|262:249,1,150,10|0,1:3|2:0,2:0:0:0:
309,30,73245,2,0,P|264:91|306:152,1,150,10|0,1:3|2:0,2:0:0:0:
472,302,73571,5,6,1:2:0:0:
256,192,73653,12,0,75528,2:0:0:0:
32,256,77140,5,2,2:0:0:0:
64,352,77477,1,2,2:0:0:0:
160,352,77804,2,0,L|168:330,2,20.061,2|0|0,2:0|2:0|2:0,2:0:0:0:
64,352,78470,1,2,2:0:0:0:
32,256,78790,2,0,L|54:264,2,20.0623333333333,2|0|0,2:0|2:0|2:0,2:0:0:0:
256,352,79435,5,2,2:0:0:0:
320,288,79764,2,0,L|315:262,2,20,2|0|0,2:0|2:0|2:0,2:0:0:0:
136,262,80744,2,0,L|141:236,2,20.0623333333333,2|0|0,2:0|2:0|2:0,2:0:0:0:
338,373,81398,5,2,2:0:0:0:
440,324,81729,1,2,2:0:0:0:
443,313,81879,1,2,2:0:0:0:
446,302,82029,1,2,2:0:0:0:
239,283,82369,5,2,2:0:0:0:
237,265,82542,1,2,2:0:0:0:
233,235,82715,1,2,2:0:0:0:
228,193,82872,1,2,2:0:0:0:
223,141,83031,1,2,2:0:0:0:
216,75,83197,1,2,2:0:0:0:
207,0,83364,1,2,2:0:0:0:
2,350,85330,6,0,P|102:365|200:384,1,200,2|0,2:0|2:0,2:0:0:0:
