osu file format v14

[General]
AudioFilename: audio.mp3
AudioLeadIn: 0
PreviewTime: 39986
Countdown: 0
SampleSet: Normal
StackLeniency: 0.7
Mode: 1
LetterboxInBreaks: 0
WidescreenStoryboard: 1

[Editor]
Bookmarks: 22044,32479
DistanceSpacing: 1.5
BeatDivisor: 4
GridSize: 16
TimelineZoom: 2.1

[Metadata]
Title:Mortal With You (TV Size)
TitleUnicode:Mortal With You (TV Size)
Artist:Mili
ArtistUnicode:Mili
Creator:Kurumiism
Version:Futsuu
Source:金装のヴェルメイユ ~崖っぷち魔術師は最強の厄災と魔法世界を突き進む~
Tags:Kinsou no Vermeil: Gakeppuchi Majutsushi wa Saikyou no Yakusai to Mahou Sekai wo Tsuki Susumu Vermeil in Gold: A Desperate Magician Barges Into the Magical World Alongside the Strongest Calamity ending ed theme female vocal vocalist english anime folk
BeatmapID:3971174
BeatmapSetID:1888201

[Difficulty]
HPDrainRate:9
CircleSize:4
OverallDifficulty:3
ApproachRate:6
SliderMultiplier:1.4
SliderTickRate:1

[Events]
//Background and Video events
0,0,"bg.jpg",0,0
//Break Periods
//Storyboard Layer 0 (Background)
//Storyboard Layer 1 (Fail)
//Storyboard Layer 2 (Pass)
//Storyboard Layer 3 (Foreground)
//Storyboard Layer 4 (Overlay)
//Storyboard Sound Samples

[TimingPoints]
530,652.173913043478,4,1,0,25,1,8
530,-66.6666666666667,4,1,0,25,0,0
1182,652.173913043478,4,1,0,25,1,0
1182,-66.6666666666667,4,1,0,45,0,0
39985,-66.6666666666667,4,1,0,50,0,0
40312,326.086956521739,3,1,0,60,1,0
40312,-133.333333333333,3,1,0,60,0,1
54007,-133.333333333333,3,1,0,60,0,0
57920,-133.333333333333,3,1,0,60,0,1
73572,-133.333333333333,3,1,0,60,0,0
75528,-133.333333333333,3,1,0,30,0,0
81724,-133.333333333333,3,1,0,15,0,0
81887,-133.333333333333,3,1,0,18,0,0
82050,-133.333333333333,3,1,0,21,0,0
82213,-133.333333333333,3,1,0,24,0,0
82376,-133.333333333333,3,1,0,27,0,0
82539,-133.333333333333,3,1,0,30,0,0
82702,-133.333333333333,3,1,0,33,0,0
82865,-133.333333333333,3,1,0,37,0,0
83028,-133.333333333333,3,1,0,40,0,0
83191,-133.333333333333,3,1,0,42,0,0
83354,-133.333333333333,3,1,0,45,0,0
85310,-133.333333333333,3,1,0,30,0,0

[HitObjects]
185,118,530,5,0,0:0:0:0:
186,206,856,1,8,0:0:0:0:
300,120,1182,1,4,0:0:0:0:
185,118,1834,1,0,0:0:0:0:
185,118,2486,1,0,0:0:0:0:
185,118,3138,1,0,0:0:0:0:
296,208,3790,1,12,0:0:0:0:
185,118,4442,1,0,0:0:0:0:
186,206,4768,1,8,0:0:0:0:
186,206,5095,1,8,0:0:0:0:
185,118,5747,1,0,0:0:0:0:
186,206,6073,1,8,0:0:0:0:
185,118,6399,1,0,0:0:0:0:
186,206,7051,1,2,0:0:0:0:
185,118,7703,1,0,0:0:0:0:
185,118,8355,1,0,0:0:0:0:
186,206,8681,1,8,0:0:0:0:
185,118,9008,1,0,0:0:0:0:
186,206,9660,1,8,0:0:0:0:
186,206,9986,1,8,0:0:0:0:
185,118,10312,1,0,0:0:0:0:
185,118,10638,1,0,0:0:0:0:
185,118,10964,1,0,0:0:0:0:
300,120,11616,1,4,0:0:0:0:
185,118,12268,1,0,0:0:0:0:
185,118,12921,1,0,0:0:0:0:
185,118,13573,1,0,0:0:0:0:
296,208,14225,1,12,0:0:0:0:
185,118,14877,1,0,0:0:0:0:
186,206,15203,1,8,0:0:0:0:
185,118,15529,1,0,0:0:0:0:
185,118,16181,1,0,0:0:0:0:
186,206,16834,1,8,0:0:0:0:
186,206,17486,1,8,0:0:0:0:
185,118,18138,1,0,0:0:0:0:
185,118,18464,1,0,0:0:0:0:
185,118,18790,1,0,0:0:0:0:
186,206,19442,1,8,0:0:0:0:
186,206,20095,1,8,0:0:0:0:
185,118,20421,1,0,0:0:0:0:
185,118,21073,1,0,0:0:0:0:
185,118,21725,1,0,0:0:0:0:
185,118,22051,1,8,0:0:0:0:
185,118,22703,1,0,0:0:0:0:
186,206,23029,1,8,0:0:0:0:
186,206,23192,1,8,0:0:0:0:
185,118,23355,1,0,0:0:0:0:
186,206,24008,1,8,0:0:0:0:
186,206,24660,1,8,0:0:0:0:
186,206,24986,1,8,0:0:0:0:
185,118,25312,1,0,0:0:0:0:
185,118,25964,1,8,0:0:0:0:
185,118,26290,1,0,0:0:0:0:
185,118,26616,1,0,0:0:0:0:
185,118,26942,1,0,0:0:0:0:
185,118,27268,1,8,0:0:0:0:
185,118,27921,1,0,0:0:0:0:
186,206,28247,1,8,0:0:0:0:
186,206,28410,1,8,0:0:0:0:
185,118,28573,1,0,0:0:0:0:
185,118,29225,1,0,0:0:0:0:
186,206,29551,1,8,0:0:0:0:
186,206,29877,1,8,0:0:0:0:
186,206,30203,1,8,0:0:0:0:
185,118,30529,1,0,0:0:0:0:
186,206,31181,1,8,0:0:0:0:
186,206,31834,1,8,0:0:0:0:
300,120,32486,1,4,0:0:0:0:
185,118,33138,1,0,0:0:0:0:
186,206,33464,1,8,0:0:0:0:
186,206,33627,1,8,0:0:0:0:
185,118,33790,1,0,0:0:0:0:
186,206,34442,1,8,0:0:0:0:
185,118,34768,1,0,0:0:0:0:
186,206,35095,1,8,0:0:0:0:
185,118,35421,1,0,0:0:0:0:
186,206,35747,1,8,0:0:0:0:
185,118,36073,1,0,0:0:0:0:
186,206,36725,1,8,0:0:0:0:
300,120,37703,1,4,0:0:0:0:
256,192,38029,12,0,39660,0:0:0:0:
185,118,39986,5,0,0:0:0:0:
296,208,40312,1,12,0:0:0:0:
185,118,40638,1,0,0:0:0:0:
186,206,40964,1,8,0:0:0:0:
185,118,41127,1,0,0:0:0:0:
186,206,41290,1,8,0:0:0:0:
185,118,41616,1,0,0:0:0:0:
186,206,41942,1,8,0:0:0:0:
185,118,42268,1,0,0:0:0:0:
185,118,42920,1,0,0:0:0:0:
185,118,43246,1,0,0:0:0:0:
185,118,43572,1,0,0:0:0:0:
186,206,43898,1,8,0:0:0:0:
185,118,44225,1,0,0:0:0:0:
185,118,44388,1,0,0:0:0:0:
186,206,44551,1,8,0:0:0:0:
185,118,45040,1,0,0:0:0:0:
186,206,45203,1,8,0:0:0:0:
185,118,45529,1,0,0:0:0:0:
185,118,45855,1,0,0:0:0:0:
186,206,46181,1,8,0:0:0:0:
185,118,46670,1,0,0:0:0:0:
185,118,47159,1,0,0:0:0:0:
186,206,47485,1,8,0:0:0:0:
186,206,47648,1,8,0:0:0:0:
185,118,47812,1,0,0:0:0:0:
300,120,48138,1,12,0:0:0:0:
186,206,48790,1,8,0:0:0:0:
185,118,48953,1,0,0:0:0:0:
185,118,49116,1,0,0:0:0:0:
186,206,49442,1,8,0:0:0:0:
186,206,49768,1,8,0:0:0:0:
190,117,50094,1,0,0:0:0:0:
190,117,50420,1,0,0:0:0:0:
186,206,50583,1,8,0:0:0:0:
190,117,50746,1,0,0:0:0:0:
186,206,51072,1,8,0:0:0:0:
190,117,51398,1,0,0:0:0:0:
186,206,51725,1,8,0:0:0:0:
186,206,52051,1,8,0:0:0:0:
190,117,52540,1,0,0:0:0:0:
186,206,52703,1,8,0:0:0:0:
186,206,52866,1,8,0:0:0:0:
190,117,53029,1,0,0:0:0:0:
190,117,53518,1,0,0:0:0:0:
300,120,54007,1,4,0:0:0:0:
186,206,55067,1,8,0:0:0:0:
300,120,55964,1,4,0:0:0:0:
185,118,56942,1,0,0:0:0:0:
186,206,57268,1,8,0:0:0:0:
186,206,57431,1,8,0:0:0:0:
185,118,57594,1,0,0:0:0:0:
296,208,57920,1,12,0:0:0:0:
185,118,58246,1,0,0:0:0:0:
185,118,58409,1,0,0:0:0:0:
186,206,58572,1,8,0:0:0:0:
186,206,58898,1,2,0:0:0:0:
185,118,59225,1,0,0:0:0:0:
186,206,59551,1,8,0:0:0:0:
185,118,59877,1,0,0:0:0:0:
186,206,60366,1,8,0:0:0:0:
186,206,60692,1,8,0:0:0:0:
185,118,60855,1,0,0:0:0:0:
185,118,61181,1,0,0:0:0:0:
186,206,61507,1,8,0:0:0:0:
186,206,61833,1,2,0:0:0:0:
185,118,61996,1,0,0:0:0:0:
186,206,62159,1,8,0:0:0:0:
185,118,62485,1,0,0:0:0:0:
185,118,62648,1,0,0:0:0:0:
186,206,62811,1,8,0:0:0:0:
185,118,63138,1,0,0:0:0:0:
185,118,63464,1,0,0:0:0:0:
186,206,63790,1,8,0:0:0:0:
186,206,64116,1,8,0:0:0:0:
185,118,64768,1,0,0:0:0:0:
186,206,65094,1,8,0:0:0:0:
186,206,65257,1,8,0:0:0:0:
185,118,65420,1,0,0:0:0:0:
296,208,65746,1,12,0:0:0:0:
185,118,66235,1,0,0:0:0:0:
185,118,66725,1,0,0:0:0:0:
185,118,67051,1,0,0:0:0:0:
186,206,67377,1,8,0:0:0:0:
185,118,67703,1,0,0:0:0:0:
185,118,68029,1,0,0:0:0:0:
186,206,68192,1,8,0:0:0:0:
186,206,68518,1,2,0:0:0:0:
185,118,68681,1,0,0:0:0:0:
185,118,69007,1,0,0:0:0:0:
186,206,69333,1,8,0:0:0:0:
185,118,69496,1,0,0:0:0:0:
186,206,69659,1,8,0:0:0:0:
185,118,69985,1,0,0:0:0:0:
186,206,70148,1,8,0:0:0:0:
186,206,70475,1,8,0:0:0:0:
185,118,70638,1,0,0:0:0:0:
185,118,71290,1,0,0:0:0:0:
186,206,71616,1,8,0:0:0:0:
185,118,71942,1,0,0:0:0:0:
186,206,72268,1,8,0:0:0:0:
185,118,72431,1,0,0:0:0:0:
185,118,72594,1,0,0:0:0:0:
186,206,72920,1,2,0:0:0:0:
185,118,73246,1,0,0:0:0:0:
300,120,73572,1,4,0:0:0:0:
256,192,73898,12,0,75529,0:0:0:0:
185,118,76181,5,2,0:0:0:0:
185,118,76507,1,0,0:0:0:0:
185,118,77159,1,2,0:0:0:0:
186,206,77485,1,8,0:0:0:0:
185,118,78138,1,2,0:0:0:0:
185,118,78464,1,0,0:0:0:0:
185,118,79116,1,2,0:0:0:0:
186,206,79442,1,8,0:0:0:0:
185,118,80094,1,2,0:0:0:0:
185,118,80420,1,0,0:0:0:0:
185,118,80746,1,0,0:0:0:0:
186,206,81072,1,8,0:0:0:0:
300,120,81398,1,2,0:0:0:0:
256,192,81725,12,0,83355,0:0:0:0:
186,206,85311,5,8,0:0:0:0:
