osu file format v14

[General]
AudioFilename: audio.mp3
AudioLeadIn: 0
PreviewTime: 42337
Countdown: 0
SampleSet: Soft
StackLeniency: 0.2
Mode: 0
LetterboxInBreaks: 0
WidescreenStoryboard: 0

[Editor]
Bookmarks: 2709,4331,17303,43249,69195,82168,88655,95141,101628,108114,121087,132439,134060,160006,172979,173790
DistanceSpacing: 0.6
BeatDivisor: 16
GridSize: 4
TimelineZoom: 1.1

[Metadata]
Title:Mitsubachi
TitleUnicode:蜜蜂
Artist:Mili
ArtistUnicode:Mili
Creator:YelloJello
Version:Wilt
Source:
Tags:honey bee japanese french novelty kloyd
BeatmapID:2186888
BeatmapSetID:1046074

[Difficulty]
HPDrainRate:6
CircleSize:5
OverallDifficulty:8
ApproachRate:9.2
SliderMultiplier:1.4
SliderTickRate:1

[Events]
//Background and Video events
0,0,"Mitsubachi.jpg",0,0
//Break Periods
2,121287,130817
//Storyboard Layer 0 (Background)
//Storyboard Layer 1 (Fail)
//Storyboard Layer 2 (Pass)
//Storyboard Layer 3 (Foreground)
//Storyboard Layer 4 (Overlay)
//Storyboard Sound Samples

[TimingPoints]
4331,810.810810810811,4,2,1,35,1,0
4939,-57.1428571428571,4,2,1,35,0,0
7422,-57.1428571428571,4,2,1,15,0,0
7574,-57.1428571428571,4,2,1,35,0,0
10817,-66.6666666666667,4,2,1,35,0,0
11425,-57.1428571428571,4,2,1,35,0,0
13908,-57.1428571428571,4,2,1,15,0,0
14060,-57.1428571428571,4,2,1,35,0,0
17303,-66.6666666666667,4,2,1,35,0,0
20395,-66.6666666666667,4,2,1,15,0,0
20547,-66.6666666666667,4,2,1,35,0,0
22979,-33.3333333333333,4,2,1,35,0,0
23486,-50,4,2,1,35,0,0
23790,-66.6666666666667,4,2,1,35,0,0
27033,-100,4,2,1,35,0,0
28858,-57.1428571428571,4,2,1,35,0,0
29162,-57.1428571428571,4,2,1,5,0,0
29263,-57.1428571428571,4,2,1,35,0,0
29466,-100,4,2,1,35,0,0
30276,-57.1428571428571,4,2,1,35,0,0
31493,-100,4,2,1,35,0,0
31898,-57.1428571428571,4,2,1,35,0,0
33520,-100,4,2,1,35,0,0
35141,-57.1428571428571,4,2,1,35,0,0
35952,-100,4,2,1,35,0,0
36763,-57.1428571428571,4,2,1,35,0,0
37574,-100,4,2,1,35,0,0
37979,-50,4,2,1,35,0,0
38520,-50,4,2,1,5,0,0
38655,-50,4,2,1,35,0,0
38790,-50,4,2,1,5,0,0
38925,-50,4,2,1,35,0,0
39060,-50,4,2,1,5,0,0
39195,-66.6666666666667,4,2,1,35,0,0
40006,-100,4,2,1,35,0,0
41628,-133.333333333333,4,2,1,35,0,0
42439,-200,4,2,1,25,0,0
43249,-33.3333333333333,4,2,1,45,0,0
43655,-40,4,2,1,45,0,0
43858,-28.5714285714286,4,2,1,45,0,0
44466,-57.1428571428571,4,2,1,45,0,0
44871,-25,4,2,1,45,0,0
45479,-50,4,2,1,45,0,0
46493,-25,4,2,1,45,0,0
47303,-50,4,2,1,45,0,0
47709,-28.5714285714286,4,2,1,45,0,0
48520,-33.3333333333333,4,2,1,45,0,0
48722,-25,4,2,1,45,0,0
50344,-28.5714285714286,4,2,1,45,0,0
50952,-50,4,2,1,45,0,0
51358,-28.5714285714286,4,2,1,45,0,0
51966,-25,4,2,1,45,0,0
52168,-40,4,2,1,45,0,0
52979,-25,4,2,1,45,0,0
53283,-33.3333333333333,4,2,1,45,0,0
54195,-50,4,2,1,45,0,0
55412,-28.5714285714286,4,2,1,45,0,0
57236,-25,4,2,1,45,0,0
57439,-50,4,2,1,45,0,0
57844,-25,4,2,1,45,0,0
58452,-50,4,2,1,45,0,0
59466,-25,4,2,1,45,0,0
59871,-33.3333333333333,4,2,1,45,0,0
60074,-25,4,2,1,45,0,0
60682,-28.5714285714286,4,2,1,45,0,0
61695,-25,4,2,1,45,0,0
63114,-33.3333333333333,4,2,1,45,0,0
63317,-28.5714285714286,4,2,1,45,0,0
63925,-50,4,2,1,45,0,0
64331,-25,4,2,1,45,0,0
64939,-50,4,2,1,45,0,0
67168,-66.6666666666667,4,2,1,45,0,0
67472,-66.6666666666667,4,2,1,5,0,0
67574,-66.6666666666667,4,2,1,45,0,0
69195,-57.1428571428571,4,2,1,35,0,0
72287,-57.1428571428571,4,2,1,15,0,0
72439,-57.1428571428571,4,2,1,35,0,0
75378,-25,4,2,1,35,0,0
75682,-57.1428571428571,4,2,1,35,0,0
78773,-57.1428571428571,4,2,1,15,0,0
78925,-57.1428571428571,4,2,1,35,0,0
81358,-33.3333333333333,4,2,1,35,0,0
81864,-57.1428571428571,4,2,1,35,0,0
82168,-100,4,2,1,35,0,0
83790,-250,4,2,1,35,0,0
85412,-250,4,2,1,15,0,0
85665,-250,4,2,2,5,0,0
86628,-250,4,2,1,35,0,0
87641,-50,4,2,1,35,0,0
88655,-66.6666666666667,4,2,1,35,0,0
94331,-44.4444444444445,4,2,1,35,0,0
94635,-133.333333333333,4,2,1,25,0,0
95141,-57.1428571428571,4,2,1,35,0,0
100006,-100,4,2,1,35,0,0
100344,-100,4,2,1,5,0,0
100412,-100,4,2,1,25,0,0
100817,-66.6666666666667,4,2,1,25,0,0
102439,-133.333333333333,4,2,1,25,0,0
103249,-66.6666666666667,4,2,1,25,0,0
104060,-100,4,2,1,25,0,0
104871,-169.491525423729,4,2,1,25,0,0
106898,-169.491525423729,4,2,1,5,0,0
107303,-200,4,2,1,25,0,0
108114,-28.5714285714286,4,2,1,45,0,0
108722,-57.1428571428571,4,2,1,45,0,0
109381,-57.1428571428571,4,2,1,15,0,0
109533,-28.5714285714286,4,2,1,45,0,0
110141,-40,4,2,1,45,0,0
111763,-28.5714285714286,4,2,1,45,0,0
112371,-50,4,2,1,45,0,0
113587,-57.1428571428571,4,2,1,45,0,0
118047,-57.1428571428571,4,2,1,5,0,0
118148,-57.1428571428571,4,2,1,45,0,0
120276,-100,4,2,1,25,0,0
121087,-100,4,2,1,15,0,0
132439,-100,4,2,1,35,0,0
133249,-200,4,2,1,35,0,0
134060,-25,4,2,1,45,0,0
136290,-50,4,2,1,45,0,0
137303,-25,4,2,1,45,0,0
138520,-50,4,2,1,45,0,0
138925,-25,4,2,1,45,0,0
139533,-33.3333333333333,4,2,1,45,0,0
140547,-25,4,2,1,45,0,0
141155,-28.5714285714286,4,2,1,45,0,0
141560,-25,4,2,1,45,0,0
141763,-50,4,2,1,45,0,0
142168,-28.5714285714286,4,2,1,45,0,0
142574,-25,4,2,1,45,0,0
142979,-33.3333333333333,4,2,1,45,0,0
143790,-25,4,2,1,45,0,0
145006,-50,4,2,1,45,0,0
146222,-25,4,2,1,45,0,0
147439,-33.3333333333333,4,2,1,45,0,0
147641,-28.5714285714286,4,2,1,45,0,0
148249,-50,4,2,1,45,0,0
148655,-25,4,2,1,45,0,0
149263,-50,4,2,1,45,0,0
150276,-25,4,2,1,45,0,0
151087,-25,4,2,1,45,0,0
151239,-25,4,2,1,5,0,0
151290,-25,4,2,1,45,0,0
151493,-50,4,2,1,45,0,0
151898,-40,4,2,1,45,0,0
152709,-25,4,2,1,45,0,0
154128,-28.5714285714286,4,2,1,45,0,0
154533,-25,4,2,1,45,0,0
154736,-50,4,2,1,45,0,0
155141,-25,4,2,1,45,0,0
155952,-50,4,2,1,45,0,0
157979,-66.6666666666667,4,2,1,45,0,0
158283,-66.6666666666667,4,2,1,5,0,0
158385,-66.6666666666667,4,2,1,45,0,0
160007,-57.1428571428571,4,2,1,35,0,0
163097,-57.1428571428571,4,2,1,15,0,0
163249,-57.1428571428571,4,2,1,35,0,0
169584,-57.1428571428571,4,2,1,15,0,0
169737,-57.1428571428571,4,2,1,35,0,0
172979,-100,4,2,1,35,0,0

[Colours]
Combo1 : 0,206,0
Combo2 : 225,225,0
Combo3 : 96,96,96
Combo4 : 255,0,0
Combo5 : 255,70,163

[HitObjects]
38,85,2709,5,0,3:0:0:0:
38,85,2912,2,0,L|41:102,3,17.5
53,170,3317,5,8,0:0:0:0:
53,170,3520,2,0,L|56:188,1,17.5
56,187,3722,2,0,L|59:204,1,17.5
62,221,3925,5,8,0:0:0:0:
59,204,4026,1,0,3:0:0:0:
176,236,4229,1,8,0:0:0:0:
173,252,4331,6,0,L|165:296,1,35,0|0,3:0|0:0,0:0:0:0:
122,360,4736,1,8,0:0:0:0:
122,360,4939,2,0,B|200:337|169:383|254:363,1,122.500001168251
311,314,5547,1,8,0:0:0:0:
321,374,5749,2,0,L|310:313,1,61.2500005841255,0|0,0:0|3:0,0:0:0:0:
355,218,6155,1,8,0:0:0:0:
347,225,6256,1,8,0:0:0:0:
336,226,6358,1,8,0:0:0:0:
146,233,6560,2,0,B|169:241|207:227|219:193|219:193|225:210|221:234,1,122.500001168251
200,310,7168,1,0,3:0:0:0:
200,310,7371,2,0,L|195:335,3,15.3125001460314,2|2|2|2,0:0|0:0|0:0|0:0,0:0:0:0:
197,325,7574,6,0,P|170:339|139:341,1,61.2500005841255,0|0,3:0|0:0,0:0:0:0:
40,320,7979,1,8,0:0:0:0:
40,320,8182,2,0,B|17:242|63:273|43:188,1,122.500001168251
20,117,8790,1,2,0:0:0:0:
81,128,8993,2,0,L|20:117,1,61.2500005841255,0|0,0:0|3:0,0:0:0:0:
140,42,9398,1,8,0:0:0:0:
140,57,9500,1,8,0:0:0:0:
132,69,9601,1,8,0:0:0:0:
81,128,9803,1,0,0:0:0:0:
140,179,10006,1,10,3:0:0:0:
152,187,10107,1,0,3:0:0:0:
165,191,10209,1,8,0:2:0:0:
178,191,10310,1,8,0:2:0:0:
190,187,10412,1,0,3:0:0:0:
190,187,10513,2,0,L|193:148,1,30.6250002920628,8|0,0:1|0:0,0:0:0:0:
271,199,10716,1,8,0:1:0:0:
271,199,10817,6,0,L|276:258,1,52.5000020027161,0|0,3:0|0:0,0:0:0:0:
349,315,11222,1,0,0:0:0:0:
349,315,11425,2,0,B|296:306|271:340|271:340|284:355|310:347,1,122.500001168251
430,287,12033,1,0,0:0:0:0:
425,349,12236,2,0,L|430:287,1,61.2500005841255,0|0,0:0|3:0,0:0:0:0:
449,192,12641,1,8,0:0:0:0:
445,204,12743,1,8,0:0:0:0:
434,212,12844,1,8,0:0:0:0:
330,194,13047,2,0,B|252:171|283:217|198:197,1,122.500001168251
103,129,13655,1,0,3:0:0:0:
103,129,13858,2,0,L|105:154,3,15.3125001460314,2|2|2|2,0:0|0:0|0:0|0:0,0:0:0:0:
104,144,14060,6,0,P|102:179|93:204,1,61.2500005841255,0|0,3:0|0:0,0:0:0:0:
0,277,14466,1,0,0:0:0:0:
0,277,14668,2,0,P|37:273|51:344,1,122.500001168251
177,384,15276,1,2,0:0:0:0:
116,379,15479,2,0,L|189:385,1,61.2500005841255,0|0,0:0|3:0,0:0:0:0:
158,292,15885,1,8,0:0:0:0:
156,304,15986,1,8,0:0:0:0:
159,315,16087,1,8,0:0:0:0:
241,384,16290,1,0,0:0:0:0:
310,302,16493,6,0,B|310:286|310:286|304:267,1,30.6250002920628,8|8,3:0|0:1,0:0:0:0:
206,213,16695,1,0,0:0:0:0:
235,217,16797,1,0,0:0:0:0:
264,207,16898,1,0,3:0:0:0:
284,184,16999,2,0,L|280:138,1,30.6250002920628,8|0,0:1|3:0,0:0:0:0:
406,164,17202,1,8,0:1:0:0:
385,141,17303,6,0,L|390:82,1,52.5000020027161,0|0,3:0|0:0,0:0:0:0:
452,18,17709,1,2,0:0:0:0:
445,27,17912,1,0,0:0:0:0:
342,3,18114,1,8,0:3:0:0:
342,3,18520,5,2,0:0:0:0:
293,53,18722,1,0,0:0:0:0:
224,34,18925,1,0,3:0:0:0:
232,155,19128,1,8,0:0:0:0:
236,143,19230,1,0,0:0:0:0:
233,130,19331,2,0,L|166:135,1,52.5000020027161,2|0,0:0|0:0,0:0:0:0:
91,113,19736,1,8,0:3:0:0:
172,372,20141,1,2,0:0:0:0:
175,306,20344,2,0,P|174:299|173:292,3,13.125000500679,2|2|2|2,0:0|0:0|0:0|0:0,0:0:0:0:
170,282,20547,5,0,3:0:0:0:
103,251,20749,2,0,P|129:221|202:215,1,105.000004005432
263,314,21358,1,8,0:3:0:0:
263,314,21763,2,0,L|257:373,1,52.5000020027161,2|0,0:0|0:0,0:0:0:0:
430,273,22168,5,2,3:2:0:0:
338,304,22371,1,8,0:0:0:0:
352,309,22473,1,0,0:0:0:0:
366,306,22574,2,0,L|361:253,1,52.5000020027161,0|2,0:0|0:0,0:0:0:0:
466,169,22979,6,0,P|442:178|415:179,1,52.5000020027161,8|0,0:3|0:0,0:0:0:0:
386,83,23182,1,8,0:1:0:0:
370,109,23283,1,8,0:0:0:0:
342,128,23385,1,0,3:0:0:0:
342,128,23486,2,0,L|294:132,1,35,8|0,0:1|3:0,0:0:0:0:
190,23,23689,1,8,0:1:0:0:
190,23,23790,6,0,L|246:27,1,52.5000020027161,0|0,3:0|0:0,0:0:0:0:
252,30,24094,1,0,0:0:0:0:
247,42,24195,1,0,0:0:0:0:
120,0,24398,1,0,0:0:0:0:
147,130,24601,1,8,0:3:0:0:
147,130,24803,1,0,3:0:0:0:
153,117,24905,1,0,0:0:0:0:
151,102,25006,2,0,L|94:106,1,52.5000020027161
17,81,25412,5,0,0:0:0:0:
29,186,25615,1,0,0:0:0:0:
27,171,25716,1,0,0:0:0:0:
26,155,25817,1,0,0:0:0:0:
101,255,26020,1,0,0:0:0:0:
200,180,26222,2,0,P|219:176|256:185,1,52.5000020027161,8|0,0:3|0:0,0:0:0:0:
404,181,26628,1,8,0:1:0:0:
375,182,26729,1,8,0:1:0:0:
333,200,26831,1,8,0:1:0:0:
308,251,26932,1,8,0:1:0:0:
318,314,27033,6,0,L|328:370,2,52.5,0|8|8,3:0|0:1|0:0,0:0:0:0:
289,144,27844,1,8,0:3:0:0:
291,157,28047,1,0,3:0:0:0:
363,81,28655,5,0,3:0:0:0:
400,0,28858,2,0,P|355:-8|314:9,1,91.8750008761883
301,23,29263,1,8,0:0:0:0:
375,149,29466,2,0,L|363:81,1,70,8|0,0:3|0:0,0:0:0:0:
246,117,30074,1,8,0:0:0:0:
263,120,30175,1,0,0:0:0:0:
281,124,30276,6,0,B|239:89|200:106|200:106|204:126|231:132,1,122.500001168251,0|0,3:0|0:0,0:0:0:0:
434,148,30885,2,0,P|404:140|374:147,1,61.2500005841255,0|8,0:0|0:3,0:0:0:0:
324,264,31290,1,0,0:0:0:0:
388,324,31493,2,0,L|392:273,1,35
333,379,31898,2,0,B|255:356|286:402|201:382,1,122.500001168251,0|0,3:0|0:0,0:0:0:0:
129,270,32506,1,0,0:0:0:0:
194,303,32709,2,0,P|165:334|80:324,1,122.500001168251,8|0,0:3|0:0,0:0:0:0:
41,276,33317,1,0,0:0:0:0:
51,132,33520,6,0,L|45:201,1,70,0|0,3:0|0:0,0:0:0:0:
191,167,34331,2,0,P|157:174|125:163,1,70,8|0,0:3|0:0,0:0:0:0:
112,30,34939,1,8,0:0:0:0:
112,42,35040,1,0,0:0:0:0:
106,53,35141,2,0,L|45:53,1,61.2500005841255,0|0,3:0|0:0,0:0:0:0:
35,53,35445,1,0,3:0:0:0:
24,53,35547,1,8,0:0:0:0:
51,132,35749,1,0,0:0:0:0:
78,211,35952,6,0,L|90:251,1,35,8|0,0:3|0:0,0:0:0:0:
165,287,36256,2,0,L|172:264,1,17.5,8|0,0:3|0:0,0:0:0:0:
175,254,36459,5,0,3:0:0:0:
170,270,36560,1,8,0:3:0:0:
64,383,36763,6,0,P|77:373|137:366,1,61.2500005841255,0|0,3:0|0:0,0:0:0:0:
188,378,37067,1,0,3:0:0:0:
188,378,37168,2,0,P|218:373|243:357,1,61.2500005841255,8|0,3:2|0:0,0:0:0:0:
191,192,37574,2,0,L|194:234,1,35,8|0,0:3|0:0,0:0:0:0:
215,122,37979,2,0,P|180:118|148:132,1,70,0|0,3:0|0:0,0:0:0:0:
87,219,38385,6,0,P|80:241|80:272,1,46.6666666666667,2|0,3:2|0:0,0:0:0:0:
194,226,38655,6,0,P|173:236|156:252,1,46.6666666666667,2|0,0:0|0:0,0:0:0:0:
264,307,38925,6,0,P|241:299|218:298,1,46.6666666666667,2|0,0:0|0:0,0:0:0:0:
228,377,39195,6,0,P|278:384|323:359,1,105.000004005432,8|0,0:3|0:0,0:0:0:0:
352,273,39803,1,0,0:0:0:0:
426,383,40006,6,0,L|432:309,2,70,0|0|8,3:0|0:0|0:3,0:0:0:0:
491,245,41222,5,0,0:0:0:0:
432,313,41425,1,0,0:0:0:0:
352,273,41628,2,0,L|347:219,1,52.5000020027161,0|0,3:0|0:0,0:0:0:0:
512,0,42439,6,0,L|473:3,1,35,2|8,0:0|0:3,0:0:0:0:
418,99,43249,6,0,P|391:81|359:75,1,52.5000020027161,0|0,3:0|0:0,0:0:0:0:
233,126,43452,1,2,0:0:0:0:
264,134,43553,1,2,0:0:0:0:
288,116,43655,2,0,L|284:72,1,43.75,2|0,0:0|0:0,0:0:0:0:
184,189,43858,2,0,B|175:242|209:267|209:267|224:254|213:225,1,122.500001168251,0|8,3:0|0:3,0:0:0:0:
93,94,44263,2,0,P|71:88|30:95,1,61.2500005841255,0|0,3:0|0:0,0:0:0:0:
5,228,44466,2,0,L|0:167,1,61.2500005841255,0|0,3:0|0:0,0:0:0:0:
101,296,44871,6,0,P|66:298|96:376,1,140,0|0,3:0|0:0,0:0:0:0:
88,379,45175,1,8,0:1:0:0:
97,378,45276,2,0,B|118:375|118:375|167:383,1,70,2|0,0:0|0:0,0:0:0:0:
232,272,45479,2,0,B|229:307,1,35,0|0,3:0|0:0,0:0:0:0:
186,216,45682,2,0,P|231:198|292:229,1,105,8|8,0:3|0:0,0:0:0:0:
336,269,46087,1,0,3:0:0:0:
363,285,46189,1,8,0:0:0:0:
404,286,46290,1,8,0:1:0:0:
446,257,46391,1,8,0:1:0:0:
457,190,46493,6,0,B|460:169|460:169|451:119,1,70,0|0,3:0|0:0,0:0:0:0:
450,17,46695,1,2,0:0:0:0:
394,56,46797,1,8,0:1:0:0:
332,27,46898,2,0,B|296:23|296:23|261:35,1,70
237,197,47101,2,0,B|258:167|258:167|265:131,1,70,0|0,3:0|0:0,0:0:0:0:
137,29,47303,2,0,B|151:62|151:62|179:86,1,70,8|0,0:3|3:0,0:0:0:0:
237,197,47608,1,0,0:0:0:0:
231,206,47709,2,0,B|158:223|189:177|111:200,1,122.500001168251,2|0,3:0|0:0,0:0:0:0:
0,253,48013,1,0,0:0:0:0:
7,261,48114,6,0,P|34:271|64:265,1,61.2500005841255,0|0,3:0|0:0,0:0:0:0:
112,199,48317,1,8,0:0:0:0:
113,189,48418,1,2,0:0:0:0:
114,179,48520,2,0,L|119:113,1,52.5000020027161,2|0,0:0|0:0,0:0:0:0:
282,107,48722,2,0,B|265:114|265:114|214:110,1,70,0|0,3:0|0:0,0:0:0:0:
71,25,48925,2,0,B|87:17|87:17|139:22,1,70,8|0,0:3|0:0,0:0:0:0:
333,169,49128,5,8,0:0:0:0:
354,140,49229,1,0,3:0:0:0:
359,104,49331,1,8,0:1:0:0:
345,60,49432,1,8,3:1:0:0:
305,32,49533,1,2,0:3:0:0:
244,34,49635,1,8,0:1:0:0:
200,94,49736,6,0,B|201:121|201:121|205:131|205:131|207:163,1,70,0|0,3:0|0:0,0:0:0:0:
225,286,49939,1,8,0:0:0:0:
245,222,50040,1,2,0:0:0:0:
200,172,50141,2,0,L|130:178,1,70,2|0,0:0|0:0,0:0:0:0:
48,264,50344,2,0,B|39:317|73:342|73:342|88:329|77:300,1,122.500001168251,0|8,3:0|0:3,0:0:0:0:
75,303,50648,1,0,0:0:0:0:
69,298,50749,1,0,3:0:0:0:
203,373,50952,2,0,P|237:383|271:375,1,70,0|0,3:0|0:0,0:0:0:0:
461,332,51358,6,0,B|388:349|419:303|341:326,1,122.500001168251,0|0,3:0|0:0,0:0:0:0:
264,363,51662,1,8,0:0:0:0:
269,375,51763,2,0,L|274:313,1,61.2500005841255
299,213,51966,2,0,P|267:227|217:214,1,70,8|0,3:1|0:0,0:0:0:0:
36,127,52168,2,0,P|73:128|117:82,1,87.5,8|0,0:3|3:0,0:0:0:0:
114,86,52472,1,8,0:0:0:0:
112,69,52574,1,0,3:0:0:0:
102,82,52675,1,8,0:0:0:0:
101,111,52776,1,8,0:1:0:0:
131,142,52878,1,8,0:1:0:0:
195,145,52979,6,0,B|219:139|244:143|244:143|263:167,1,70,0|0,3:0|0:0,0:0:0:0:
313,248,53182,1,0,0:0:0:0:
322,256,53283,2,0,L|317:203,1,52.5000020027161,8|0,0:1|0:0,0:0:0:0:
416,119,53486,1,0,0:0:0:0:
407,111,53587,2,0,L|411:163,1,52.5000020027161,8|0,3:1|0:0,0:0:0:0:
481,252,53790,5,8,0:3:0:0:
399,28,53993,1,0,3:0:0:0:
247,212,54195,2,0,P|210:218|171:198,1,70,0|0,3:0|0:0,0:0:0:0:
97,54,54601,1,0,3:0:0:0:
71,124,54803,1,8,0:0:0:0:
112,133,54905,1,2,0:0:0:0:
147,110,55006,1,2,0:0:0:0:
247,212,55209,1,8,3:1:0:0:
286,75,55412,2,0,B|292:43|292:43|283:14,1,61.2500005841255,8|0,0:1|0:0,0:0:0:0:
375,101,55614,2,0,B|368:132|368:132|377:161,1,61.2500005841255,8|0,0:0|3:0,0:0:0:0:
508,282,55817,1,8,0:0:0:0:
451,249,55918,1,8,0:1:0:0:
402,293,56020,1,2,3:0:0:0:
428,353,56121,1,8,0:1:0:0:
493,346,56222,6,0,B|458:338|458:338|364:361,1,122.500001168251,0|8,3:0|0:0,0:0:0:0:
358,363,56526,1,2,0:0:0:0:
342,367,56628,1,2,0:0:0:0:
210,278,56831,2,0,B|201:331|235:356|235:356|250:343|239:314,1,122.500001168251,0|8,3:0|0:3,0:0:0:0:
83,233,57236,2,0,P|115:243|149:236,1,70,0|0,3:0|0:0,0:0:0:0:
188,92,57439,2,0,L|182:162,1,70,0|8,3:0|0:0,0:0:0:0:
14,179,57743,1,8,0:1:0:0:
19,170,57844,6,0,P|83:169|82:232,1,140,0|0,3:0|0:0,0:0:0:0:
77,241,58148,1,8,0:1:0:0:
74,250,58249,2,0,B|69:270|69:270|73:320,1,70,2|0,0:0|0:0,0:0:0:0:
193,336,58452,2,0,B|158:333,1,35,0|0,3:0|0:0,0:0:0:0:
249,289,58655,2,0,P|267:334|236:395,1,105,8|8,0:3|0:0,0:0:0:0:
195,230,59060,1,0,3:0:0:0:
217,208,59162,1,8,0:0:0:0:
258,200,59263,1,8,0:1:0:0:
305,222,59364,1,8,0:1:0:0:
339,283,59466,6,0,B|360:294|360:294|417:299,1,70,0|0,3:0|0:0,0:0:0:0:
486,374,59668,1,8,0:0:0:0:
480,311,59770,1,8,0:1:0:0:
475,248,59871,2,0,L|469:187,1,52.5000020027161,2|0,0:0|0:0,0:0:0:0:
348,153,60074,2,0,B|383:161|383:161|415:149,1,70,0|0,3:0|0:0,0:0:0:0:
512,49,60276,6,0,B|475:42|446:73|446:73|429:40|392:36,1,140,8|0,0:3|3:0,0:0:0:0:
328,74,60581,1,0,0:0:0:0:
317,77,60682,2,0,B|242:87|277:44|197:60,1,122.500001168251,2|0,3:0|0:0,0:0:0:0:
63,83,60986,1,0,0:0:0:0:
70,91,61087,6,0,P|97:101|128:99,1,61.2500005841255,0|0,3:0|0:0,0:0:0:0:
197,140,61289,1,2,0:0:0:0:
195,155,61391,1,8,0:0:0:0:
194,170,61493,2,0,L|188:231,1,61.2500005841255,8|0,0:1|0:0,0:0:0:0:
53,340,61695,2,0,P|88:339|117:320,1,70,0|0,3:0|0:0,0:0:0:0:
246,384,61898,2,0,P|211:382|182:363,1,70,8|0,0:3|0:0,0:0:0:0:
319,138,62101,5,8,0:0:0:0:
332,153,62202,1,0,3:0:0:0:
345,183,62304,1,8,3:1:0:0:
348,216,62405,1,8,0:0:0:0:
336,256,62506,1,2,0:3:0:0:
302,294,62608,1,8,0:1:0:0:
232,311,62709,6,0,B|206:313|206:313|200:317|200:317|157:321,1,70,0|0,3:0|0:0,0:0:0:0:
0,318,62912,1,8,0:0:0:0:
70,331,63013,1,2,0:0:0:0:
116,276,63114,2,0,B|117:247|117:247|106:225,1,52.5000020027161,2|0,0:0|0:0,0:0:0:0:
237,150,63317,2,0,B|184:141|159:175|159:175|172:190|201:179,1,122.500001168251,0|8,3:0|0:3,0:0:0:0:
330,222,63722,2,0,P|308:228|267:221,1,61.2500005841255,0|0,3:0|0:0,0:0:0:0:
230,79,63925,2,0,L|237:149,1,70,0|0,3:0|0:0,0:0:0:0:
330,222,64331,6,0,P|365:224|335:302,1,140,0|0,3:0|0:0,0:0:0:0:
343,305,64635,1,8,0:1:0:0:
334,304,64736,2,0,B|313:301|313:301|264:309,1,70,2|0,0:0|0:0,0:0:0:0:
199,198,64939,2,0,B|202:233,1,35,0|0,3:0|0:0,0:0:0:0:
245,142,65142,2,0,P|200:124|139:155,1,105,8|8,0:3|0:0,0:0:0:0:
110,209,65547,1,0,3:0:0:0:
38,190,65648,1,8,0:0:0:0:
33,116,65749,1,8,0:1:0:0:
101,87,65851,1,8,0:1:0:0:
149,143,65952,6,0,L|141:217,1,70,0|0,3:0|0:0,0:0:0:0:
141,227,66256,1,8,0:1:0:0:
242,324,66560,5,0,3:0:0:0:
339,223,66763,1,8,0:3:0:0:
263,246,66966,1,0,3:0:0:0:
341,137,67168,2,0,B|348:156|348:156|343:213,1,78.7500030040742,2|0,0:3|0:0,0:0:0:0:
339,223,67574,5,0,3:0:0:0:
437,261,67776,1,8,0:0:0:0:
420,268,67877,1,2,0:0:0:0:
402,265,67979,1,8,0:0:0:0:
345,229,68081,1,8,0:0:0:0:
285,260,68182,2,0,L|282:290,1,26.2500010013581,8|0,0:3|0:0,0:0:0:0:
313,361,68385,2,0,P|264:349|219:374,1,105.000004005432,2|8,0:0|0:0,0:0:0:0:
216,384,68891,1,0,3:0:0:0:
129,321,69094,1,8,0:0:0:0:
141,326,69195,6,0,L|135:264,1,61.2500005841255,0|0,3:0|0:0,0:0:0:0:
51,122,69601,1,8,0:0:0:0:
16,187,69803,2,0,P|55:196|123:139,1,122.500001168251
203,294,70412,1,8,0:0:0:0:
237,228,70614,2,0,P|178:223|135:264,1,122.500001168251,0|8,0:0|0:0,0:0:0:0:
132,276,71121,1,8,0:0:0:0:
131,287,71222,1,8,0:0:0:0:
271,339,71425,2,0,B|221:358|190:326|190:326|201:311|202:291,1,122.500001168251
181,187,72033,1,0,3:0:0:0:
181,187,72236,2,0,L|178:160,3,15.3125001460314,2|2|2|2,0:0|0:0|0:0|0:0,0:0:0:0:
179,171,72439,6,0,P|210:175|247:158,1,61.2500005841255,0|0,3:0|0:0,0:0:0:0:
328,43,72844,1,8,0:0:0:0:
363,108,73046,2,0,P|324:117|256:60,1,122.500001168251
113,157,73655,1,10,0:0:0:0:
78,222,73857,2,0,P|137:227|180:186,1,122.500001168251,0|8,0:0|0:0,0:0:0:0:
183,177,74364,1,8,0:0:0:0:
185,164,74466,1,8,0:0:0:0:
250,302,74668,1,0,3:0:0:0:
388,237,74871,1,8,0:1:0:0:
415,254,74972,1,0,3:0:0:0:
433,284,75074,1,8,0:1:0:0:
435,318,75175,1,8,3:1:0:0:
423,349,75276,1,2,0:3:0:0:
396,372,75378,2,0,B|360:382|360:382|325:370,1,70,8|0,0:1|3:0,0:0:0:0:
248,288,75581,1,8,0:1:0:0:
250,302,75682,6,0,L|255:363,1,61.2500005841255,0|0,3:0|0:0,0:0:0:0:
135,312,76087,1,8,0:0:0:0:
73,351,76290,2,0,P|102:378|189:362,1,122.500001168251
291,230,76899,1,8,0:0:0:0:
353,268,77101,2,0,P|305:301|247:287,1,122.500001168251,0|8,0:0|0:0,0:0:0:0:
241,280,77608,1,8,0:0:0:0:
235,271,77709,1,8,0:0:0:0:
241,158,77912,2,0,B|262:147|285:153|285:153|303:184|290:229,1,122.500001168251
179,370,78520,1,0,3:0:0:0:
179,370,78722,2,0,L|178:355,3,15.3125001460314,2|2|2|2,0:0|0:0|0:0|0:0,0:0:0:0:
178,355,78925,6,0,P|206:343|247:349,1,61.2500005841255,0|0,3:0|0:0,0:0:0:0:
401,349,79331,1,8,0:0:0:0:
337,384,79533,2,0,P|332:324|373:281,1,122.500001168251
161,260,80142,1,8,0:0:0:0:
229,285,80344,2,0,P|226:225|180:189,1,122.500001168251,0|8,0:0|0:0,0:0:0:0:
169,186,80851,1,8,0:0:0:0:
149,187,80952,1,8,0:0:0:0:
270,219,81155,1,0,3:0:0:0:
302,98,81358,2,0,B|303:70|303:70|293:44,1,52.5000020027161,8|0,0:3|3:0,0:0:0:0:
126,91,81560,1,8,0:1:0:0:
150,115,81662,1,8,0:0:0:0:
184,120,81763,1,0,3:0:0:0:
215,105,81864,2,0,P|228:92|239:77,1,30.6250002920628,8|0,1:0|3:0,0:0:0:0:
409,191,82067,1,8,0:1:0:0:
399,187,82168,6,0,P|387:172|378:121,1,70,2|0,0:0|0:0,0:0:0:0:
431,53,82776,1,0,0:0:0:0:
431,53,83385,5,2,0:0:0:0:
351,88,83587,1,2,0:0:0:0:
296,19,83790,2,0,P|281:12|241:13,1,56,2|2,0:0|0:0,0:0:0:0:
199,197,85412,5,2,0:0:0:0:
206,190,85479,1,2,0:0:0:0:
212,181,85547,1,2,0:0:0:0:
213,170,85614,2,0,L|208:128,1,42,2|0,0:0|0:0,0:0:0:0:
148,49,86628,1,8,0:0:0:0:
128,66,86729,1,0,3:0:0:0:
103,75,86831,1,0,0:0:0:0:
77,74,86932,1,8,0:1:0:0:
54,64,87033,5,2,3:2:0:0:
158,181,87337,1,2,3:2:0:0:
274,77,87641,2,0,B|280:60|280:60|281:42,1,35,2|0,3:2|0:0,0:0:0:0:
319,156,87844,2,0,L|249:162,1,70,10|8,0:0|0:0,0:0:0:0:
239,163,88148,1,8,0:1:0:0:
387,131,88452,1,8,0:1:0:0:
387,131,88655,6,0,P|392:156|388:182,1,52.5000020027161,2|2,0:0|0:0,0:0:0:0:
454,214,89060,2,0,P|439:236|418:252,1,52.5000020027161,2|2,0:0|0:0,0:0:0:0:
243,308,89466,2,0,P|267:303|302:313,1,52.5000020027161,8|2,0:1|0:0,0:0:0:0:
401,352,89871,2,0,P|377:357|342:347,1,52.5000020027161,2|2,0:0|0:0,0:0:0:0:
351,201,90276,2,0,L|346:253,1,52.5000020027161,2|2,3:2|0:0,0:0:0:0:
260,152,90682,2,0,L|264:204,1,52.5000020027161,2|2,3:2|0:0,0:0:0:0:
474,138,91087,2,0,B|449:143|449:143|422:136,1,52.5000020027161,8|2,0:1|0:0,0:0:0:0:
296,71,91493,2,0,B|320:65|320:65|347:72,1,52.5000020027161,2|2,0:0|0:0,0:0:0:0:
357,81,91797,1,2,0:0:0:0:
361,90,91898,6,0,P|361:116|356:143,1,52.5000020027161,2|2,3:2|0:0,0:0:0:0:
263,203,92303,2,0,P|263:176|267:150,1,52.5000020027161,2|2,0:0|0:0,0:0:0:0:
402,262,92709,2,0,P|376:265|350:265,1,52.5000020027161,8|2,0:1|0:0,0:0:0:0:
246,321,93114,2,0,P|272:321|298:324,1,52.5000020027161,2|2,0:0|0:0,0:0:0:0:
143,289,93520,5,2,3:2:0:0:
150,302,93722,1,2,0:0:0:0:
81,331,93925,5,2,0:0:0:0:
88,339,94127,1,2,0:0:0:0:
35,379,94331,6,0,P|54:350|50:304,1,78.7500030040742,8|0,0:1|0:0,0:0:0:0:
46,292,94635,2,0,L|4:295,1,39.3750015020371,8|2,0:1|0:0,0:0:0:0:
80,204,95141,5,2,3:0:0:0:
97,221,95344,1,0,0:0:0:0:
237,165,95547,2,0,P|209:151|179:154,1,61.2500005841255
173,160,95851,1,0,0:0:0:0:
165,169,95952,2,0,L|170:232,1,61.2500005841255,8|0,0:3|0:0,0:0:0:0:
255,310,96358,5,0,0:0:0:0:
238,327,96561,1,0,0:0:0:0:
226,247,96763,2,0,B|304:224|273:270|358:250,1,122.500001168251,0|0,3:0|3:0,0:0:0:0:
410,195,97371,1,0,0:0:0:0:
352,130,97574,1,8,0:3:0:0:
359,140,97776,1,0,0:0:0:0:
384,77,97979,1,0,0:0:0:0:
341,23,98182,1,0,0:0:0:0:
272,33,98385,6,0,P|241:37|212:44,1,61.2500005841255,0|0,3:0|0:0,0:0:0:0:
252,111,98790,2,0,P|221:115|192:122,1,61.2500005841255
38,134,99195,5,8,0:1:0:0:
100,167,99331,1,2,0:0:0:0:
98,97,99466,1,2,0:0:0:0:
58,133,99600,5,2,0:0:0:0:
89,149,99736,1,2,0:0:0:0:
88,114,99871,1,2,0:0:0:0:
25,203,100006,6,0,P|21:232|26:263,1,58.3333333333333,0|0,3:0|0:0,3:0:0:0:
31,272,100412,2,0,L|66:268,1,35,2|2,0:0|0:0,0:0:0:0:
217,310,100817,2,0,P|161:299|119:323,1,105.000004005432,8|2,0:3|0:0,0:0:0:0:
174,371,101425,1,2,0:0:0:0:
257,379,101628,5,0,0:0:0:0:
403,301,102033,1,0,0:0:0:0:
336,313,102236,1,0,0:0:0:0:
290,261,102439,2,0,P|288:228|291:197,1,52.5000020027161
406,204,103249,2,0,B|457:208|457:208|488:197,2,70.0000026702882
273,143,104060,2,0,P|290:173|289:208,1,70
395,28,104871,6,0,B|317:5|348:51|263:31,1,123.899995651703
197,1,106493,2,0,L|201:48,1,41.2999985505677
0,0,107303,6,0,L|39:3,1,35,2|0,0:0|0:0,0:0:0:0:
121,162,108114,5,0,3:0:0:0:
156,97,108317,2,0,P|117:88|49:145,1,122.500001168251,4|0,0:0|0:0,0:0:0:0:
41,267,108722,2,0,L|31:207,1,61.2500005841255,2|0,0:0|0:0,0:0:0:0:
140,279,109128,1,0,0:0:0:0:
140,279,109331,2,0,L|155:276,3,15.3125001460314,2|2|2|2,0:0|0:0|0:0|0:0,0:0:0:0:
155,276,109533,6,0,B|234:259|199:303|286:290,1,122.500001168251,4|0,3:2|0:0,0:0:0:0:
412,338,109939,1,2,0:0:0:0:
465,275,110141,2,0,P|433:294|412:352,1,87.5,2|0,0:0|0:0,0:0:0:0:
303,189,110547,2,0,P|340:213|356:253,1,87.5,2|0,0:0|0:0,0:0:0:0:
464,103,110952,2,0,P|427:126|411:166,1,87.5,2|2,0:0|0:0,0:0:0:0:
294,196,111256,1,2,0:0:0:0:
303,189,111358,6,0,B|260:178|260:178|217:184,1,87.5,2|0,0:0|0:0,0:0:0:0:
15,233,111763,2,0,P|61:271|120:265,1,122.500001168251,4|0,0:0|0:0,0:0:0:0:
196,86,112168,1,0,0:0:0:0:
196,86,112371,2,0,L|189:157,1,70,0|0,3:0|0:0,0:0:0:0:
87,18,112776,1,4,3:2:0:0:
87,18,113182,5,2,3:2:0:0:
316,62,113385,1,0,3:0:0:0:
263,109,113486,1,0,3:0:0:0:
196,86,113587,2,0,L|201:20,1,61.2500005841255,0|0,3:0|3:0,0:0:0:0:
366,7,113993,1,8,3:1:0:0:
413,64,114195,2,0,P|371:81|327:69,1,91.8750008761883,8|0,0:1|0:0,0:0:0:0:
316,62,114601,6,0,L|322:132,1,61.2500005841255,2|0,3:2|0:0,0:0:0:0:
253,130,115006,2,0,L|259:200,1,61.2500005841255,2|0,0:0|0:0,0:0:0:0:
190,198,115412,1,0,3:0:0:0:
190,198,115817,1,2,0:0:0:0:
128,273,116121,1,2,0:0:0:0:
135,264,116222,6,0,L|61:257,1,61.2500005841255,2|0,3:2|0:0,0:0:0:0:
190,198,116628,2,0,L|116:191,1,61.2500005841255,2|0,0:0|0:0,0:0:0:0:
253,249,117033,2,0,L|326:242,1,61.2500005841255,2|0,3:2|0:0,0:0:0:0:
308,315,117439,2,0,L|381:308,1,61.2500005841255,2|2,0:0|0:0,0:0:0:0:
380,310,117743,1,2,0:0:0:0:
388,315,117844,6,0,P|400:359|392:398,1,61.2500005841255,2|0,3:2|0:0,0:0:0:0:
394,384,118148,1,2,0:0:0:0:
482,273,118452,1,2,3:2:0:0:
371,185,118655,5,2,0:0:0:0:
283,296,118959,1,2,0:0:0:0:
295,281,119060,1,2,3:2:0:0:
172,208,119263,1,2,0:0:0:0:
157,200,119364,1,2,0:0:0:0:
140,200,119466,6,0,L|70:206,1,61.2500005841255,2|2,3:2|0:0,0:0:0:0:
0,281,119871,2,0,L|69:274,1,61.2500005841255,2|2,0:0|0:0,0:0:0:0:
63,141,120276,2,0,P|61:176|79:205,1,70,2|0,3:2|3:0,0:0:0:0:
212,261,120986,1,2,0:0:0:0:
217,245,121087,5,6,0:0:0:0:
366,191,132439,5,2,3:2:0:0:
341,305,132743,5,2,0:0:0:0:
458,257,132945,5,8,0:1:0:0:
453,269,133046,1,0,3:0:0:0:
256,236,133249,6,0,L|256:201,1,35,2|8,0:0|0:0,0:0:0:0:
256,190,133756,1,0,3:0:0:0:
256,179,133858,1,0,3:0:0:0:
154,275,134061,5,0,3:0:0:0:
137,365,134263,2,0,B|123:357|119:340|119:340|146:355|202:353|221:308,1,140,4|0,0:0|0:0,0:0:0:0:
256,227,134668,1,0,3:0:0:0:
360,169,134871,2,0,P|323:226|256:227,1,140,8|0,0:1|3:0,0:0:0:0:
21,152,135276,2,0,P|88:155|122:213,1,140,8|0,0:1|3:0,0:0:0:0:
255,85,135682,2,0,B|221:82|194:117|194:117|179:80|140:75,1,140,0|8,3:0|0:0,0:0:0:0:
135,74,135986,1,8,0:1:0:0:
125,73,136087,1,8,0:1:0:0:
122,213,136290,2,0,L|129:144,1,70,8|0,0:1|0:0,0:0:0:0:
37,201,136594,5,8,0:0:0:0:
62,218,136695,1,8,0:1:0:0:
93,223,136797,1,8,0:0:0:0:
122,213,136898,1,8,3:1:0:0:
144,191,137000,1,8,0:1:0:0:
178,159,137101,1,8,3:1:0:0:
228,155,137202,1,8,0:1:0:0:
276,183,137303,6,0,B|287:200|287:200|281:255,1,70,0|0,3:0|0:0,0:0:0:0:
381,345,137506,1,0,0:0:0:0:
374,339,137608,2,0,B|361:324|361:324|356:274,1,70,8|0,0:1|0:0,0:0:0:0:
491,160,137810,1,0,0:0:0:0:
487,169,137912,2,0,B|454:179|454:179|420:169,1,70,0|0,3:0|0:0,0:0:0:0:
294,100,138114,1,10,0:3:0:0:
406,274,138317,1,0,3:0:0:0:
501,90,138520,2,0,B|502:74|502:74|497:55,1,35,0|0,3:0|0:0,0:0:0:0:
299,30,138722,1,2,0:0:0:0:
316,33,138824,1,2,0:0:0:0:
328,27,138925,2,0,B|274:19|274:19|294:101,1,140,2|0,3:0|0:0,0:0:0:0:
324,251,139331,1,0,0:0:0:0:
165,215,139533,6,0,P|150:246|152:274,1,52.5000020027161,0|0,3:0|0:0,0:0:0:0:
257,198,139736,2,0,P|272:167|270:139,1,52.5000020027161,10|8,0:3|0:0,0:0:0:0:
49,227,139939,5,2,0:0:0:0:
63,236,140040,1,0,3:0:0:0:
93,245,140141,1,8,3:1:0:0:
128,241,140243,1,8,0:1:0:0:
165,215,140344,1,2,0:3:0:0:
181,165,140445,1,8,0:1:0:0:
152,97,140547,6,0,B|133:84|133:84|78:79,1,70,2|0,3:0|0:0,0:0:0:0:
267,44,140749,1,2,0:0:0:0:
266,56,140851,1,2,0:0:0:0:
264,67,140952,2,0,L|257:154,1,70,8|0,0:0|0:0,0:0:0:0:
334,263,141155,2,0,B|378:293|415:273|415:273|409:254|378:251,1,122.500001168251,0|10,3:0|0:3,0:0:0:0:
221,341,141560,2,0,B|256:349|256:349|300:329,1,70,0|0,3:0|0:0,0:0:0:0:
146,242,141763,2,0,L|153:311,1,70,0|0,3:0|0:0,0:0:0:0:
74,211,142067,1,2,0:0:0:0:
78,201,142168,6,0,P|124:164|184:168,1,122.500001168251,2|0,3:0|0:0,0:0:0:0:
250,222,142472,1,8,0:1:0:0:
255,213,142574,2,0,B|268:178|268:178|261:138,1,70,2|0,0:0|0:0,0:0:0:0:
355,234,142776,2,0,B|342:269|342:269|349:309,1,70,8|0,3:1|0:0,0:0:0:0:
506,176,142979,2,0,P|456:189|411:165,1,105.000004005432,10|8,0:3|0:0,0:0:0:0:
398,140,143283,1,2,0:0:0:0:
400,123,143385,1,0,3:0:0:0:
410,136,143486,1,8,0:0:0:0:
411,165,143587,1,10,0:3:0:0:
381,196,143689,1,8,0:1:0:0:
317,199,143790,6,0,B|293:193|268:197|268:197|249:221,1,70,0|0,3:0|0:0,0:0:0:0:
256,363,143993,1,2,0:0:0:0:
265,355,144094,2,0,B|282:337|291:313|291:313|279:285,1,70,8|0,0:1|0:0,0:0:0:0:
153,220,144297,1,2,0:0:0:0:
155,231,144398,2,0,B|161:254|177:274|177:274|208:278,1,70,0|0,3:0|0:0,0:0:0:0:
24,342,144601,5,10,0:3:0:0:
111,93,144803,1,0,3:0:0:0:
283,294,145006,2,0,P|320:300|359:280,1,70,2|2,3:0|0:0,0:0:0:0:
395,228,145310,1,0,0:0:0:0:
397,218,145412,2,0,B|400:190|400:190|390:141,1,70,0|0,3:2|0:0,0:0:0:0:
493,127,145817,1,2,0:0:0:0:
492,109,145918,1,2,0:0:0:0:
485,93,146020,1,8,3:1:0:0:
433,52,146121,1,2,0:0:0:0:
367,60,146222,2,0,L|276:67,1,70,10|0,0:3|0:0,0:0:0:0:
141,60,146425,5,8,0:0:0:0:
167,97,146526,1,0,3:0:0:0:
167,143,146628,1,8,0:1:0:0:
139,179,146729,1,8,0:1:0:0:
108,218,146831,1,2,0:3:0:0:
107,274,146932,1,8,0:1:0:0:
142,325,147033,6,0,B|176:334|176:334|215:325,1,70,2|0,3:2|0:0,0:0:0:0:
309,256,147236,1,8,0:0:0:0:
347,317,147338,1,8,0:1:0:0:
313,380,147439,2,0,L|249:385,1,52.5000020027161,8|0,0:0|0:0,0:0:0:0:
414,282,147641,2,0,B|460:255|495:278|495:278|488:297|457:296,1,122.500001168251,0|10,3:0|0:3,0:0:0:0:
248,261,148047,2,0,L|309:256,1,61.2500005841255,0|0,3:0|0:0,0:0:0:0:
183,161,148249,2,0,P|168:193|174:227,1,70,0|0,3:0|0:0,0:0:0:0:
216,84,148553,1,2,0:0:0:0:
205,80,148655,6,0,P|150:108|183:161,1,140,0|0,3:0|0:0,0:0:0:0:
192,163,148959,1,8,0:1:0:0:
201,162,149060,2,0,B|222:159|222:159|271:167,1,70,2|0,0:0|0:0,0:0:0:0:
336,56,149263,2,0,B|333:91,1,35,0|0,3:0|0:0,0:0:0:0:
290,2,149466,2,0,P|335:-16|396:15,1,105,10|8,0:3|0:0,0:0:0:0:
503,141,149871,1,0,3:0:0:0:
436,170,149973,1,8,0:0:0:0:
390,115,150074,1,8,0:1:0:0:
428,57,150175,1,8,0:1:0:0:
497,74,150276,6,0,B|507:92|507:92|502:147,1,70,0|0,3:0|0:0,0:0:0:0:
439,274,150479,1,8,0:0:0:0:
408,339,150581,1,8,0:1:0:0:
367,280,150682,2,0,B|362:231|362:231|373:212,1,70,2|0,0:0|0:0,0:0:0:0:
256,117,150885,2,0,B|267:136|267:136|263:185,1,70,8|0,3:1|0:0,0:0:0:0:
41,269,151087,6,0,P|78:281|138:238,1,105,10|0,0:3|0:0,0:0:0:0:
136,239,151290,1,0,3:0:0:0:
1,382,151493,2,0,P|23:364|79:359,1,70,0|0,3:0|0:0,0:0:0:0:
158,373,151797,1,2,0:0:0:0:
165,378,151898,2,0,B|185:360|185:360|191:289,1,87.5,0|2,3:0|0:0,0:0:0:0:
252,197,152202,1,8,0:0:0:0:
248,206,152303,1,8,0:0:0:0:
173,77,152506,1,0,3:0:0:0:
377,131,152709,2,0,B|361:123|361:123|309:128,1,70,10|0,0:3|0:0,0:0:0:0:
115,281,152912,5,8,0:0:0:0:
94,252,153013,1,0,3:0:0:0:
89,216,153115,1,8,3:1:0:0:
103,172,153216,1,8,0:1:0:0:
143,144,153317,1,2,0:3:0:0:
204,146,153419,1,8,0:1:0:0:
248,206,153520,6,0,B|249:232|249:232|247:243|247:243|250:275,1,70,0|0,3:0|0:0,0:0:0:0:
348,334,153722,1,0,0:0:0:0:
280,339,153824,1,10,0:0:0:0:
212,345,153925,2,0,L|129:353,1,70,10|0,0:0|0:0,0:0:0:0:
328,248,154128,2,0,B|374:221|409:244|409:244|402:263|371:262,1,122.500001168251,0|10,3:0|0:3,0:0:0:0:
341,71,154533,2,0,P|309:56|263:67,1,70,0|0,3:0|0:0,0:0:0:0:
247,205,154736,2,0,L|241:136,1,70,0|0,3:0|0:0,0:0:0:0:
97,155,155040,1,2,0:0:0:0:
104,163,155141,6,0,P|136:178|182:167,1,70,0|0,3:0|0:0,0:0:0:0:
324,235,155344,1,2,0:0:0:0:
318,223,155445,1,8,0:1:0:0:
312,216,155547,2,0,P|280:201|234:212,1,70,8|0,0:0|0:0,0:0:0:0:
69,328,155749,1,0,3:0:0:0:
138,366,155851,1,8,0:0:0:0:
206,326,155952,2,0,L|199:256,1,70,10|0,0:3|0:0,0:0:0:0:
219,182,156358,1,0,3:3:0:0:
154,144,156459,1,8,0:3:0:0:
98,193,156560,1,8,0:3:0:0:
126,261,156662,1,8,0:3:0:0:
199,256,156763,6,0,P|231:248|284:264,1,70,0|0,3:3|0:3,0:3:0:0:
279,263,157067,1,8,0:3:0:0:
413,224,157371,5,0,3:0:0:0:
316,123,157574,1,8,0:3:0:0:
392,146,157777,1,0,3:0:0:0:
323,45,157979,2,0,B|307:56|307:56|301:80|312:114,1,78.7500030040742,2|0,0:3|0:0,0:0:0:0:
316,123,158385,5,0,3:0:0:0:
218,159,158588,1,8,0:0:0:0:
235,166,158689,1,2,0:0:0:0:
253,163,158791,1,8,0:0:0:0:
310,127,158891,1,8,0:0:0:0:
370,158,158994,2,0,L|373:188,1,26.2500010013581,8|0,0:3|0:0,0:0:0:0:
342,259,159195,2,0,P|391:247|436:272,1,105.000004005432,2|8,0:0|0:0,0:0:0:0:
439,282,159703,1,0,3:0:0:0:
499,188,159906,1,8,0:0:0:0:
487,193,160007,6,0,L|482:130,1,61.2500005841255,0|0,3:0|0:0,0:0:0:0:
415,31,160412,1,0,0:0:0:0:
415,31,160614,2,0,B|334:21|372:61|285:56,1,122.500001168251
199,39,161222,1,0,0:0:0:0:
204,100,161425,2,0,L|197:29,1,61.2500005841255,0|0,0:0|3:0,0:0:0:0:
113,82,161831,1,8,0:0:0:0:
100,89,161932,1,8,0:0:0:0:
85,88,162033,1,8,0:0:0:0:
12,129,162235,2,0,B|35:137|73:123|85:89|85:89|91:106|87:130,1,122.500001168251
66,206,162843,1,0,3:0:0:0:
66,206,163047,2,0,L|61:231,3,15.3125001460314,2|2|2|2,0:0|0:0|0:0|0:0,0:0:0:0:
63,221,163249,6,0,P|36:235|5:237,1,61.2500005841255,0|0,3:0|0:0,0:0:0:0:
104,308,163655,1,8,0:0:0:0:
104,308,163858,2,0,B|184:298|146:338|233:333,1,122.500001168251
304,311,164466,1,8,0:0:0:0:
299,373,164668,2,0,L|305:300,1,61.2500005841255,0|0,0:0|3:0,0:0:0:0:
399,251,165074,1,8,0:0:0:0:
384,250,165175,1,8,0:0:0:0:
371,257,165276,1,8,0:0:0:0:
304,311,165479,1,0,0:0:0:0:
290,222,165682,1,10,3:0:0:0:
281,210,165783,1,0,3:0:0:0:
271,201,165885,1,8,0:2:0:0:
260,195,165986,1,8,0:2:0:0:
247,193,166088,1,0,3:0:0:0:
247,193,166189,2,0,L|210:196,1,30.6250002920628,8|0,0:1|0:0,0:0:0:0:
96,144,166392,1,8,0:1:0:0:
96,144,166493,6,0,L|157:138,1,61.2500005841255,0|0,3:0|0:0,0:0:0:0:
273,77,166898,1,0,0:0:0:0:
273,77,167101,2,0,B|282:157|242:119|247:206,1,122.500001168251
154,29,167709,1,0,0:0:0:0:
215,24,167912,2,0,L|154:30,1,61.2500005841255,0|0,0:0|3:0,0:0:0:0:
95,117,168318,1,8,0:0:0:0:
88,104,168419,1,8,0:0:0:0:
89,89,168520,1,8,0:0:0:0:
232,174,168722,2,0,B|179:165|154:199|154:199|167:214|193:206,1,122.500001168251
293,259,169331,1,0,3:0:0:0:
293,259,169533,2,0,L|298:234,3,15.3125001460314,2|2|2|2,0:0|0:0|0:0|0:0,0:0:0:0:
296,244,169737,6,0,P|323:230|354:228,1,61.2500005841255,0|0,3:0|0:0,0:0:0:0:
467,294,170141,1,0,0:0:0:0:
467,294,170344,2,0,B|476:213|436:251|441:164,1,122.500001168251
493,61,170952,1,8,0:0:0:0:
431,55,171155,2,0,L|492:60,1,61.2500005841255,0|0,0:0|3:0,0:0:0:0:
440,177,171561,1,8,0:0:0:0:
432,164,171662,1,8,0:0:0:0:
418,157,171763,1,8,0:0:0:0:
316,230,171966,1,0,0:0:0:0:
243,128,172168,6,0,B|243:112|243:112|249:93,1,30.6250002920628,8|8,3:0|0:1,0:0:0:0:
108,162,172370,1,0,0:0:0:0:
137,158,172472,1,0,0:0:0:0:
166,168,172573,1,0,3:0:0:0:
186,191,172674,2,0,L|182:237,1,30.6250002920628,8|0,0:1|3:0,0:0:0:0:
316,230,172878,1,8,0:1:0:0:
296,253,172979,6,0,B|274:285|286:322|286:322|251:297|216:313,1,140,2|0,0:0|0:0,0:0:0:0:
