osu file format v14

[General]
AudioFilename: audio.mp3
AudioLeadIn: 0
PreviewTime: 29354
Countdown: 0
SampleSet: Soft
StackLeniency: 0.7
Mode: 0
LetterboxInBreaks: 0
WidescreenStoryboard: 1

[Editor]
Bookmarks: 560,13417,23060,29488,42345,55202,63238
DistanceSpacing: 1.3
BeatDivisor: 4
GridSize: 16
TimelineZoom: 1

[Metadata]
Title:Main Theme
TitleUnicode:Main Theme
Artist:Mili
ArtistUnicode:Mili
Creator:Silent Rock
Version:Normal
Source:ENDER LILIES: Quietus of the Knights
Tags:Binary Haze Interactive Video game Instrumental dark fantasy Metroidvania ost original soundtrack momocashew cassie wei project projectmili yamato kasai hamo classical
BeatmapID:3491556
BeatmapSetID:1708682

[Difficulty]
HPDrainRate:5
CircleSize:5
OverallDifficulty:5
ApproachRate:5
SliderMultiplier:1.2
SliderTickRate:1

[Events]
//Background and Video events
0,0,"Ender liliess.jpg",0,0
//Break Periods
//Storyboard Layer 0 (Background)
//Storyboard Layer 1 (Fail)
//Storyboard Layer 2 (Pass)
//Storyboard Layer 3 (Foreground)
//Storyboard Layer 4 (Overlay)
//Storyboard Sound Samples

[TimingPoints]
560,535.714285714286,3,2,1,40,1,0
560,-125,3,2,1,40,0,0
1363,-125,3,2,1,5,0,0
1631,-125,3,2,1,40,0,0
2970,-125,3,2,1,5,0,0
3238,-125,3,2,1,40,0,0
4577,-125,3,2,1,5,0,0
4845,-125,3,2,1,40,0,0
5917,-125,3,2,1,30,0,0
6452,-125,3,2,1,40,0,0
7524,-125,3,2,1,5,0,0
7792,-125,3,2,1,40,0,0
8595,-125,3,2,1,40,0,0
9131,-125,3,2,1,5,0,0
9399,-125,3,2,1,40,0,0
10202,-125,3,2,1,40,0,0
10470,-125,3,2,1,5,0,0
10738,-125,3,2,1,40,0,0
11006,-125,3,2,1,5,0,0
11274,-125,3,2,1,40,0,0
11542,-125,3,2,1,5,0,0
11810,-125,3,2,1,30,0,0
12211,-125,3,2,1,5,0,0
12345,-125,3,2,1,35,0,0
12747,-125,3,2,1,5,0,0
12881,-125,3,2,1,40,0,0
13283,-125,3,2,1,5,0,0
13417,-111.111111111111,3,2,1,50,0,0
16631,-111.111111111111,3,2,1,50,0,0
18238,-111.111111111111,3,2,1,50,0,0
18774,-111.111111111111,3,2,1,40,0,0
19310,-111.111111111111,3,2,1,50,0,0
19845,-125,3,2,1,50,0,0
20381,-125,3,2,1,5,0,0
20649,-125,3,2,1,40,0,0
20917,-125,3,2,1,50,0,0
21452,-125,3,2,1,50,0,0
21988,-125,3,2,1,5,0,0
22256,-125,3,2,1,50,0,0
23060,-125,3,2,1,40,0,0
26006,-125,3,2,1,5,0,0
26274,-125,3,2,1,50,0,0
29220,-125,3,2,1,5,0,0
29488,-111.111111111111,3,2,1,50,0,0
42345,-100,3,2,1,50,0,0
43417,-100,3,2,1,5,0,0
43685,-100,3,2,1,50,0,0
43818,-100,3,2,1,5,0,0
43952,-100,3,2,1,50,0,0
45426,-100,3,2,1,5,0,0
45560,-100,3,2,1,50,0,0
46095,-90.9090909090909,3,2,1,50,0,0
46765,-90.9090909090909,3,2,1,5,0,0
46899,-90.9090909090909,3,2,1,50,0,0
47033,-90.9090909090909,3,2,1,5,0,0
47167,-100,3,2,1,50,0,0
48774,-125,3,2,1,50,0,0
49310,-125,3,2,1,30,0,0
49577,-125,3,2,1,35,0,0
49845,-125,3,2,1,40,0,0
50113,-125,3,2,1,45,0,0
50381,-125,3,2,1,50,0,0
52524,-125,3,2,1,30,0,0
52792,-125,3,2,1,35,0,0
53060,-125,3,2,1,40,0,0
53327,-125,3,2,1,45,0,0
53595,-125,3,2,1,50,0,0
54667,-125,3,2,1,40,0,0
55202,-166.666666666667,3,2,1,30,0,0
58417,-166.666666666667,3,2,2,40,0,0
58484,-166.666666666667,3,2,1,20,0,0
58551,-166.666666666667,3,2,1,20,0,0
60024,-166.666666666667,3,2,1,15,0,0
61631,-166.666666666667,3,2,1,10,0,0
63238,-166.666666666667,3,2,1,5,0,0

[Colours]
Combo1 : 242,189,231
Combo2 : 171,176,192
Combo3 : 230,215,170
Combo4 : 184,227,248

[HitObjects]
48,192,560,5,2,0:0:0:0:
256,353,1631,1,2,0:0:0:0:
256,353,2167,1,2,0:0:0:0:
464,192,3238,1,2,0:0:0:0:
464,192,3774,1,2,0:0:0:0:
256,31,4845,1,2,0:0:0:0:
256,31,5381,1,2,0:0:0:0:
256,242,6452,1,2,0:0:0:0:
319,157,6988,6,0,B|291:133|255:125|255:125|219:133|192:157,1,144,2|2,0:0|0:0,0:0:0:0:
164,185,8060,1,2,0:0:0:0:
43,133,8595,2,0,P|58:203|67:274,1,144,2|2,0:0|0:0,0:0:0:0:
94,302,9667,1,2,0:0:0:0:
207,249,10202,6,0,P|253:253|281:290,2,96,2|2|2,0:0|0:0|0:0,0:0:0:0:
95,194,11810,1,2,0:0:0:0:
212,153,12345,1,2,0:0:0:0:
315,83,12881,1,2,0:0:0:0:
427,138,13417,6,0,P|454:138|481:144,2,53.9999983520508,2|2|2,0:0|0:0|0:0,0:0:0:0:
332,240,14488,2,0,P|355:253|375:271,1,53.9999983520508,2|0,0:0|0:0,0:0:0:0:
406,328,15024,2,0,P|356:346|312:378,1,107.999996704102,2|2,0:0|0:0,0:0:0:0:
255,344,15827,1,0,0:0:0:0:
212,296,16095,1,2,0:0:0:0:
85,357,16631,6,0,P|93:331|98:304,2,53.9999983520508,2|2|2,0:0|0:0|0:0,0:0:0:0:
212,296,17702,2,0,P|203:270|198:243,1,53.9999983520508,2|0,0:0|0:0,0:0:0:0:
157,193,18238,2,0,P|198:159|206:107,2,107.999996704102,2|2|2,0:0|0:0|0:0,0:0:0:0:
98,305,19845,6,0,P|169:316|238:335,1,144,2|2,0:0|0:0,0:0:0:0:
275,346,20917,1,2,0:0:0:0:
362,257,21452,2,0,P|356:190|290:185,1,144,2|2,0:0|0:0,0:0:0:0:
260,210,22524,1,2,0:0:0:0:
149,152,23060,6,0,P|141:104|128:58,1,96,2|0,0:0|0:0,0:0:0:0:
171,64,23863,2,0,P|208:34|241:0,1,96,2|0,0:0|0:0,0:0:0:0:
258,39,24667,2,0,P|302:56|348:67,1,96,2|0,0:0|0:0,0:0:0:0:
323,101,25470,1,2,0:0:0:0:
232,231,26274,6,0,P|240:279|253:325,1,96,2|0,3:2|0:0,0:0:0:0:
210,319,27077,2,0,P|173:349|140:383,1,96,2|0,0:0|0:0,0:0:0:0:
123,344,27881,2,0,P|79:327|33:316,1,96,2|0,0:0|0:0,0:0:0:0:
58,282,28684,1,2,0:0:0:0:
167,141,29488,6,0,P|211:168|213:220,1,107.999996704102,2|0,0:0|0:0,0:0:0:0:
269,253,30292,1,2,0:0:0:0:
318,294,30560,1,2,0:0:0:0:
452,332,31095,2,0,P|459:278|470:225,1,107.999996704102,2|0,0:0|0:0,0:0:0:0:
496,165,31899,1,2,0:0:0:0:
482,101,32167,1,2,0:0:0:0:
361,30,32702,6,0,P|340:79|315:127,1,107.999996704102,2|0,0:0|0:0,0:0:0:0:
251,117,33506,1,2,0:0:0:0:
191,91,33774,1,2,0:0:0:0:
101,199,34310,2,0,P|51:214|35:263,1,107.999996704102,2|0,0:0|0:0,0:0:0:0:
77,312,35113,1,2,0:0:0:0:
98,373,35381,1,2,0:0:0:0:
221,305,35917,6,0,P|268:329|319:348,1,107.999996704102,2|0,0:0|0:0,0:0:0:0:
352,292,36720,2,0,P|397:262|438:228,1,107.999996704102,2|0,0:0|0:0,0:0:0:0:
406,172,37524,2,0,P|403:118|394:64,1,107.999996704102,2|0,0:0|0:0,0:0:0:0:
329,65,38327,1,2,0:0:0:0:
196,19,38862,5,2,0:0:0:0:
184,30,39131,2,0,P|133:40|108:85,1,107.999996704102,2|0,0:0|0:0,0:0:0:0:
63,132,39935,1,2,0:0:0:0:
0,148,40202,1,2,0:0:0:0:
79,259,40738,6,0,P|105:261|130:270,1,53.9999983520508,2|0,0:0|0:0,0:0:0:0:
184,316,41274,2,0,P|210:313|235:304,1,53.9999983520508,0|2,0:0|0:0,0:0:0:0:
267,241,41810,1,2,0:0:0:0:
240,87,42345,5,2,0:0:0:0:
299,58,42613,1,0,0:0:0:0:
363,45,42881,1,2,0:0:0:0:
111,35,43685,5,2,0:0:0:0:
52,6,43952,1,2,0:0:0:0:
18,158,44488,1,2,0:0:0:0:
132,263,45024,1,2,0:0:0:0:
77,318,45292,5,2,0:0:0:0:
96,325,45560,2,0,P|123:339|145:359,1,60,2|0,0:0|0:0,0:0:0:0:
210,315,46095,2,0,P|309:306|401:272,1,198.000006042481,2|2,0:0|0:0,0:0:0:0:
471,315,47167,6,0,P|419:219|512:164,1,240,2|0,0:0|0:0,0:0:0:0:
402,105,48774,6,0,P|372:67|350:24,2,96,2|0|0,0:0|0:0|0:0,0:0:0:0:
301,179,50381,1,2,0:0:0:0:
301,179,50917,1,2,0:0:0:0:
301,179,51988,6,0,P|271:216|249:259,2,96,2|0|0,0:0|0:0|0:0,0:0:0:0:
200,105,53595,1,2,0:0:0:0:
200,105,54667,5,2,0:0:0:0:
112,138,55202,1,2,0:0:0:0:
256,192,55336,12,2,58417,0:0:0:0:
256,192,58551,12,0,63238,0:0:0:0:
