osu file format v14

[General]
AudioFilename: audio.mp3
AudioLeadIn: 0
PreviewTime: 57332
Countdown: 0
SampleSet: Soft
StackLeniency: 0.7
Mode: 0
LetterboxInBreaks: 0
WidescreenStoryboard: 1

[Editor]
Bookmarks: 23132,38492,57692,73052,88412,103772,119132,134492,149852,167132,182492,197852
DistanceSpacing: 1.3
BeatDivisor: 4
GridSize: 32
TimelineZoom: 0.9999999

[Metadata]
Title:In Hell We Live, Lament feat. KIHOW from MYTH & ROID
TitleUnicode:In Hell We Live, Lament feat. KIHOW from MYTH & ROID
Artist:Mili
ArtistUnicode:Mili
Creator:Hinsvar
Version:Normal
Source:Limbus Company
Tags:Cassie Wei momocashew 葛西大和 Yamato Kasai HAMO 行人 Yukihito 吉田翔人 Shoto Yoshida 藤森蒼 Ao Fujimori English Pop Classical contemporary art ambient Video Game opening theme song 림버스 リンバス Project Moon Featured Artist FA Mappers' Guild MG MPG
BeatmapID:4188147
BeatmapSetID:2011507

[Difficulty]
HPDrainRate:3
CircleSize:3
OverallDifficulty:4
ApproachRate:5
SliderMultiplier:1.28
SliderTickRate:1

[Events]
//Background and Video events
0,0,"BG.jpg",0,0
//Break Periods
2,88611,101132
//Storyboard Layer 0 (Background)
//Storyboard Layer 1 (Fail)
//Storyboard Layer 2 (Pass)
//Storyboard Layer 3 (Foreground)
//Storyboard Layer 4 (Overlay)
//Storyboard Sound Samples

[TimingPoints]
23132,480,4,2,1,40,1,0
23132,-125,4,2,1,40,0,0
38492,-111.111111111111,4,2,1,60,0,0
55772,-100,4,2,1,60,0,0
57452,-100,4,2,1,50,0,0
57692,480,4,2,1,70,1,1
57692,-100,4,2,1,70,0,1
57812,-100,4,2,1,70,0,0
73052,-90.9090909090909,4,2,1,80,0,1
88412,-125,4,2,1,50,0,0
103772,-111.111111111111,4,2,1,50,0,0
119132,-125,4,2,1,30,0,0
134492,-125,4,2,1,40,0,0
148412,-111.111111111111,4,2,1,50,0,0
149852,-111.111111111111,4,2,1,60,0,0
164012,-100,4,2,1,70,0,0
166892,-100,4,2,1,50,0,0
167132,480,4,2,1,70,1,1
167132,-100,4,2,1,70,0,1
167252,-100,4,2,1,70,0,0
182492,-90.9090909090909,4,2,1,80,0,1
197852,-90.9090909090909,4,2,1,60,0,0

[Colours]
Combo1 : 243,163,12
Combo2 : 97,168,226
Combo3 : 230,65,47
Combo4 : 142,136,221

[HitObjects]
18,218,23132,5,2,3:2:0:0:
185,311,23852,2,0,L|189:375,2,51.2
180,246,24572,1,0,0:0:0:0:
120,132,25052,1,2,0:0:0:0:
494,166,26972,5,2,0:0:0:0:
327,73,27692,2,0,L|323:9,2,51.2
332,138,28412,1,0,0:0:0:0:
392,252,28892,5,2,0:0:0:0:
163,367,29852,1,2,0:0:0:0:
16,156,30812,1,2,0:0:0:0:
214,95,31532,6,0,L|218:31,2,51.2
209,160,32252,1,0,0:0:0:0:
120,252,32732,5,2,0:0:0:0:
349,367,33692,1,2,0:0:0:0:
496,156,34652,1,2,0:0:0:0:
301,226,35372,6,0,P|275:222|253:204,2,51.2
364,218,36092,1,0,0:0:0:0:
417,101,36572,2,0,P|356:54|281:45,1,153.6,2|0,0:0|0:0,0:0:0:0:
218,31,37532,2,0,P|211:81|231:128,1,102.4
249,189,38252,5,0,0:0:0:0:
249,189,38492,2,0,B|235:224|181:236|167:223|126:233|91:278,1,172.799994726563,2|0,3:2|0:0,0:0:0:0:
65,319,39452,2,0,B|60:307|42:303|37:307|24:304|12:289,2,57.5999982421876,2|0|0,0:0|0:0|0:0,0:0:0:0:
183,363,40412,2,0,P|293:359|341:301,1,172.799994726563,2|0,3:2|0:0,0:0:0:0:
326,254,41372,2,0,L|318:182,1,57.5999982421876,2|0,3:2|0:0,0:0:0:0:
368,156,41852,2,0,L|440:148,1,57.5999982421876
466,198,42332,5,2,3:2:0:0:
479,313,42812,1,0,0:0:0:0:
479,313,43052,2,0,P|426:325|359:354,1,115.199996484375,2|0,0:0|0:0,0:0:0:0:
261,282,44012,2,0,P|285:204|297:95,1,172.799994726563
360,120,44972,2,0,P|367:177|384:232,1,115.199996484375,2|2,0:0|0:0,0:0:0:0:
493,55,46172,6,0,P|427:15|336:34,1,172.799994726563,2|0,3:2|0:0,0:0:0:0:
285,69,47132,2,0,L|279:6,2,57.5999982421876,2|0|0,0:0|0:0|0:0,0:0:0:0:
252,123,47852,2,0,L|262:237,1,115.199996484375,2|0,0:0|0:0,0:0:0:0:
182,336,48812,1,2,0:0:0:0:
62,294,49292,2,0,L|45:121,1,172.799994726563,2|2,0:0|0:0,0:0:0:0:
232,33,50732,5,0,0:0:0:0:
232,33,50972,2,0,P|257:40|300:39,2,57.5999982421876,2|0|0,0:0|0:0|0:0,0:0:0:0:
177,65,51692,2,0,P|204:115|219:170,1,115.199996484375,2|0,0:0|0:0,0:0:0:0:
346,177,52652,2,0,P|375:127|416:87,2,115.199996484375,2|0|0,0:0|0:0|0:0,0:0:0:0:
332,238,53852,1,2,3:2:0:0:
332,238,55772,6,0,P|118:201|59:338,1,384
116,361,57452,5,0,0:0:0:0:
116,361,57692,2,0,P|170:346|201:283,1,128,2|2,3:2|3:2,0:0:0:0:
186,180,58532,2,0,L|169:83,1,96,2|2,0:0|0:0,0:0:0:0:
214,41,59132,1,0,3:0:0:0:
214,41,59372,1,2,0:0:0:0:
214,41,59612,2,0,P|268:56|299:119,1,128,2|2,3:2|3:2,0:0:0:0:
284,222,60452,6,0,L|267:319,1,96,2|2,0:0|0:0,0:0:0:0:
312,361,61052,1,0,3:0:0:0:
312,361,61292,1,2,0:0:0:0:
312,361,61532,2,0,P|366:346|397:283,1,128,2|2,3:2|3:2,0:0:0:0:
363,184,62372,6,0,P|333:154|280:158,1,96,2|2,0:0|0:0,0:0:0:0:
247,211,62972,2,0,L|243:276,1,64,2|0,3:2|0:0,0:0:0:0:
198,320,63452,2,0,L|68:312,1,128,2|0,3:2|3:0,0:0:0:0:
123,195,64412,2,0,L|27:189,2,96,2|2|2,3:2|0:0|0:0,0:0:0:0:
187,199,65372,1,2,3:2:0:0:
374,307,66092,5,0,0:0:0:0:
374,307,66332,2,0,P|407:321|436:322,2,64,0|2|0,3:0|0:0|3:0,0:0:0:0:
384,179,67292,2,0,P|419:174|445:160,2,64,0|2|0,3:0|0:0|3:0,0:0:0:0:
328,63,68252,2,0,P|356:41|371:16,2,64,0|2|0,3:0|0:0|3:0,0:0:0:0:
264,60,68972,2,0,P|198:32|140:30,1,128,2|2,0:0|0:0,0:0:0:0:
114,154,69932,6,0,P|92:182|67:197,2,64,0|0|2,0:0|3:0|0:0,0:0:0:0:
177,181,70652,1,0,3:0:0:0:
177,181,70892,2,0,L|193:318,1,128,2|2,0:0|0:0,0:0:0:0:
320,308,71852,2,0,L|335:181,1,128,2|0,0:0|0:0,0:0:0:0:
398,154,72572,1,0,3:0:0:0:
398,154,72812,1,0,3:0:0:0:
398,154,73052,2,0,P|470:180|492:244,1,140.800004296875,2|2,3:2|3:2,0:0:0:0:
408,316,73892,6,0,P|361:355|308:345,1,105.600003222656,2|0,0:0|3:0,0:0:0:0:
307,292,74492,1,2,0:2:0:0:
307,292,74732,1,0,3:0:0:0:
307,292,74972,2,0,L|281:220,2,70.4000021484376,2|0|2,3:2|3:0|3:2,0:0:0:0:
190,285,75812,6,0,P|143:245|90:255,1,105.600003222656,2|0,0:0|3:0,0:0:0:0:
81,317,76412,1,2,3:2:0:0:
81,317,76652,1,0,3:0:0:0:
81,317,76892,2,0,L|55:389,2,70.4000021484376,2|0|2,3:2|3:0|3:2,0:0:0:0:
67,195,77732,6,0,L|31:95,1,105.600003222656,2|0,0:0|3:0,0:0:0:0:
80,45,78332,2,0,L|146:21,1,70.4000021484376,2|0,3:2|3:0,0:0:0:0:
204,77,78812,1,2,3:2:0:0:
204,77,79052,1,0,3:0:0:0:
204,77,79292,1,2,3:2:0:0:
335,126,79772,2,0,L|434:161,2,105.600003222656,2|2|2,3:2|0:0|3:2,0:0:0:0:
275,163,80732,6,0,P|267:233|284:304,1,140.800004296875,2|0,3:2|3:0,0:0:0:0:
333,349,81452,2,0,P|368:353|403:344,1,70.4000021484376,2|2,0:0|3:2,0:0:0:0:
450,294,81932,1,0,3:0:0:0:
450,294,82172,2,0,P|456:241|443:188,2,105.600003222656,2|2|0,3:2|0:0|3:0,0:0:0:0:
386,262,83132,2,0,P|353:220|306:191,2,105.600003222656,2|2|2,3:2|0:0|3:2,0:0:0:0:
318,284,84092,2,0,P|282:279|246:288,1,70.4000021484376,0|2,3:0|3:2,0:0:0:0:
188,322,84572,1,2,3:2:0:0:
51,365,85052,6,0,P|43:331|49:297,1,70.4000021484376,2|0,3:2|3:0,0:0:0:0:
56,227,85532,1,2,3:2:0:0:
56,227,85772,2,0,P|60:192|52:158,1,70.4000021484376,2|0,3:2|3:0,0:0:0:0:
32,90,86252,1,2,3:2:0:0:
32,90,86492,2,0,P|103:108|167:71,1,140.800004296875,0|2,3:0|3:2,0:0:0:0:
217,36,87212,1,0,3:0:0:0:
217,36,87452,1,2,3:2:0:0:
351,78,87932,2,0,P|413:108|480:90,1,140.800004296875,2|0,3:2|0:0,0:0:0:0:
254,246,102332,6,0,L|241:136,2,102.4,2|0|0,0:0|0:0|0:0,0:0:0:0:
266,313,103532,1,0,0:0:0:0:
266,313,103772,2,0,P|344:321|431:374,1,172.799994726563,2|0,0:0|0:0,0:0:0:0:
484,346,104732,1,0,0:0:0:0:
443,226,105212,2,0,P|416:223|387:205,1,57.5999982421876
326,202,105692,2,0,P|298:146|319:40,1,172.799994726563,2|0,0:0|0:0,0:0:0:0:
380,31,106652,1,0,0:0:0:0:
497,77,107132,2,0,P|506:95|499:130,1,57.5999982421876
480,191,107612,6,0,P|431:195|360:221,1,115.199996484375,2|0,0:0|0:0,0:0:0:0:
320,256,108332,1,0,0:0:0:0:
192,256,108812,1,0,0:0:0:0:
256,147,109292,2,0,P|200:63|135:54,1,172.799994726563,2|0,0:0|0:0,0:0:0:0:
83,92,110252,2,0,P|53:152|69:192,1,115.199996484375
204,350,111452,6,0,P|256:339|324:303,1,115.199996484375,2|0,0:0|0:0,0:0:0:0:
322,249,112172,2,0,L|329:190,1,57.5999982421876
383,159,112652,2,0,L|442:166,1,57.5999982421876
473,220,113132,1,2,0:0:0:0:
412,331,113612,1,0,0:0:0:0:
295,281,114092,2,0,P|282:251|278:224,1,57.5999982421876,0|2,0:0|0:0,0:0:0:0:
219,202,114572,2,0,P|161:278|96:331,1,172.799994726563,2|0,0:0|0:0,0:0:0:0:
19,231,115772,5,2,0:0:0:0:
71,116,116252,2,0,P|39:112|13:102,2,57.5999982421876
91,55,116972,2,0,B|129:38|145:46|149:54|165:63|203:44,1,115.199996484375,2|0,0:0|0:0,0:0:0:0:
310,132,117932,1,0,0:0:0:0:
310,132,118172,1,2,0:0:0:0:
310,132,118412,2,0,B|367:157|391:145|397:133|421:120|478:148,1,172.799994726563,2|0,0:0|0:0,0:0:0:0:
476,147,120092,6,0,P|432:158|377:190,1,102.4,2|0,0:0|0:0,0:0:0:0:
341,234,120812,1,0,0:0:0:0:
173,355,121532,1,0,0:0:0:0:
68,280,122012,1,0,0:0:0:0:
144,175,122492,1,0,0:0:0:0:
247,252,122972,1,2,0:0:0:0:
476,365,123932,6,0,P|484:318|484:249,1,102.4,2|0,0:0|0:0,0:0:0:0:
484,199,124652,2,0,P|428:153|339:101,1,153.6
263,25,125852,2,0,P|218:41|158:76,1,102.4
57,128,126812,1,2,0:0:0:0:
128,373,127772,6,0,P|166:360|186:298,1,102.4,2|0,0:0|0:0,0:0:0:0:
183,241,128492,2,0,P|126:221|96:128,1,153.6
193,59,129692,2,0,P|223:32|286:46,1,102.4
300,166,130652,1,2,0:0:0:0:
474,353,131612,6,0,P|429:363|367:357,1,102.4,2|0,0:0|0:0,0:0:0:0:
346,300,132332,2,0,P|280:279|204:224,1,153.6
103,161,133532,2,0,P|69:192|12:217,1,102.4
42,341,134492,1,2,0:0:0:0:
288,320,135452,6,0,P|295:265|272:210,1,102.4,2|0,0:0|0:0,0:0:0:0:
228,183,136172,2,0,P|204:110|215:35,1,153.6
341,13,137372,2,0,P|416:28|475:75,1,153.6
472,139,138332,2,0,P|482:204|452:277,1,128,2|2,0:0|0:0,0:0:0:0:
322,362,139532,6,0,P|298:360|273:328,2,51.2
367,317,140252,2,0,P|369:237|352:155,1,153.6
324,110,141212,2,0,P|270:108|216:119,1,102.4
96,138,142172,1,2,0:0:0:0:
8,378,143132,6,0,P|49:358|88:298,1,102.4,2|0,0:0|0:0,0:0:0:0:
29,224,143972,2,0,P|25:169|64:92,1,128
175,143,145052,2,0,P|178:186|146:247,1,102.4
256,317,146012,1,2,0:0:0:0:
412,205,146732,6,0,L|466:197,2,51.2,2|0|0,0:0|0:0|0:0,0:0:0:0:
360,166,147452,2,0,L|352:115,1,51.2
391,63,147932,1,2,0:0:0:0:
264,59,148412,2,0,P|200:49|150:24,2,115.199996484375,2|0|0,0:0|0:0|0:0,0:0:0:0:
260,186,149852,6,0,B|234:287|117:250|149:154|139:75|70:34|-10:80|16:155,1,403.199987695313,2|0,0:0|0:0,0:0:0:0:
14,216,151772,2,0,B|27:267|85:294|108:283|167:307|184:380,1,230.39999296875,2|0,0:0|0:0,0:0:0:0:
256,263,153212,1,2,0:0:0:0:
333,364,153692,6,0,B|451:333|514:241|481:141|428:126|357:163|343:195|372:251,1,403.199987695313,2|0,0:0|0:0,0:0:0:0:
307,263,155612,2,0,B|250:286|209:236|187:245|133:182|82:212,1,230.39999296875,2|0,0:0|0:0,0:0:0:0:
316,91,157532,6,0,P|465:187|470:342,1,345.599989453125,2|0,0:0|0:0,0:0:0:0:
345,364,159452,2,0,P|295:332|293:280,1,115.199996484375,2|0,0:0|0:0,0:0:0:0:
202,191,160412,2,0,P|154:266|76:269,1,172.799994726563,2|0,0:0|0:0,0:0:0:0:
44,213,161372,6,0,B|-9:139|-8:18|59:4|153:35|154:79|103:131,1,345.599989453125,2|0,0:0|0:0,0:0:0:0:
150,234,163292,1,2,0:0:0:0:
361,233,164012,5,2,0:0:0:0:
432,339,164492,1,2,0:0:0:0:
468,213,164972,2,0,B|521:139|520:18|453:4|362:0|335:34|346:78|311:98|249:84|221:33,1,448,2|0,0:0|0:0,0:0:0:0:
167,25,166892,5,2,0:0:0:0:
167,25,167132,2,0,P|100:42|62:96,1,128,2|2,3:2|3:2,0:0:0:0:
57,191,167972,2,0,P|93:228|142:232,1,96,2|2,0:0|0:0,0:0:0:0:
207,239,168572,1,0,3:0:0:0:
207,239,168812,1,2,0:0:0:0:
207,239,169052,2,0,P|274:222|312:168,1,128,2|2,3:2|3:2,0:0:0:0:
317,73,169892,6,0,P|280:35|231:31,1,96,2|2,0:0|0:0,0:0:0:0:
176,40,170492,1,0,3:0:0:0:
176,40,170732,1,2,0:0:0:0:
176,40,170972,2,0,L|192:182,1,128,2|2,3:2|3:2,0:0:0:0:
278,224,171812,6,0,L|265:337,1,96,2|2,0:0|0:0,0:0:0:0:
320,355,172412,2,0,L|395:363,1,64,2|0,3:2|0:0,0:0:0:0:
419,309,172892,2,0,P|445:252|411:192,1,128,2|0,3:2|3:0,0:0:0:0:
364,172,173612,1,0,0:0:0:0:
364,172,173852,2,0,P|343:130|363:87,2,96,2|2|0,3:2|0:0|0:0,0:0:0:0:
316,215,174812,1,2,3:2:0:0:
137,324,175532,5,0,0:0:0:0:
137,324,175772,2,0,L|66:318,2,64,0|2|0,3:0|0:0|3:0,0:0:0:0:
84,207,176732,2,0,L|90:136,2,64,0|2|0,3:0|0:0|3:0,0:0:0:0:
201,154,177692,2,0,L|272:160,2,64,0|2|0,3:0|0:0|3:0,0:0:0:0:
183,92,178412,2,0,P|218:47|297:39,1,128,2|2,0:0|0:0,0:0:0:0:
412,47,179372,6,0,P|434:64|438:104,2,64,0|0|2,0:0|3:0|0:0,0:0:0:0:
361,85,180092,1,0,3:0:0:0:
361,85,180332,2,0,L|349:227,1,128,2|2,0:0|0:0,0:0:0:0:
227,174,181292,2,0,L|221:103,2,64,2|0|0,0:0|3:0|0:0,0:0:0:0:
244,245,182012,1,0,3:0:0:0:
244,245,182252,1,0,3:0:0:0:
244,245,182492,2,0,P|182:281|153:350,1,140.800004296875,2|2,3:2|3:2,0:0:0:0:
54,279,183332,6,0,L|45:163,1,105.600003222656,2|0,0:0|3:0,0:0:0:0:
87,119,183932,1,2,3:2:0:0:
87,119,184172,1,0,3:0:0:0:
87,119,184412,2,0,P|112:109|155:87,2,70.4000021484376,2|0|2,3:2|3:0|3:2,0:0:0:0:
177,192,185252,6,0,L|168:308,1,105.600003222656,2|0,0:0|3:0,0:0:0:0:
210,352,185852,1,2,3:2:0:0:
210,352,186092,1,0,3:0:0:0:
210,352,186332,2,0,P|235:361|278:383,2,70.4000021484376,2|0|2,3:2|3:0|3:2,0:0:0:0:
300,279,187172,6,0,L|291:163,1,105.600003222656,2|0,0:0|3:0,0:0:0:0:
333,119,187772,2,0,P|358:110|401:88,1,70.4000021484376,2|0,3:2|3:0,0:0:0:0:
469,69,188252,1,2,3:2:0:0:
469,69,188492,1,0,3:0:0:0:
469,69,188732,1,2,3:2:0:0:
334,26,189212,2,0,P|279:31|221:13,2,105.600003222656,2|2|2,3:2|0:0|0:0,0:0:0:0:
373,84,190172,6,0,P|355:152|362:221,1,140.800004296875,2|2,3:2|3:2,0:0:0:0:
302,259,190892,2,0,P|268:250|233:254,1,70.4000021484376,2|2,0:0|3:2,0:0:0:0:
183,212,191372,1,0,3:0:0:0:
183,212,191612,2,0,P|196:161|191:109,2,105.600003222656,2|2|0,3:2|0:0|3:0,0:0:0:0:
112,202,192572,2,0,P|61:216|19:247,2,105.600003222656,2|2|2,3:2|0:0|3:2,0:0:0:0:
139,269,193532,2,0,P|164:293|196:308,1,70.4000021484376,0|2,3:0|3:2,0:0:0:0:
260,279,194012,1,2,3:2:0:0:
388,337,194492,6,0,P|384:300|377:266,1,70.4000021484376,2|0,3:2|3:0,0:0:0:0:
402,201,194972,1,2,3:2:0:0:
402,201,195212,2,0,P|437:196|472:190,1,70.4000021484376,0|0,3:0|3:0,0:0:0:0:
504,135,195692,1,2,3:2:0:0:
504,135,195932,2,0,P|463:76|418:22,1,140.800004296875,0|2,3:0|3:2,0:0:0:0:
369,81,196652,1,0,3:0:0:0:
369,81,196892,2,0,P|339:144|315:210,2,140.800004296875,2|2|0,3:2|3:2|0:0,0:0:0:0:
